(Eurobeat/Hi-NRG/Dance) VA - Super Eurobeat Vol. 181 - 2007, FLAC (tracks+.cue), lossless - Скачать

Жанр: Electronic
Стиль: Eurobeat/Hi-NRG/Dance
Год выпуска: 2007
Производитель: Japan
Битрейт аудио: lossless
Аудио кодек: FLAC (*.flac)
Тип рипа: tracks+.cue
Источник: idforums.net
Продолжительность: 00:02:06:54

pop-music, поп-музыка, бесплатно, торрент, дискография, высокое качество, альбом, альбом, композиции, трек, песни, mp3, поп, torrent, soundtrack, скачать, lossless, музыка, pop, download, cd

Disc 1 - The Latest Tracks of SEB:
01. Marko Polo - Jungle Fever (4:28)
02. Go 2 & Christine - Blood on Fire (4:07)
03. Daniel - My Heart Radio (4:13)
04. Linda - Love Desire 2007 (4:12)
05. Jeff Driller - Back in Danger (4:11)
06. Cherry - Abracadabra (4:00)
07. Alexis - Beautiful (4:17)
08. Maddy Layne - Lovers in the Night (4:11)
09. Chris Stanton - Take a Frame (4:09)
10. Jay Lehr - I'm Alive (4:08)
11. Nuage - My Blue Sky (4:14)
12. Annalise - True Colour (4:10)
13. Rose - Over the Sky (4:12)
14. Mega NRG Man - Catch My Fire (4:10)
15. King & Queen - Dance (4:06)
16. Matt Land - Gunfire (4:09)
17. Manuel - Gas Gas Gas (4:21)
18. Go 2 - NRG (4:15)
Disc 2 - The Best of Extended Versions Vol. 3
01. Domino - Tora Tora Tora (JD Extended Version) (5:53)
02. Valentina & Mirka - Shake Me Up (Extended Friday Mix) (5:22)
03. Dusty - Crazy For Love (4:54)
04. Jackie 'O - X-Man Story (4:59)
05. Fastway - Formula 1 (4:25)
06. Kelly Wright - Don't Play with Me (5:07)
07. Donna - Lover Boy (5:33)
08. Fastway - 777 (5:36)
09. Baby Bazooka - Caballero with Sombrero (4:13)
10. Edo Boys - No One Sleep in Tokyo (5:18)

*.auCDtect disc 1
 -----------------------
DON'T MODIFY THIS FILE
-----------------------
PERFORMER: auCDtect Task Manager, ver. 1.6.0 RC1 build 1.6.0.1
Copyright (c) 2008-2010 y-soft. All rights reserved
http://y-soft.org
ANALYZER: auCDtect: CD records authenticity detector, version 0.8.2
Copyright (c) 2004 Oleg Berngardt. All rights reserved.
Copyright (c) 2004 Alexander Djourik. All rights reserved.
FILE: 01. Marko Polo - Jungle Fever.flac
Size: 37408688 Hash: 9B9A22C93005DF8D98BD79BBAC948711 Accuracy: -m0
Conclusion: CDDA 100%
Signature: BBAC92142BDB020A2C711B93F9892FF8AB23C519
FILE: 02. Go 2 & Christine - Blood on Fire.flac
Size: 35393880 Hash: E4C5C6A0B6C771D5494CEB74FF41BE8A Accuracy: -m0
Conclusion: CDDA 100%
Signature: F0470B4AC4517846D310EAE8D06669B81430BAAD
FILE: 03. Daniel - My Heart Radio.flac
Size: 36969107 Hash: 3C8864B93958ECC5B15BF8BD38B005AA Accuracy: -m0
Conclusion: CDDA 100%
Signature: 9763A7B8E224410BE2347CB0D7A1DEB4A40CF92A
FILE: 04. Linda - Love Desire 2007.flac
Size: 36102625 Hash: 601ECFAFF3AC9AC66E6CC963D6C6F716 Accuracy: -m0
Conclusion: CDDA 100%
Signature: 3432330DE1C66905B1137C59EB45B547B94733E5
FILE: 05. Jeff Driller - Back in Danger.flac
Size: 35774391 Hash: 3912DFA1204D2F722D93B4C5FB0A9AD6 Accuracy: -m0
Conclusion: CDDA 100%
Signature: 99D833D9E354DF7EBA9DD59A38416CA70BE878F0
FILE: 06. Cherry - Abracadabra.flac
Size: 34816956 Hash: 524634E47359DAADB7DB2C4977F44514 Accuracy: -m0
Conclusion: CDDA 100%
Signature: 8185118B73AAFB5D00F31DBD0064677D84AF3B5B
FILE: 07. Alexis - Beautiful.flac
Size: 37327073 Hash: 0B508094E2FFC91E6AC7BCD2B70955FF Accuracy: -m0
Conclusion: CDDA 100%
Signature: F3B1653E9A494EE8BF94AC751DB52F7C52E728E1
FILE: 08. Maddy Layne - Lovers in the Night.flac
Size: 35493522 Hash: 6FA9EFEC4094C52C687E5ABA4BFF3E74 Accuracy: -m0
Conclusion: CDDA 100%
Signature: 1831F3EFFCF30AF860153120DF053BCDDB7CD45C
FILE: 09. Chris Stanton - Take a Frame.flac
Size: 35856874 Hash: C3A0C4E08339CC3AC6D78E996C47E57D Accuracy: -m0
Conclusion: CDDA 99%
Signature: 57800A2DAA8C70BA473B4B81532C6B3FD3CE079B
FILE: 10. Jay Lehr - I'm Alive.flac
Size: 35702793 Hash: 41404A811797ADBDD258B0D4D8EA0DFB Accuracy: -m0
Conclusion: CDDA 100%
Signature: 4F8006FEDDE9D5ED929D936FCDCD09AE152BCDBE
FILE: 11. Nuage - My Blue Sky.flac
Size: 35440732 Hash: E0431AB94DC66E9E6CC0358814D86FD9 Accuracy: -m0
Conclusion: CDDA 100%
Signature: BA085D4DD54BE70B30855E69326E27BD739E094F
FILE: 12. Annalise - True Colour.flac
Size: 35722774 Hash: D49DE224FC119C73C04D993AA34C5135 Accuracy: -m0
Conclusion: CDDA 100%
Signature: 0137E8567542F63DDBFCE1EADDD36F6FEDDA5B29
FILE: 13. Rose - Over the Sky.flac
Size: 35189805 Hash: 0433BFF8C9653AA94B4397C44FBF31AE Accuracy: -m0
Conclusion: CDDA 100%
Signature: 3A6598B2BB973FDEF0251A81FFFCFA7599548A88
FILE: 14. Mega NRG Man - Catch My Fire.flac
Size: 33595588 Hash: AA8AED264739F46675E3285E01E1982A Accuracy: -m0
Conclusion: CDDA 99%
Signature: 3F08CBB5B8439B0B2737288658334F33FF6A5F24
FILE: 15. King & Queen - Dance.flac
Size: 34818915 Hash: D31F70385628E2A01BCCBB2D8D454195 Accuracy: -m0
Conclusion: CDDA 100%
Signature: 2AE3557ECB692FAB9F8C6BD8C7168B4E78BDB606
FILE: 16. Matt Land - Gunfire.flac
Size: 34854375 Hash: AC44B6D4BDBF42CE34102C34BD79BF50 Accuracy: -m0
Conclusion: CDDA 100%
Signature: 287BEDE5993FFBE235007FC589CA1A61E3473FCD
FILE: 17. Manuel - Gas Gas Gas.flac
Size: 37076522 Hash: 0CB3D1AF1737E01A14309AB3786A1A5B Accuracy: -m0
Conclusion: CDDA 100%
Signature: AC579389BBDD503A417B4C5A653590B6F8BC5843
FILE: 18. Go 2 - NRG.flac
Size: 35145568 Hash: 2C20B7E52EFBC81455BC18909CB4EF4D Accuracy: -m0
Conclusion: CDDA 100%
Signature: 384DAF6BF0860FCA108BBD938C8B5FF5445667EE
*.cue disc 1
 REM GENRE Eurobeat
REM DATE 2007
REM DISCID E711B512
PERFORMER "Various Artists"
TITLE "Super Eurobeat Vol. 181 - The Latest Tracks of SEB"
FILE "01. Marko Polo - Jungle Fever.wav" WAVE
TRACK 01 AUDIO
TITLE "Jungle Fever"
PERFORMER "Marko Polo"
INDEX 01 00:00:00
FILE "02. Go 2 & Christine - Blood on Fire.wav" WAVE
TRACK 02 AUDIO
TITLE "Blood on Fire"
PERFORMER "Go 2 & Christine"
INDEX 01 00:00:00
FILE "03. Daniel - My Heart Radio.wav" WAVE
TRACK 03 AUDIO
TITLE "My Heart Radio"
PERFORMER "Daniel"
INDEX 01 00:00:00
FILE "04. Linda - Love Desire 2007.wav" WAVE
TRACK 04 AUDIO
TITLE "Love Desire 2007"
PERFORMER "Linda"
INDEX 01 00:00:00
FILE "05. Jeff Driller - Back in Danger.wav" WAVE
TRACK 05 AUDIO
TITLE "Back in Danger"
PERFORMER "Jeff Driller"
INDEX 01 00:00:00
FILE "06. Cherry - Abracadabra.wav" WAVE
TRACK 06 AUDIO
TITLE "Abracadabra"
PERFORMER "Cherry"
INDEX 01 00:00:00
FILE "07. Alexis - Beautiful.wav" WAVE
TRACK 07 AUDIO
TITLE "Beautiful"
PERFORMER "Alexis"
INDEX 01 00:00:00
FILE "08. Maddy Layne - Lovers in the Night.wav" WAVE
TRACK 08 AUDIO
TITLE "Lovers in the Night"
PERFORMER "Maddy Layne"
INDEX 01 00:00:00
FILE "09. Chris Stanton - Take a Frame.wav" WAVE
TRACK 09 AUDIO
TITLE "Take a Frame"
PERFORMER "Chris Stanton"
INDEX 01 00:00:00
FILE "10. Jay Lehr - I'm Alive.wav" WAVE
TRACK 10 AUDIO
TITLE "I'm Alive"
PERFORMER "Jay Lehr"
INDEX 01 00:00:00
FILE "11. Nuage - My Blue Sky.wav" WAVE
TRACK 11 AUDIO
TITLE "My Blue Sky"
PERFORMER "Nuage"
INDEX 01 00:00:00
FILE "12. Annalise - True Colour.wav" WAVE
TRACK 12 AUDIO
TITLE "True Colour"
PERFORMER "Annalise"
INDEX 01 00:00:00
FILE "13. Rose - Over the Sky.wav" WAVE
TRACK 13 AUDIO
TITLE "Over the Sky"
PERFORMER "Rose"
INDEX 01 00:00:00
FILE "14. Mega NRG Man - Catch My Fire.wav" WAVE
TRACK 14 AUDIO
TITLE "Catch My Fire"
PERFORMER "Mega NRG Man"
INDEX 01 00:00:00
FILE "15. King & Queen - Dance.wav" WAVE
TRACK 15 AUDIO
TITLE "Dance"
PERFORMER "King & Queen"
INDEX 01 00:00:00
FILE "16. Matt Land - Gunfire.wav" WAVE
TRACK 16 AUDIO
TITLE "Gunfire"
PERFORMER "Matt Land"
INDEX 01 00:00:00
FILE "17. Manuel - Gas Gas Gas.wav" WAVE
TRACK 17 AUDIO
TITLE "Gas Gas Gas"
PERFORMER "Manuel"
INDEX 01 00:00:00
FILE "18. Go 2 - NRG.wav" WAVE
TRACK 18 AUDIO
TITLE "NRG"
PERFORMER "Go 2"
INDEX 01 00:00:00
*.accurip disc 1
 [CUETools log; Date: 05.09.2013 21:35:07; Version: 2.1.4]
[CTDB TOCID: 83wYF5och_Fh4QNdOpUAdANljaY-] disk not present in database.
[AccurateRip ID: 003156ca-02910630-e711b512] found.
Track [ CRC | V2 ] Status
01 [ad4bd722|0ece6599] (0+0/0) No match
02 [308d0d43|462d1563] (0+0/0) No match
03 [604ed435|348e51a1] (0+0/0) No match
04 [4a4f1f32|4102e228] (0+0/0) No match
05 [e94e5b83|8b70f726] (0+0/0) No match
06 [2beb12f7|fdb223be] (0+0/0) No match
07 [c4112a8d|7c5e5dc1] (0+0/0) No match
08 [71aaf956|b6fe7594] (0+0/0) No match
09 [80f3fd42|da6f11bb] (0+0/0) No match
10 [f74fa8cf|1b07b8a2] (0+0/0) No match
11 [9aa97755|f15a772e] (0+0/0) No match
12 [e8abf835|15bf77ae] (0+0/0) No match
13 [943b497d|e5b70d62] (0+0/0) No match
14 [b2323ec6|d7870dea] (0+0/0) No match
15 [8b9cf20c|ab3c08d9] (0+0/0) No match
16 [5e276fde|d5a2b4fb] (0+0/0) No match
17 [d915f246|c06ff43b] (1+0/1) Accurately ripped
18 [80791851|6a4acc48] (0+0/0) No match
Track Peak [ CRC32 ] [W/O NULL]
-- 99,9 [9ED6449A] [2E37EE69]
01 99,9 [C36DE945] [5534578D]
02 99,9 [38276AA2] [518E9677]
03 99,9 [8E1722DD] [28D64D0B]
04 99,9 [6126F619] [ACEFD38D]
05 99,9 [0D806C6B] [F86391F4]
06 99,9 [68DD1B66] [3604F53E]
07 99,9 [544DC5FA] [1BE774CC]
08 99,9 [58A25574] [C35FC60F]
09 99,9 [DD9C8227] [B352EC5A]
10 99,9 [BEE319EF] [75CF50C6]
11 99,9 [7F3EAF81] [610D9C97]
12 99,9 [6F56CB0A] [A615D7FC]
13 99,9 [4684219F] [358019C3]
14 99,9 [0A7887BA] [97B65D20]
15 99,9 [79EA85E0] [4248BE11]
16 99,9 [EBBFE94E] [3045CBEC]
17 99,9 [72188B55] [7B814C68]
18 99,9 [264D19C0] [056DC47D]

*.auCDtect disc 2
 -----------------------
DON'T MODIFY THIS FILE
-----------------------
PERFORMER: auCDtect Task Manager, ver. 1.6.0 RC1 build 1.6.0.1
Copyright (c) 2008-2010 y-soft. All rights reserved
http://y-soft.org
ANALYZER: auCDtect: CD records authenticity detector, version 0.8.2
Copyright (c) 2004 Oleg Berngardt. All rights reserved.
Copyright (c) 2004 Alexander Djourik. All rights reserved.
FILE: 01. Domino - Tora Tora Tora (JD Extended Version).flac
Size: 49858287 Hash: 28F5EDB33B18C5C765EC012535F2D69D Accuracy: -m0
Conclusion: CDDA 100%
Signature: 898695D7D75AC698E64EA5CE072DB4A952ECDB00
FILE: 02. Valentina & Mirka - Shake Me Up (Extended Friday Mix).flac
Size: 46287666 Hash: 67DCB22B29A6736685E3463026D0F191 Accuracy: -m0
Conclusion: CDDA 99%
Signature: E05177AC6D246468659F0BA9807A27938AD0DC10
FILE: 03. Dusty - Crazy For Love.flac
Size: 41161941 Hash: E54C55E8C1E45405BCA8BABEB289940D Accuracy: -m0
Conclusion: CDDA 100%
Signature: DD30EAE9D6E587CE5D1F6EABFCC8729465BC014D
FILE: 04. Jackie 'O - X-Man Story.flac
Size: 41213390 Hash: 53778C54D2651BF085EFD80608E14D3C Accuracy: -m0
Conclusion: CDDA 100%
Signature: B607DD6CBB69F698F10E725E907454C2BD7EFEF7
FILE: 05. Fastway - Formula 1.flac
Size: 36724650 Hash: D655558CABAED5F1FBF48905C1B70040 Accuracy: -m0
Conclusion: CDDA 100%
Signature: 2B405929F103A4B62C2D44C96FD1364FD5EB06A7
FILE: 06. Kelly Wright - Don't Play With Me.flac
Size: 41740190 Hash: DDC11E91FC2266B448872683FBA49E9D Accuracy: -m0
Conclusion: CDDA 100%
Signature: 1438DD4FD3357CC62F8538BCD0375B7EB50F29A0
FILE: 07. Donna - Lover Boy.flac
Size: 46045055 Hash: 2832A665815A8148E304C50ECA28AA74 Accuracy: -m0
Conclusion: CDDA 100%
Signature: 1FCFC7271E7AF2151A58CEE14781D0ADE047C16D
FILE: 08. Fastway - 777.flac
Size: 47632529 Hash: 38594A324614B1D93481B99FC620329E Accuracy: -m0
Conclusion: CDDA 99%
Signature: 590A60CE001C52F93FFAA57BDFF607359DF18BB6
FILE: 09. Baby Bazooka - Caballero With Sombrero.flac
Size: 34456574 Hash: E756CCDF8F782F9E5ABBB8A88014509B Accuracy: -m0
Conclusion: CDDA 100%
Signature: 8EDB802FA76BFC84650005C3AB1E1982F9E3BD0E
FILE: 10. Edo Boys - No One Sleep In Tokyo.flac
Size: 43235785 Hash: 71A0064AAC041231CB9B156EAA323E23 Accuracy: -m0
Conclusion: CDDA 100%
Signature: 3102C8468C6D9AFF6237E61C109A0CC4A02168B0
*.cue disc 2
 REM GENRE Eurobeat
REM DATE 2007
REM DISCID 860C080A
PERFORMER "Various Artists"
TITLE "Super Eurobeat Vol. 181 - The Best of Extended Versions Vol. 3"
FILE "01. Domino - Tora Tora Tora (JD Extended Version).wav" WAVE
TRACK 01 AUDIO
TITLE "Tora Tora Tora (JD Extended Version)"
PERFORMER "Domino"
INDEX 01 00:00:00
FILE "02. Valentina & Mirka - Shake Me Up (Extended Friday Mix).wav" WAVE
TRACK 02 AUDIO
TITLE "Shake Me Up (Extended Friday Mix)"
PERFORMER "Valentina & Mirka"
INDEX 01 00:00:00
FILE "03. Dusty - Crazy For Love.wav" WAVE
TRACK 03 AUDIO
TITLE "Crazy For Love"
PERFORMER "Dusty"
INDEX 01 00:00:00
FILE "04. Jackie 'O - X-Man Story.wav" WAVE
TRACK 04 AUDIO
TITLE "X-Man Story"
PERFORMER "Jackie 'O"
INDEX 01 00:00:00
FILE "05. Fastway - Formula 1.wav" WAVE
TRACK 05 AUDIO
TITLE "Formula 1"
PERFORMER "Fastway"
INDEX 01 00:00:00
FILE "06. Kelly Wright - Don't Play with Me.wav" WAVE
TRACK 06 AUDIO
TITLE "Don't Play with Me"
PERFORMER "Kelly Wright"
INDEX 01 00:00:00
FILE "07. Donna - Lover Boy.wav" WAVE
TRACK 07 AUDIO
TITLE "Lover Boy"
PERFORMER "Donna"
INDEX 01 00:00:00
FILE "08. Fastway - 777.wav" WAVE
TRACK 08 AUDIO
TITLE "777"
PERFORMER "Fastway"
INDEX 01 00:00:00
FILE "09. Baby Bazooka - Caballero with Sombrero.wav" WAVE
TRACK 09 AUDIO
TITLE "Caballero with Sombrero"
PERFORMER "Baby Bazooka"
INDEX 01 00:00:00
FILE "10. Edo Boys - No One Sleep in Tokyo.wav" WAVE
TRACK 10 AUDIO
TITLE "No One Sleep in Tokyo"
PERFORMER "Edo Boys"
INDEX 01 00:00:00
*.accurip disc 2
 [CUETools log; Date: 05.09.2013 21:45:09; Version: 2.1.4]
[CTDB TOCID: NA0_FmNCasEWQUXcYUpVSTQN0o0-] disk not present in database.
[AccurateRip ID: 0013a587-009c3d74-860c080a] disk not present in database.
Track Peak [ CRC32 ] [W/O NULL]
-- 99,9 [9B8C1113] [7BC46466]
01 99,9 [7D7C5AE3] [59348473]
02 99,9 [25905B3A] [0434E5E0]
03 99,9 [1BE719E0] [E6AF1FB5]
04 99,9 [E6C516DC] [649CE1D5]
05 99,9 [4717AD44] [830E8593]
06 99,9 [0C4C99E6] [262F3A0F]
07 99,9 [AC733D18] [8CFDD5B3]
08 99,9 [BE290E54] [80B0A2EE]
09 99,9 [31D9E163] [CD51937F]
10 99,9 [209F24B9] [F2573689]
 -----------------------
DON'T MODIFY THIS FILE
-----------------------
PERFORMER: auCDtect Task Manager, ver. 1.6.0 RC1 build 1.6.0.1
Copyright (c) 2008-2010 y-soft. All rights reserved
http://y-soft.org
ANALYZER: auCDtect: CD records authenticity detector, version 0.8.2
Copyright (c) 2004 Oleg Berngardt. All rights reserved.
Copyright (c) 2004 Alexander Djourik. All rights reserved.
FILE: 01. Marko Polo - Jungle Fever.flac
Size: 37408688 Hash: 9B9A22C93005DF8D98BD79BBAC948711 Accuracy: -m0
Conclusion: CDDA 100%
Signature: BBAC92142BDB020A2C711B93F9892FF8AB23C519
FILE: 02. Go 2 & Christine - Blood on Fire.flac
Size: 35393880 Hash: E4C5C6A0B6C771D5494CEB74FF41BE8A Accuracy: -m0
Conclusion: CDDA 100%
Signature: F0470B4AC4517846D310EAE8D06669B81430BAAD
FILE: 03. Daniel - My Heart Radio.flac
Size: 36969107 Hash: 3C8864B93958ECC5B15BF8BD38B005AA Accuracy: -m0
Conclusion: CDDA 100%
Signature: 9763A7B8E224410BE2347CB0D7A1DEB4A40CF92A
FILE: 04. Linda - Love Desire 2007.flac
Size: 36102625 Hash: 601ECFAFF3AC9AC66E6CC963D6C6F716 Accuracy: -m0
Conclusion: CDDA 100%
Signature: 3432330DE1C66905B1137C59EB45B547B94733E5
FILE: 05. Jeff Driller - Back in Danger.flac
Size: 35774391 Hash: 3912DFA1204D2F722D93B4C5FB0A9AD6 Accuracy: -m0
Conclusion: CDDA 100%
Signature: 99D833D9E354DF7EBA9DD59A38416CA70BE878F0
FILE: 06. Cherry - Abracadabra.flac
Size: 34816956 Hash: 524634E47359DAADB7DB2C4977F44514 Accuracy: -m0
Conclusion: CDDA 100%
Signature: 8185118B73AAFB5D00F31DBD0064677D84AF3B5B
FILE: 07. Alexis - Beautiful.flac
Size: 37327073 Hash: 0B508094E2FFC91E6AC7BCD2B70955FF Accuracy: -m0
Conclusion: CDDA 100%
Signature: F3B1653E9A494EE8BF94AC751DB52F7C52E728E1
FILE: 08. Maddy Layne - Lovers in the Night.flac
Size: 35493522 Hash: 6FA9EFEC4094C52C687E5ABA4BFF3E74 Accuracy: -m0
Conclusion: CDDA 100%
Signature: 1831F3EFFCF30AF860153120DF053BCDDB7CD45C
FILE: 09. Chris Stanton - Take a Frame.flac
Size: 35856874 Hash: C3A0C4E08339CC3AC6D78E996C47E57D Accuracy: -m0
Conclusion: CDDA 99%
Signature: 57800A2DAA8C70BA473B4B81532C6B3FD3CE079B
FILE: 10. Jay Lehr - I'm Alive.flac
Size: 35702793 Hash: 41404A811797ADBDD258B0D4D8EA0DFB Accuracy: -m0
Conclusion: CDDA 100%
Signature: 4F8006FEDDE9D5ED929D936FCDCD09AE152BCDBE
FILE: 11. Nuage - My Blue Sky.flac
Size: 35440732 Hash: E0431AB94DC66E9E6CC0358814D86FD9 Accuracy: -m0
Conclusion: CDDA 100%
Signature: BA085D4DD54BE70B30855E69326E27BD739E094F
FILE: 12. Annalise - True Colour.flac
Size: 35722774 Hash: D49DE224FC119C73C04D993AA34C5135 Accuracy: -m0
Conclusion: CDDA 100%
Signature: 0137E8567542F63DDBFCE1EADDD36F6FEDDA5B29
FILE: 13. Rose - Over the Sky.flac
Size: 35189805 Hash: 0433BFF8C9653AA94B4397C44FBF31AE Accuracy: -m0
Conclusion: CDDA 100%
Signature: 3A6598B2BB973FDEF0251A81FFFCFA7599548A88
FILE: 14. Mega NRG Man - Catch My Fire.flac
Size: 33595588 Hash: AA8AED264739F46675E3285E01E1982A Accuracy: -m0
Conclusion: CDDA 99%
Signature: 3F08CBB5B8439B0B2737288658334F33FF6A5F24
FILE: 15. King & Queen - Dance.flac
Size: 34818915 Hash: D31F70385628E2A01BCCBB2D8D454195 Accuracy: -m0
Conclusion: CDDA 100%
Signature: 2AE3557ECB692FAB9F8C6BD8C7168B4E78BDB606
FILE: 16. Matt Land - Gunfire.flac
Size: 34854375 Hash: AC44B6D4BDBF42CE34102C34BD79BF50 Accuracy: -m0
Conclusion: CDDA 100%
Signature: 287BEDE5993FFBE235007FC589CA1A61E3473FCD
FILE: 17. Manuel - Gas Gas Gas.flac
Size: 37076522 Hash: 0CB3D1AF1737E01A14309AB3786A1A5B Accuracy: -m0
Conclusion: CDDA 100%
Signature: AC579389BBDD503A417B4C5A653590B6F8BC5843
FILE: 18. Go 2 - NRG.flac
Size: 35145568 Hash: 2C20B7E52EFBC81455BC18909CB4EF4D Accuracy: -m0
Conclusion: CDDA 100%
Signature: 384DAF6BF0860FCA108BBD938C8B5FF5445667EE
 REM GENRE Eurobeat
REM DATE 2007
REM DISCID E711B512
PERFORMER "Various Artists"
TITLE "Super Eurobeat Vol. 181 - The Latest Tracks of SEB"
FILE "01. Marko Polo - Jungle Fever.wav" WAVE
TRACK 01 AUDIO
TITLE "Jungle Fever"
PERFORMER "Marko Polo"
INDEX 01 00:00:00
FILE "02. Go 2 & Christine - Blood on Fire.wav" WAVE
TRACK 02 AUDIO
TITLE "Blood on Fire"
PERFORMER "Go 2 & Christine"
INDEX 01 00:00:00
FILE "03. Daniel - My Heart Radio.wav" WAVE
TRACK 03 AUDIO
TITLE "My Heart Radio"
PERFORMER "Daniel"
INDEX 01 00:00:00
FILE "04. Linda - Love Desire 2007.wav" WAVE
TRACK 04 AUDIO
TITLE "Love Desire 2007"
PERFORMER "Linda"
INDEX 01 00:00:00
FILE "05. Jeff Driller - Back in Danger.wav" WAVE
TRACK 05 AUDIO
TITLE "Back in Danger"
PERFORMER "Jeff Driller"
INDEX 01 00:00:00
FILE "06. Cherry - Abracadabra.wav" WAVE
TRACK 06 AUDIO
TITLE "Abracadabra"
PERFORMER "Cherry"
INDEX 01 00:00:00
FILE "07. Alexis - Beautiful.wav" WAVE
TRACK 07 AUDIO
TITLE "Beautiful"
PERFORMER "Alexis"
INDEX 01 00:00:00
FILE "08. Maddy Layne - Lovers in the Night.wav" WAVE
TRACK 08 AUDIO
TITLE "Lovers in the Night"
PERFORMER "Maddy Layne"
INDEX 01 00:00:00
FILE "09. Chris Stanton - Take a Frame.wav" WAVE
TRACK 09 AUDIO
TITLE "Take a Frame"
PERFORMER "Chris Stanton"
INDEX 01 00:00:00
FILE "10. Jay Lehr - I'm Alive.wav" WAVE
TRACK 10 AUDIO
TITLE "I'm Alive"
PERFORMER "Jay Lehr"
INDEX 01 00:00:00
FILE "11. Nuage - My Blue Sky.wav" WAVE
TRACK 11 AUDIO
TITLE "My Blue Sky"
PERFORMER "Nuage"
INDEX 01 00:00:00
FILE "12. Annalise - True Colour.wav" WAVE
TRACK 12 AUDIO
TITLE "True Colour"
PERFORMER "Annalise"
INDEX 01 00:00:00
FILE "13. Rose - Over the Sky.wav" WAVE
TRACK 13 AUDIO
TITLE "Over the Sky"
PERFORMER "Rose"
INDEX 01 00:00:00
FILE "14. Mega NRG Man - Catch My Fire.wav" WAVE
TRACK 14 AUDIO
TITLE "Catch My Fire"
PERFORMER "Mega NRG Man"
INDEX 01 00:00:00
FILE "15. King & Queen - Dance.wav" WAVE
TRACK 15 AUDIO
TITLE "Dance"
PERFORMER "King & Queen"
INDEX 01 00:00:00
FILE "16. Matt Land - Gunfire.wav" WAVE
TRACK 16 AUDIO
TITLE "Gunfire"
PERFORMER "Matt Land"
INDEX 01 00:00:00
FILE "17. Manuel - Gas Gas Gas.wav" WAVE
TRACK 17 AUDIO
TITLE "Gas Gas Gas"
PERFORMER "Manuel"
INDEX 01 00:00:00
FILE "18. Go 2 - NRG.wav" WAVE
TRACK 18 AUDIO
TITLE "NRG"
PERFORMER "Go 2"
INDEX 01 00:00:00
 [CUETools log; Date: 05.09.2013 21:35:07; Version: 2.1.4]
[CTDB TOCID: 83wYF5och_Fh4QNdOpUAdANljaY-] disk not present in database.
[AccurateRip ID: 003156ca-02910630-e711b512] found.
Track [ CRC | V2 ] Status
01 [ad4bd722|0ece6599] (0+0/0) No match
02 [308d0d43|462d1563] (0+0/0) No match
03 [604ed435|348e51a1] (0+0/0) No match
04 [4a4f1f32|4102e228] (0+0/0) No match
05 [e94e5b83|8b70f726] (0+0/0) No match
06 [2beb12f7|fdb223be] (0+0/0) No match
07 [c4112a8d|7c5e5dc1] (0+0/0) No match
08 [71aaf956|b6fe7594] (0+0/0) No match
09 [80f3fd42|da6f11bb] (0+0/0) No match
10 [f74fa8cf|1b07b8a2] (0+0/0) No match
11 [9aa97755|f15a772e] (0+0/0) No match
12 [e8abf835|15bf77ae] (0+0/0) No match
13 [943b497d|e5b70d62] (0+0/0) No match
14 [b2323ec6|d7870dea] (0+0/0) No match
15 [8b9cf20c|ab3c08d9] (0+0/0) No match
16 [5e276fde|d5a2b4fb] (0+0/0) No match
17 [d915f246|c06ff43b] (1+0/1) Accurately ripped
18 [80791851|6a4acc48] (0+0/0) No match
Track Peak [ CRC32 ] [W/O NULL]
-- 99,9 [9ED6449A] [2E37EE69]
01 99,9 [C36DE945] [5534578D]
02 99,9 [38276AA2] [518E9677]
03 99,9 [8E1722DD] [28D64D0B]
04 99,9 [6126F619] [ACEFD38D]
05 99,9 [0D806C6B] [F86391F4]
06 99,9 [68DD1B66] [3604F53E]
07 99,9 [544DC5FA] [1BE774CC]
08 99,9 [58A25574] [C35FC60F]
09 99,9 [DD9C8227] [B352EC5A]
10 99,9 [BEE319EF] [75CF50C6]
11 99,9 [7F3EAF81] [610D9C97]
12 99,9 [6F56CB0A] [A615D7FC]
13 99,9 [4684219F] [358019C3]
14 99,9 [0A7887BA] [97B65D20]
15 99,9 [79EA85E0] [4248BE11]
16 99,9 [EBBFE94E] [3045CBEC]
17 99,9 [72188B55] [7B814C68]
18 99,9 [264D19C0] [056DC47D]
 -----------------------
DON'T MODIFY THIS FILE
-----------------------
PERFORMER: auCDtect Task Manager, ver. 1.6.0 RC1 build 1.6.0.1
Copyright (c) 2008-2010 y-soft. All rights reserved
http://y-soft.org
ANALYZER: auCDtect: CD records authenticity detector, version 0.8.2
Copyright (c) 2004 Oleg Berngardt. All rights reserved.
Copyright (c) 2004 Alexander Djourik. All rights reserved.
FILE: 01. Domino - Tora Tora Tora (JD Extended Version).flac
Size: 49858287 Hash: 28F5EDB33B18C5C765EC012535F2D69D Accuracy: -m0
Conclusion: CDDA 100%
Signature: 898695D7D75AC698E64EA5CE072DB4A952ECDB00
FILE: 02. Valentina & Mirka - Shake Me Up (Extended Friday Mix).flac
Size: 46287666 Hash: 67DCB22B29A6736685E3463026D0F191 Accuracy: -m0
Conclusion: CDDA 99%
Signature: E05177AC6D246468659F0BA9807A27938AD0DC10
FILE: 03. Dusty - Crazy For Love.flac
Size: 41161941 Hash: E54C55E8C1E45405BCA8BABEB289940D Accuracy: -m0
Conclusion: CDDA 100%
Signature: DD30EAE9D6E587CE5D1F6EABFCC8729465BC014D
FILE: 04. Jackie 'O - X-Man Story.flac
Size: 41213390 Hash: 53778C54D2651BF085EFD80608E14D3C Accuracy: -m0
Conclusion: CDDA 100%
Signature: B607DD6CBB69F698F10E725E907454C2BD7EFEF7
FILE: 05. Fastway - Formula 1.flac
Size: 36724650 Hash: D655558CABAED5F1FBF48905C1B70040 Accuracy: -m0
Conclusion: CDDA 100%
Signature: 2B405929F103A4B62C2D44C96FD1364FD5EB06A7
FILE: 06. Kelly Wright - Don't Play With Me.flac
Size: 41740190 Hash: DDC11E91FC2266B448872683FBA49E9D Accuracy: -m0
Conclusion: CDDA 100%
Signature: 1438DD4FD3357CC62F8538BCD0375B7EB50F29A0
FILE: 07. Donna - Lover Boy.flac
Size: 46045055 Hash: 2832A665815A8148E304C50ECA28AA74 Accuracy: -m0
Conclusion: CDDA 100%
Signature: 1FCFC7271E7AF2151A58CEE14781D0ADE047C16D
FILE: 08. Fastway - 777.flac
Size: 47632529 Hash: 38594A324614B1D93481B99FC620329E Accuracy: -m0
Conclusion: CDDA 99%
Signature: 590A60CE001C52F93FFAA57BDFF607359DF18BB6
FILE: 09. Baby Bazooka - Caballero With Sombrero.flac
Size: 34456574 Hash: E756CCDF8F782F9E5ABBB8A88014509B Accuracy: -m0
Conclusion: CDDA 100%
Signature: 8EDB802FA76BFC84650005C3AB1E1982F9E3BD0E
FILE: 10. Edo Boys - No One Sleep In Tokyo.flac
Size: 43235785 Hash: 71A0064AAC041231CB9B156EAA323E23 Accuracy: -m0
Conclusion: CDDA 100%
Signature: 3102C8468C6D9AFF6237E61C109A0CC4A02168B0
 REM GENRE Eurobeat
REM DATE 2007
REM DISCID 860C080A
PERFORMER "Various Artists"
TITLE "Super Eurobeat Vol. 181 - The Best of Extended Versions Vol. 3"
FILE "01. Domino - Tora Tora Tora (JD Extended Version).wav" WAVE
TRACK 01 AUDIO
TITLE "Tora Tora Tora (JD Extended Version)"
PERFORMER "Domino"
INDEX 01 00:00:00
FILE "02. Valentina & Mirka - Shake Me Up (Extended Friday Mix).wav" WAVE
TRACK 02 AUDIO
TITLE "Shake Me Up (Extended Friday Mix)"
PERFORMER "Valentina & Mirka"
INDEX 01 00:00:00
FILE "03. Dusty - Crazy For Love.wav" WAVE
TRACK 03 AUDIO
TITLE "Crazy For Love"
PERFORMER "Dusty"
INDEX 01 00:00:00
FILE "04. Jackie 'O - X-Man Story.wav" WAVE
TRACK 04 AUDIO
TITLE "X-Man Story"
PERFORMER "Jackie 'O"
INDEX 01 00:00:00
FILE "05. Fastway - Formula 1.wav" WAVE
TRACK 05 AUDIO
TITLE "Formula 1"
PERFORMER "Fastway"
INDEX 01 00:00:00
FILE "06. Kelly Wright - Don't Play with Me.wav" WAVE
TRACK 06 AUDIO
TITLE "Don't Play with Me"
PERFORMER "Kelly Wright"
INDEX 01 00:00:00
FILE "07. Donna - Lover Boy.wav" WAVE
TRACK 07 AUDIO
TITLE "Lover Boy"
PERFORMER "Donna"
INDEX 01 00:00:00
FILE "08. Fastway - 777.wav" WAVE
TRACK 08 AUDIO
TITLE "777"
PERFORMER "Fastway"
INDEX 01 00:00:00
FILE "09. Baby Bazooka - Caballero with Sombrero.wav" WAVE
TRACK 09 AUDIO
TITLE "Caballero with Sombrero"
PERFORMER "Baby Bazooka"
INDEX 01 00:00:00
FILE "10. Edo Boys - No One Sleep in Tokyo.wav" WAVE
TRACK 10 AUDIO
TITLE "No One Sleep in Tokyo"
PERFORMER "Edo Boys"
INDEX 01 00:00:00
 [CUETools log; Date: 05.09.2013 21:45:09; Version: 2.1.4]
[CTDB TOCID: NA0_FmNCasEWQUXcYUpVSTQN0o0-] disk not present in database.
[AccurateRip ID: 0013a587-009c3d74-860c080a] disk not present in database.
Track Peak [ CRC32 ] [W/O NULL]
-- 99,9 [9B8C1113] [7BC46466]
01 99,9 [7D7C5AE3] [59348473]
02 99,9 [25905B3A] [0434E5E0]
03 99,9 [1BE719E0] [E6AF1FB5]
04 99,9 [E6C516DC] [649CE1D5]
05 99,9 [4717AD44] [830E8593]
06 99,9 [0C4C99E6] [262F3A0F]
07 99,9 [AC733D18] [8CFDD5B3]
08 99,9 [BE290E54] [80B0A2EE]
09 99,9 [31D9E163] [CD51937F]
10 99,9 [209F24B9] [F2573689]

[1021.5 MB] Скачать / Download