(Eurobeat/Hi-NRG/Dance) VA - Super Eurobeat Vol. 191 - Enjoy Your Drive - 2008, FLAC (tracks+.cue), lossless - Скачать

Жанр: Eurobeat/Hi-NRG/Dance
Год выпуска: 2008
Производитель: Japan
Битрейт аудио: lossless
Аудио кодек: FLAC (*.flac)
Тип рипа: tracks+.cue
Источник: what.cd [Lebon14]
Продолжительность: 00:01:16:06
Дополнительная информация: с измененными тэгами и индексной картой (*.cue),
оригинальный лог (*.log) файл от программы EAC изменениям не подвергался.

01. Lolita - Hurry Up Hurry Up [5:33]
02. Babby One - Manga Super Robot [5:10]
03. Leo River - Runaway [4:53]
04. Garcon - Ride On My Speedy Car [4:18]
05. Ducky Chix - Looking for Lovers [4:53]
06. Powerful T. - Into The Game [4:42]
07. Mickey B. - A Neverending Night [5:15]
08. Mark Foster - Kiss Me Divine [5:11]
09. Jay Lehr - Wildlife [4:51]
10. Daniel - My Gasoline [5:20]
11. Annalise - Fantasy World [4:49]
12. Go 2 - Purple Emotion [5:06]
13. Cherry - Got to Be Certain [5:20]
14. Dj Boss - Special Mega-Mix ~Enjoy Your Drive~ [10:47]

поп, дискография, песни, cd, скачать, торрент, музыка, mp3, download, альбом, композиции, pop-music, альбом, pop, бесплатно, поп-музыка, soundtrack, трек, высокое качество, torrent, lossless

 Exact Audio Copy V1.0 beta 3 from 29. August 2011
EAC extraction logfile from 23. March 2014, 10:53
Various Artists / Super Eurobeat Vol.191 -Enjoy Your Drive-
Used drive : HL-DT-STBD-RE UH10LS20 Adapter: 0 ID: 2
Read mode : Secure
Utilize accurate stream : Yes
Defeat audio cache : Yes
Make use of C2 pointers : No
Read offset correction : 667
Overread into Lead-In and Lead-Out : No
Fill up missing offset samples with silence : Yes
Delete leading and trailing silent blocks : No
Null samples used in CRC calculations : Yes
Used interface : Native Win32 interface for Win NT & 2000
Gap handling : Appended to previous track
Used output format : User Defined Encoder
Selected bitrate : 1024 kBit/s
Quality : High
Add ID3 tag : No
Command line compressor : C:\Program Files (x86)\Exact Audio Copy\Flac\flac.exe
Additional command line options : -5 -V -T "ARTIST=%artist%" -T "TITLE=%title%" -T "ALBUM=%albumtitle%" -T "DATE=%year%" -T "TRACKNUMBER=%tracknr%" -T "GENRE=%genre%" -T "PERFORMER=%albuminterpret%" -T "COMPOSER=%composer%" %haslyrics%--tag-from-file=LYRICS="%lyricsfile%"%haslyrics% -T "ALBUMARTIST=%albumartist%" -T "DISCNUMBER=%cdnumber%" -T "TOTALDISCS=%totalcds%" -T "TOTALTRACKS=%numtracks%" -T "COMMENT=%comment%" %source% -o %dest%
TOC of the extracted CD
Track | Start | Length | Start sector | End sector
---------------------------------------------------------
1 | 0:00.00 | 5:32.45 | 0 | 24944
2 | 5:32.45 | 5:09.57 | 24945 | 48176
3 | 10:42.27 | 4:52.63 | 48177 | 70139
4 | 15:35.15 | 4:17.67 | 70140 | 89481
5 | 19:53.07 | 4:53.23 | 89482 | 111479
6 | 24:46.30 | 4:42.37 | 111480 | 132666
7 | 29:28.67 | 5:14.63 | 132667 | 156279
8 | 34:43.55 | 5:10.65 | 156280 | 179594
9 | 39:54.45 | 4:50.55 | 179595 | 201399
10 | 44:45.25 | 5:19.45 | 201400 | 225369
11 | 50:04.70 | 4:49.02 | 225370 | 247046
12 | 54:53.72 | 5:05.68 | 247047 | 269989
13 | 59:59.65 | 5:19.47 | 269990 | 293961
14 | 65:19.37 | 10:46.38 | 293962 | 342449
Track 1
Filename G:\Stuff\New rips\Non-Unicode\V.A. - Super Eurobeat Vol.191 -Enjoy Your Drive-\01 - Lolita - Hurry Up Hurry Up.wav
Pre-gap length 0:00:02.00
Peak level 100.0 %
Extraction speed 1.3 X
Track quality 100.0 %
Test CRC 9DAAFA84
Copy CRC 9DAAFA84
Accurately ripped (confidence 3) [A1334BB6] (AR v1)
Copy OK
Track 2
Filename G:\Stuff\New rips\Non-Unicode\V.A. - Super Eurobeat Vol.191 -Enjoy Your Drive-\02 - Babby One - Manga Super Robot.wav
Pre-gap length 0:00:02.82
Peak level 100.0 %
Extraction speed 1.3 X
Track quality 99.9 %
Test CRC 25622A62
Copy CRC 25622A62
Accurately ripped (confidence 3) [0E9B3689] (AR v1)
Copy OK
Track 3
Filename G:\Stuff\New rips\Non-Unicode\V.A. - Super Eurobeat Vol.191 -Enjoy Your Drive-\03 - Leo River - Runaway.wav
Pre-gap length 0:00:02.82
Peak level 100.0 %
Extraction speed 1.6 X
Track quality 100.0 %
Test CRC A06C8323
Copy CRC A06C8323
Accurately ripped (confidence 3) [FE07BA67] (AR v1)
Copy OK
Track 4
Filename G:\Stuff\New rips\Non-Unicode\V.A. - Super Eurobeat Vol.191 -Enjoy Your Drive-\04 - Garçon - Ride On My Speedy Car.wav
Pre-gap length 0:00:02.82
Peak level 100.0 %
Extraction speed 1.7 X
Track quality 100.0 %
Test CRC 2F4BF552
Copy CRC 2F4BF552
Accurately ripped (confidence 3) [FD655011] (AR v1)
Copy OK
Track 5
Filename G:\Stuff\New rips\Non-Unicode\V.A. - Super Eurobeat Vol.191 -Enjoy Your Drive-\05 - Ducky Chix - Looking For Lovers.wav
Pre-gap length 0:00:02.82
Peak level 100.0 %
Extraction speed 1.8 X
Track quality 100.0 %
Test CRC 6A50130A
Copy CRC 6A50130A
Accurately ripped (confidence 3) [42EFDFFE] (AR v1)
Copy OK
Track 6
Filename G:\Stuff\New rips\Non-Unicode\V.A. - Super Eurobeat Vol.191 -Enjoy Your Drive-\06 - Powerful T. - Into The Game.wav
Pre-gap length 0:00:02.82
Peak level 100.0 %
Extraction speed 1.7 X
Track quality 99.9 %
Test CRC EDE092BD
Copy CRC EDE092BD
Accurately ripped (confidence 3) [28336F23] (AR v1)
Copy OK
Track 7
Filename G:\Stuff\New rips\Non-Unicode\V.A. - Super Eurobeat Vol.191 -Enjoy Your Drive-\07 - Mickey B. - A Neverending Night.wav
Pre-gap length 0:00:02.82
Peak level 100.0 %
Extraction speed 2.0 X
Track quality 100.0 %
Test CRC E88AFE8F
Copy CRC E88AFE8F
Accurately ripped (confidence 3) [47BC8B66] (AR v1)
Copy OK
Track 8
Filename G:\Stuff\New rips\Non-Unicode\V.A. - Super Eurobeat Vol.191 -Enjoy Your Drive-\08 - Mark Foster - Kiss Me Divine.wav
Pre-gap length 0:00:02.82
Peak level 100.0 %
Extraction speed 2.1 X
Track quality 100.0 %
Test CRC DB2BD0C4
Copy CRC DB2BD0C4
Accurately ripped (confidence 3) [D5669630] (AR v1)
Copy OK
Track 9
Filename G:\Stuff\New rips\Non-Unicode\V.A. - Super Eurobeat Vol.191 -Enjoy Your Drive-\09 - Jay Lehr - Wildlife.wav
Pre-gap length 0:00:02.82
Peak level 100.0 %
Extraction speed 2.2 X
Track quality 100.0 %
Test CRC E5216648
Copy CRC E5216648
Accurately ripped (confidence 3) [9DBB9283] (AR v1)
Copy OK
Track 10
Filename G:\Stuff\New rips\Non-Unicode\V.A. - Super Eurobeat Vol.191 -Enjoy Your Drive-\10 - Daniel - My Gasoline.wav
Pre-gap length 0:00:02.82
Peak level 100.0 %
Extraction speed 2.3 X
Track quality 100.0 %
Test CRC 346D1B3E
Copy CRC 346D1B3E
Accurately ripped (confidence 3) [3F53B303] (AR v1)
Copy OK
Track 11
Filename G:\Stuff\New rips\Non-Unicode\V.A. - Super Eurobeat Vol.191 -Enjoy Your Drive-\11 - Annalise - Fantasy World.wav
Pre-gap length 0:00:02.82
Peak level 100.0 %
Extraction speed 2.4 X
Track quality 100.0 %
Test CRC 820F472A
Copy CRC 820F472A
Accurately ripped (confidence 4) [11A3A495] (AR v1)
Copy OK
Track 12
Filename G:\Stuff\New rips\Non-Unicode\V.A. - Super Eurobeat Vol.191 -Enjoy Your Drive-\12 - Go 2 - Purple Emotion.wav
Pre-gap length 0:00:02.82
Peak level 100.0 %
Extraction speed 2.4 X
Track quality 100.0 %
Test CRC 393B9C20
Copy CRC 393B9C20
Accurately ripped (confidence 3) [98115B33] (AR v1)
Copy OK
Track 13
Filename G:\Stuff\New rips\Non-Unicode\V.A. - Super Eurobeat Vol.191 -Enjoy Your Drive-\13 - Cherry - Got To Be Certain.wav
Pre-gap length 0:00:02.82
Peak level 100.0 %
Extraction speed 2.5 X
Track quality 100.0 %
Test CRC E69149FC
Copy CRC E69149FC
Accurately ripped (confidence 3) [6BCB6D6E] (AR v1)
Copy OK
Track 14
Filename G:\Stuff\New rips\Non-Unicode\V.A. - Super Eurobeat Vol.191 -Enjoy Your Drive-\14 - DJ Boss - Special Mega-Mix ~Enjoy Your Drive~.wav
Pre-gap length 0:00:03.82
Peak level 100.0 %
Extraction speed 2.8 X
Track quality 100.0 %
Test CRC 37F66A18
Copy CRC 37F66A18
Accurately ripped (confidence 3) [42ACA0D6] (AR v1)
Copy OK
All tracks accurately ripped
No errors occurred
End of status report
==== Log checksum C8D9D9BDEBA5FBF170A1BE2C3C5A9C61FB2AE09FD890F1C6090C52DE60C4AE50 ====
 REM GENRE Eurobeat
REM DATE 2008
REM DISCID D011D60E
REM COMMENT "ExactAudioCopy v1.0b3"
CATALOG 4988064101917
PERFORMER "Various Artists"
TITLE "Super Eurobeat Vol. 191 - Enjoy Your Drive"
FILE "01. Lolita - Hurry Up Hurry Up.wav" WAVE
TRACK 01 AUDIO
TITLE "Hurry Up Hurry Up"
PERFORMER "Lolita"
INDEX 01 00:00:00
TRACK 02 AUDIO
TITLE "Manga Super Robot"
PERFORMER "Babby One"
INDEX 00 05:29:58
FILE "02. Babby One - Manga Super Robot.wav" WAVE
INDEX 01 00:00:00
TRACK 03 AUDIO
TITLE "Runaway"
PERFORMER "Leo River"
INDEX 00 05:06:70
FILE "03. Leo River - Runaway.wav" WAVE
INDEX 01 00:00:00
TRACK 04 AUDIO
TITLE "Ride On My Speedy Car"
PERFORMER "Garcon"
INDEX 00 04:50:01
FILE "04. Garcon - Ride On My Speedy Car.wav" WAVE
INDEX 01 00:00:00
TRACK 05 AUDIO
TITLE "Looking for Lovers"
PERFORMER "Ducky Chix"
INDEX 00 04:15:05
FILE "05. Ducky Chix - Looking for Lovers.wav" WAVE
INDEX 01 00:00:00
TRACK 06 AUDIO
TITLE "Into The Game"
PERFORMER "Powerful T."
INDEX 00 04:50:36
FILE "06. Powerful T. - Into The Game.wav" WAVE
INDEX 01 00:00:00
TRACK 07 AUDIO
TITLE "A Neverending Night"
PERFORMER "Mickey B."
INDEX 00 04:39:50
FILE "07. Mickey B. - A Neverending Night.wav" WAVE
INDEX 01 00:00:00
TRACK 08 AUDIO
TITLE "Kiss Me Divine"
PERFORMER "Mark Foster"
INDEX 00 05:12:01
FILE "08. Mark Foster - Kiss Me Divine.wav" WAVE
INDEX 01 00:00:00
TRACK 09 AUDIO
TITLE "Wildlife"
PERFORMER "Jay Lehr"
ISRC JPB600850801
INDEX 00 05:08:03
FILE "09. Jay Lehr - Wildlife.wav" WAVE
INDEX 01 00:00:00
TRACK 10 AUDIO
TITLE "My Gasoline"
PERFORMER "Daniel"
INDEX 00 04:47:68
FILE "10. Daniel - My Gasoline.wav" WAVE
INDEX 01 00:00:00
TRACK 11 AUDIO
TITLE "Fantasy World"
PERFORMER "Annalise"
INDEX 00 05:16:58
FILE "11. Annalise - Fantasy World.wav" WAVE
INDEX 01 00:00:00
TRACK 12 AUDIO
TITLE "Purple Emotion"
PERFORMER "Go 2"
ISRC JPB600850802
INDEX 00 04:46:15
FILE "12. Go 2 - Purple Emotion.wav" WAVE
INDEX 01 00:00:00
TRACK 13 AUDIO
TITLE "Got to Be Certain"
PERFORMER "Cherry"
INDEX 00 05:03:06
FILE "13. Cherry - Got to Be Certain.wav" WAVE
INDEX 01 00:00:00
TRACK 14 AUDIO
TITLE "Special Mega-Mix ~Enjoy Your Drive~"
PERFORMER "Dj Boss"
INDEX 00 05:15:60
FILE "14. Dj Boss - Special Mega-Mix ~Enjoy Your Drive~.wav" WAVE
INDEX 01 00:00:00
 -----------------------
DON'T MODIFY THIS FILE
-----------------------
PERFORMER: auCDtect Task Manager, ver. 1.6.0 RC1 build 1.6.0.1
Copyright (c) 2008-2010 y-soft. All rights reserved
http://y-soft.org
ANALYZER: auCDtect: CD records authenticity detector, version 0.8.2
Copyright (c) 2004 Oleg Berngardt. All rights reserved.
Copyright (c) 2004 Alexander Djourik. All rights reserved.
FILE: 01. Lolita - Hurry Up Hurry Up.flac
Size: 47977693 Hash: 068ECB4E4F655D0303B0660ABC0A1D05 Accuracy: -m0
Conclusion: CDDA 100%
Signature: 55602196495A1FB20AFCFBA8C8BABE80669648F1
FILE: 02. Babby One - Manga Super Robot.flac
Size: 43165563 Hash: 5FC6339A8D2241EA74A9CCAFCA88C226 Accuracy: -m0
Conclusion: CDDA 100%
Signature: 8E959F67DB43EA4769AEA720AEF323E5D5B15E62
FILE: 03. Leo River - Runaway.flac
Size: 42399124 Hash: F63326EEC44A9A04CB3015BBD062D2CD Accuracy: -m0
Conclusion: CDDA 100%
Signature: 73EFB466F9707B82D00A90241B77F3DFD7A6C308
FILE: 04. Garcon - Ride On My Speedy Car.flac
Size: 37392349 Hash: 18EC868C57F109D470A8D6AD00A0D0AC Accuracy: -m0
Conclusion: CDDA 100%
Signature: E19788C0CBE2405EF05D0CAE78A878451B4DBEF6
FILE: 05. Ducky Chix - Looking for Lovers.flac
Size: 38799523 Hash: 1A19787747095628ED32FEA371CCFD53 Accuracy: -m0
Conclusion: CDDA 100%
Signature: 7A63A8C6287941E6A2FCCCF6863A971D0B3243C6
FILE: 06. Powerful T. - Into The Game.flac
Size: 37854431 Hash: 5F45E26A9FD4F228B9E67CFE92269159 Accuracy: -m0
Conclusion: CDDA 100%
Signature: 19A146601C23F409C4AEF128793A8D82DA595189
FILE: 07. Mickey B. - a Neverending Night.flac
Size: 43838803 Hash: ECA3B26C24356741BC2CBB182E73B45E Accuracy: -m0
Conclusion: CDDA 100%
Signature: F493ABD5F9D18A7D423A221809B9ABF9625D6A33
FILE: 08. Mark Foster - Kiss Me Divine.flac
Size: 42515894 Hash: 5DA5F44F2BFFD99392B72D93922B730F Accuracy: -m0
Conclusion: CDDA 100%
Signature: A3CF8625146C16353746ED6105F050BF7622EE81
FILE: 09. Jay Lehr - Wildlife.flac
Size: 40126768 Hash: EACF9CB478AC85F502F05A3556693FB1 Accuracy: -m0
Conclusion: CDDA 100%
Signature: 717682B64367B5DCDFE6EC577DB47C37FD4B3D1A
FILE: 10. Daniel - My Gasoline.flac
Size: 44691406 Hash: DF2F57562998A65C21ABE95908F22BB5 Accuracy: -m0
Conclusion: CDDA 99%
Signature: 471FF8776F06452B1E9B2D11FC9176FC72A67D78
FILE: 11. Annalise - Fantasy World.flac
Size: 40709352 Hash: 3448D8FA6D6915F5218EE5BCA6882BEC Accuracy: -m0
Conclusion: CDDA 100%
Signature: 0CF3069536389819824F18408BA53E434029FC9F
FILE: 12. Go 2 - Purple Emotion.flac
Size: 42162805 Hash: 6D11CE60436A011F59CCB9CC9791ED0F Accuracy: -m0
Conclusion: CDDA 100%
Signature: 791796C2B3FA4E9020ABFA44191698614B7E8AEA
FILE: 13. Cherry - Got to Be Certain.flac
Size: 45566878 Hash: 5694DF558096FCEEFB7D727792645B9D Accuracy: -m0
Conclusion: CDDA 99%
Signature: D76EEA8316F2FC2DFCE7CD8A37F90B0859BE5838
FILE: 14. Dj Boss - Special Mega-Mix ~Enjoy Your Drive~.flac
Size: 90905440 Hash: 2D1F35D5ED418C8CAF551CF37E57D65A Accuracy: -m0
Conclusion: CDDA 100%
Signature: D8728741C54BAEE71B5F5C26914B018B06A2E039
 [CUETools log; Date: 01.05.2014 16:11:18; Version: 2.1.4]
[CTDB TOCID: XzcoDA3i78ou1_qlC4M5oCLBzNs-] found.
Track | CTDB Status
1 | (3/3) Accurately ripped
2 | (3/3) Accurately ripped
3 | (3/3) Accurately ripped
4 | (3/3) Accurately ripped
5 | (3/3) Accurately ripped
6 | (3/3) Accurately ripped
7 | (3/3) Accurately ripped
8 | (3/3) Accurately ripped
9 | (3/3) Accurately ripped
10 | (3/3) Accurately ripped
11 | (3/3) Accurately ripped
12 | (3/3) Accurately ripped
13 | (3/3) Accurately ripped
14 | (3/3) Accurately ripped
[AccurateRip ID: 00248399-0186b872-d011d60e] found.
Track [ CRC | V2 ] Status
01 [a1334bb6|dc2ab158] (3+0/3) Accurately ripped
02 [0e9b3689|3c101f9a] (3+0/3) Accurately ripped
03 [fe07ba67|ffe423da] (3+0/3) Accurately ripped
04 [fd655011|70eaf778] (3+0/3) Accurately ripped
05 [42efdffe|6ad43d8b] (3+0/3) Accurately ripped
06 [28336f23|a8147d44] (3+0/3) Accurately ripped
07 [47bc8b66|b460f9cb] (3+0/3) Accurately ripped
08 [d5669630|00669f3d] (3+0/3) Accurately ripped
09 [9dbb9283|27fb1dc8] (3+0/3) Accurately ripped
10 [3f53b303|d5240fd5] (3+0/3) Accurately ripped
11 [11a3a495|ccbe6f8d] (4+0/4) Accurately ripped
12 [98115b33|02ab4194] (3+0/3) Accurately ripped
13 [6bcb6d6e|edda4889] (3+0/3) Accurately ripped
14 [42aca0d6|832c4279] (3+0/3) Accurately ripped
Track Peak [ CRC32 ] [W/O NULL] [ LOG ]
-- 99,9 [CDCE6BC1] [C7F8BBC2]
01 99,9 [9DAAFA84] [E5DC4CEE] CRC32
02 99,9 [25622A62] [56DD5632] CRC32
03 99,9 [A06C8323] [285AE033] CRC32
04 99,9 [2F4BF552] [B4A98AA5] CRC32
05 99,9 [6A50130A] [85B6D0DE] CRC32
06 99,9 [EDE092BD] [C589FCCB] CRC32
07 99,9 [E88AFE8F] [4A1D65FD] CRC32
08 99,9 [DB2BD0C4] [061AD7FE] CRC32
09 99,9 [E5216648] [665BFDDB] CRC32
10 99,9 [346D1B3E] [49208925] CRC32
11 99,9 [820F472A] [0DDB4B83] CRC32
12 99,9 [393B9C20] [1C3E080E] CRC32
13 99,9 [E69149FC] [D78CF9BF] CRC32
14 99,9 [37F66A18] [AF99750A] CRC32

[620.5 MB] Скачать / Download