(Eurobeat/Hi-NRG/Dance) VA - Super Eurobeat Vol. 201 - Extended Version - 2010, FLAC (tracks+.cue), lossless - Скачать

Жанр: Eurobeat/Hi-NRG/Dance
Год выпуска: 2010
Производитель: Japan
Битрейт аудио: lossless
Аудио кодек: FLAC (*.flac)
Тип рипа: tracks+.cue
Источник: what.cd [Lebon14]
Продолжительность: 00:01:14:36
Дополнительная информация: с измененными тэгами и индексной картой (*.cue),
оригинальный лог (*.log) файл от программы EAC изменениям не подвергался.

01. Dave Rodgers feat. Futura - Super Eurobeat (Gold Mix) [5:36]
02. Yo Shine - Power of My Love [4:24]
03. Fastway - Rock Beatin' Wild [4:06]
04. Mirka - 10,000 Lovers [6:23]
05. Manuel - Nightrain [5:41]
06. Tipsy & Tipsy - Never Ending Love [4:55]
07. Queen 26 - You Are My Wonder [5:18]
08. Mr. Moog - Say Goodbye [5:22]
09. Claudia Vip - In Your Car [5:54]
10. K. De Leo - Wonderlover [5:09]
11. Nathalie - Live It Up! [5:08]
12. Ken Blast - When The Sun Goes Down [4:55]
13. Girl Next Door - Climber's High (Dima Remix) [5:43]
14. Dave Rodgers - Wild Reputation (Rock Mix) [6:01]

pop-music, альбом, поп-музыка, cd, soundtrack, композиции, download, музыка, бесплатно, высокое качество, lossless, mp3, pop, торрент, скачать, дискография, песни, torrent, альбом, трек, поп

 Exact Audio Copy V1.0 beta 3 from 29. August 2011
EAC extraction logfile from 24. March 2014, 7:06
Various Artists / Super Eurobeat Vol.201
Used drive : HL-DT-STBD-RE UH10LS20 Adapter: 0 ID: 2
Read mode : Secure
Utilize accurate stream : Yes
Defeat audio cache : Yes
Make use of C2 pointers : No
Read offset correction : 667
Overread into Lead-In and Lead-Out : No
Fill up missing offset samples with silence : Yes
Delete leading and trailing silent blocks : No
Null samples used in CRC calculations : Yes
Used interface : Native Win32 interface for Win NT & 2000
Gap handling : Appended to previous track
Used output format : User Defined Encoder
Selected bitrate : 1024 kBit/s
Quality : High
Add ID3 tag : No
Command line compressor : C:\Program Files (x86)\Exact Audio Copy\Flac\flac.exe
Additional command line options : -5 -V -T "ARTIST=%artist%" -T "TITLE=%title%" -T "ALBUM=%albumtitle%" -T "DATE=%year%" -T "TRACKNUMBER=%tracknr%" -T "GENRE=%genre%" -T "PERFORMER=%albuminterpret%" -T "COMPOSER=%composer%" %haslyrics%--tag-from-file=LYRICS="%lyricsfile%"%haslyrics% -T "ALBUMARTIST=%albumartist%" -T "DISCNUMBER=%cdnumber%" -T "TOTALDISCS=%totalcds%" -T "TOTALTRACKS=%numtracks%" -T "COMMENT=%comment%" %source% -o %dest%
TOC of the extracted CD
Track | Start | Length | Start sector | End sector
---------------------------------------------------------
1 | 0:00.00 | 5:36.05 | 0 | 25204
2 | 5:36.05 | 4:24.05 | 25205 | 45009
3 | 10:00.10 | 4:06.27 | 45010 | 63486
4 | 14:06.37 | 6:23.35 | 63487 | 92246
5 | 20:29.72 | 5:40.43 | 92247 | 117789
6 | 26:10.40 | 4:55.17 | 117790 | 139931
7 | 31:05.57 | 5:17.65 | 139932 | 163771
8 | 36:23.47 | 5:22.18 | 163772 | 187939
9 | 41:45.65 | 5:53.70 | 187940 | 214484
10 | 47:39.60 | 5:09.17 | 214485 | 237676
11 | 52:49.02 | 5:08.10 | 237677 | 260786
12 | 57:57.12 | 4:54.50 | 260787 | 282886
13 | 62:51.62 | 5:42.55 | 282887 | 308591
14 | 68:34.42 | 6:01.29 | 308592 | 335695
Track 1
Filename G:\Stuff\New rips\Non-Unicode\V.A. - Super Eurobeat Vol.201\01 - Dave Rodgers Feat. Futura - Super Eurobeat.wav
Pre-gap length 0:00:02.00
Peak level 100.0 %
Extraction speed 1.3 X
Track quality 100.0 %
Test CRC C1976FB1
Copy CRC C1976FB1
Accurately ripped (confidence 1) [AE5FC603] (AR v1)
Copy OK
Track 2
Filename G:\Stuff\New rips\Non-Unicode\V.A. - Super Eurobeat Vol.201\02 - Yo Shine - Power Of My Love.wav
Pre-gap length 0:00:01.82
Peak level 100.0 %
Extraction speed 1.4 X
Track quality 100.0 %
Test CRC 9B6ABBCD
Copy CRC 9B6ABBCD
Accurately ripped (confidence 1) [666593C8] (AR v1)
Copy OK
Track 3
Filename G:\Stuff\New rips\Non-Unicode\V.A. - Super Eurobeat Vol.201\03 - Fastway - Rock Beatin' Wild.wav
Pre-gap length 0:00:01.82
Peak level 100.0 %
Extraction speed 1.5 X
Track quality 100.0 %
Test CRC 2D0D7FF8
Copy CRC 2D0D7FF8
Accurately ripped (confidence 1) [9020925F] (AR v1)
Copy OK
Track 4
Filename G:\Stuff\New rips\Non-Unicode\V.A. - Super Eurobeat Vol.201\04 - Mirka - 10,000 Lovers.wav
Pre-gap length 0:00:01.82
Peak level 100.0 %
Extraction speed 1.6 X
Track quality 99.9 %
Test CRC 7BC00666
Copy CRC 7BC00666
Accurately ripped (confidence 1) [02360D9C] (AR v1)
Copy OK
Track 5
Filename G:\Stuff\New rips\Non-Unicode\V.A. - Super Eurobeat Vol.201\05 - Manuel - Nightrain.wav
Pre-gap length 0:00:01.82
Peak level 100.0 %
Extraction speed 1.9 X
Track quality 100.0 %
Test CRC AB5271AA
Copy CRC AB5271AA
Accurately ripped (confidence 1) [6B20EB72] (AR v1)
Copy OK
Track 6
Filename G:\Stuff\New rips\Non-Unicode\V.A. - Super Eurobeat Vol.201\06 - Tipsy & Tipsy - Never Ending Love.wav
Pre-gap length 0:00:02.33
Peak level 100.0 %
Extraction speed 2.0 X
Track quality 100.0 %
Test CRC BCF356BE
Copy CRC BCF356BE
Accurately ripped (confidence 1) [E4A0F0A3] (AR v1)
Copy OK
Track 7
Filename G:\Stuff\New rips\Non-Unicode\V.A. - Super Eurobeat Vol.201\07 - Queen 26 - You Are My Wonder.wav
Pre-gap length 0:00:01.82
Peak level 100.0 %
Extraction speed 2.1 X
Track quality 100.0 %
Test CRC 1CF3C700
Copy CRC 1CF3C700
Accurately ripped (confidence 1) [5FF5CAB2] (AR v1)
Copy OK
Track 8
Filename G:\Stuff\New rips\Non-Unicode\V.A. - Super Eurobeat Vol.201\08 - Mr.Moog - Say Goodbye.wav
Pre-gap length 0:00:01.82
Peak level 100.0 %
Extraction speed 2.2 X
Track quality 100.0 %
Test CRC 7BABB495
Copy CRC 7BABB495
Accurately ripped (confidence 1) [BD9C27F9] (AR v1)
Copy OK
Track 9
Filename G:\Stuff\New rips\Non-Unicode\V.A. - Super Eurobeat Vol.201\09 - Claudia VIP - In Your Car.wav
Pre-gap length 0:00:01.82
Peak level 100.0 %
Extraction speed 2.3 X
Track quality 100.0 %
Test CRC 785E241C
Copy CRC 785E241C
Accurately ripped (confidence 1) [7EC86782] (AR v1)
Copy OK
Track 10
Filename G:\Stuff\New rips\Non-Unicode\V.A. - Super Eurobeat Vol.201\10 - K.DeLeo - Wonderlover.wav
Pre-gap length 0:00:01.80
Peak level 100.0 %
Extraction speed 2.4 X
Track quality 100.0 %
Test CRC BFCAFFEC
Copy CRC BFCAFFEC
Accurately ripped (confidence 1) [C6334B16] (AR v1)
Copy OK
Track 11
Filename G:\Stuff\New rips\Non-Unicode\V.A. - Super Eurobeat Vol.201\11 - Nathalie - Live It Up!.wav
Pre-gap length 0:00:01.82
Peak level 100.0 %
Extraction speed 2.5 X
Track quality 100.0 %
Test CRC 7CB30092
Copy CRC 7CB30092
Accurately ripped (confidence 1) [23876354] (AR v1)
Copy OK
Track 12
Filename G:\Stuff\New rips\Non-Unicode\V.A. - Super Eurobeat Vol.201\12 - Ken Blast - When The Sun Goes Down.wav
Pre-gap length 0:00:01.82
Peak level 100.0 %
Extraction speed 2.5 X
Track quality 100.0 %
Test CRC A4FD6C2B
Copy CRC A4FD6C2B
Accurately ripped (confidence 1) [18845C95] (AR v1)
Copy OK
Track 13
Filename G:\Stuff\New rips\Non-Unicode\V.A. - Super Eurobeat Vol.201\13 - Girl Next Door - Climber's High (Dima Remix).wav
Pre-gap length 0:00:01.80
Peak level 100.0 %
Extraction speed 2.7 X
Track quality 100.0 %
Test CRC 44030FF5
Copy CRC 44030FF5
Accurately ripped (confidence 1) [41467637] (AR v1)
Copy OK
Track 14
Filename G:\Stuff\New rips\Non-Unicode\V.A. - Super Eurobeat Vol.201\14 - Dave Rodgers - Wild Reputation (Rock Mix).wav
Pre-gap length 0:00:09.82
Peak level 100.0 %
Extraction speed 2.8 X
Track quality 100.0 %
Test CRC 8BED6F52
Copy CRC 8BED6F52
Accurately ripped (confidence 1) [1F903F10] (AR v1)
Copy OK
All tracks accurately ripped
No errors occurred
End of status report
==== Log checksum 903447441012A5101BD7A8921D5980FA343188E95B934A790F619A398878E298 ====
 REM GENRE Eurobeat
REM DATE 2010
REM DISCID CA117B0E
REM COMMENT "ExactAudioCopy v1.0b3"
CATALOG 4988064102013
PERFORMER "Various Artists"
TITLE "Super Eurobeat Vol.201"
FILE "01. Dave Rodgers feat. Futura - Super Eurobeat (Gold Mix).wav" WAVE
TRACK 01 AUDIO
TITLE "Super Eurobeat (Gold Mix)"
PERFORMER "Dave Rodgers feat. Futura"
INDEX 01 00:00:00
TRACK 02 AUDIO
TITLE "Power of My Love"
PERFORMER "Yo Shine"
ISRC ITA871000101
INDEX 00 05:34:18
FILE "02. Yo Shine - Power of My Love.wav" WAVE
INDEX 01 00:00:00
TRACK 03 AUDIO
TITLE "Rock Beatin' Wild"
PERFORMER "Fastway"
ISRC ITA871000106
INDEX 00 04:22:18
FILE "03. Fastway - Rock Beatin' Wild.wav" WAVE
INDEX 01 00:00:00
TRACK 04 AUDIO
TITLE "10,000 Lovers"
PERFORMER "Mirka"
INDEX 00 04:04:40
FILE "04. Mirka - 10,000 Lovers.wav" WAVE
INDEX 01 00:00:00
TRACK 05 AUDIO
TITLE "Nightrain"
PERFORMER "Manuel"
INDEX 00 06:21:48
FILE "05. Manuel - Nightrain.wav" WAVE
INDEX 01 00:00:00
TRACK 06 AUDIO
TITLE "Never Ending Love"
PERFORMER "Tipsy & Tipsy"
INDEX 00 05:38:18
FILE "06. Tipsy & Tipsy - Never Ending Love.wav" WAVE
INDEX 01 00:00:00
TRACK 07 AUDIO
TITLE "You Are My Wonder"
PERFORMER "Queen 26"
INDEX 00 04:53:30
FILE "07. Queen 26 - You Are My Wonder.wav" WAVE
INDEX 01 00:00:00
TRACK 08 AUDIO
TITLE "Say Goodbye"
PERFORMER "Mr. Moog"
ISRC JPB601006701
INDEX 00 05:16:03
FILE "08. Mr. Moog - Say Goodbye.wav" WAVE
INDEX 01 00:00:00
TRACK 09 AUDIO
TITLE "In Your Car"
PERFORMER "Claudia VIP"
INDEX 00 05:20:31
FILE "09. Claudia VIP - In Your Car.wav" WAVE
INDEX 01 00:00:00
TRACK 10 AUDIO
TITLE "Wonderlover"
PERFORMER "K. De Leo"
INDEX 00 05:52:10
FILE "10. K. De Leo - Wonderlover.wav" WAVE
INDEX 01 00:00:00
TRACK 11 AUDIO
TITLE "Live It Up!"
PERFORMER "Nathalie"
INDEX 00 05:07:30
FILE "11. Nathalie - Live It Up!.wav" WAVE
INDEX 01 00:00:00
TRACK 12 AUDIO
TITLE "When The Sun Goes Down"
PERFORMER "Ken Blast"
INDEX 00 05:06:23
FILE "12. Ken Blast - When The Sun Goes Down.wav" WAVE
INDEX 01 00:00:00
TRACK 13 AUDIO
TITLE "Climber's High (Dima Remix)"
PERFORMER "Girl Next Door"
ISRC JPB600975620
INDEX 00 04:52:65
FILE "13. Girl Next Door - Climber's High (Dima Remix).wav" WAVE
INDEX 01 00:00:00
TRACK 14 AUDIO
TITLE "Wild Reputation (Rock Mix)"
PERFORMER "Dave Rodgers"
INDEX 00 05:32:68
FILE "14. Dave Rodgers - Wild Reputation (Rock Mix).wav" WAVE
INDEX 01 00:00:00
 -----------------------
DON'T MODIFY THIS FILE
-----------------------
PERFORMER: auCDtect Task Manager, ver. 1.6.0 RC1 build 1.6.0.1
Copyright (c) 2008-2010 y-soft. All rights reserved
http://y-soft.org
ANALYZER: auCDtect: CD records authenticity detector, version 0.8.2
Copyright (c) 2004 Oleg Berngardt. All rights reserved.
Copyright (c) 2004 Alexander Djourik. All rights reserved.
FILE: 01. Dave Rodgers feat. Futura - Super Eurobeat (Gold Mix).flac
Size: 44458053 Hash: 0DD2384399D330AAED96D13B2FC28407 Accuracy: -m0
Conclusion: CDDA 100%
Signature: 8ABBD5F04179E0F1D690558D8D500C7B518C8C10
FILE: 02. Yo Shine - Power of My Love.flac
Size: 35250658 Hash: 081C2B2880B691B78C28CBA6FB979D54 Accuracy: -m0
Conclusion: CDDA 100%
Signature: A2D6AB874117B33147C1860825375E9BF635B8F3
FILE: 03. Fastway - Rock Beatin' Wild.flac
Size: 32556187 Hash: A5B60D320883C1622CDA27DF7A49ED5A Accuracy: -m0
Conclusion: CDDA 99%
Signature: 638FBF64E5D1DDA9ABE7B375C7936F39311B2E60
FILE: 04. Mirka - 10,000 Lovers.flac
Size: 52138477 Hash: F45EB19820626E1DD9DDD6AB620B048A Accuracy: -m0
Conclusion: CDDA 99%
Signature: 8AC64E55245855572F6F238F3316A07BADB5AB37
FILE: 05. Manuel - Nightrain.flac
Size: 49017564 Hash: D2AB537A58BE8184BAC34080560E7680 Accuracy: -m0
Conclusion: CDDA 100%
Signature: BA5E6CB5B3D95F7B88247F2F84754C2BEE5708CB
FILE: 06. Tipsy & Tipsy - Never Ending Love.flac
Size: 41989778 Hash: A9FAA21C93CFB91CD0CCF64EBC44D60B Accuracy: -m0
Conclusion: CDDA 100%
Signature: F42301D99B9B330A60C6B19B2FF58315F8C59E7C
FILE: 07. Queen 26 - You Are My Wonder.flac
Size: 46402589 Hash: D4A7CF75891D92C5935F6F4BE625F508 Accuracy: -m0
Conclusion: CDDA 100%
Signature: 403E9835098DA733166E0DC6F361D250B7EAD6F1
FILE: 08. Mr. Moog - Say Goodbye.flac
Size: 44898307 Hash: 73036D03D7CB19FD288B77BAC6862B09 Accuracy: -m0
Conclusion: CDDA 99%
Signature: 1F910850A8D76B54581495050622392524263780
FILE: 09. Claudia Vip - In Your Car.flac
Size: 50887390 Hash: EA4825C41F02BD74F845D576AECA81FF Accuracy: -m0
Conclusion: CDDA 99%
Signature: 54BD66EBCC5C95486EFC91A5631EE58CD502BE73
FILE: 10. K. De Leo - Wonderlover.flac
Size: 42848203 Hash: 18A798D6BB95D72A837089816B867624 Accuracy: -m0
Conclusion: CDDA 100%
Signature: 690F9F32F05E9FDF96D30AF384482ED4973E688F
FILE: 11. Nathalie - Live It Up!.flac
Size: 43269654 Hash: 398D3214FB34BBA54D65B30C5ACD4488 Accuracy: -m0
Conclusion: CDDA 100%
Signature: 60C736D7DED27EC87CF58EFB9E6B60F96ED4CCEC
FILE: 12. Ken Blast - When The Sun Goes Down.flac
Size: 37869599 Hash: 00C761C00922133E0F679176E6440CD4 Accuracy: -m0
Conclusion: CDDA 100%
Signature: 1EDB2F2FF2C29E57F4B4A44BC96DFBBEE996E2D7
FILE: 13. Girl Next Door - Climber's High (Dima Remix).flac
Size: 45729753 Hash: 4B6DE5DD27156A18EC7AD385F704B30D Accuracy: -m0
Conclusion: CDDA 99%
Signature: A11D923F645201C86BA937372C88817A5F7E71F9
FILE: 14. Dave Rodgers - Wild Reputation (Rock Mix).flac
Size: 49932863 Hash: EC1A489E9F56B843601794573561E465 Accuracy: -m0
Conclusion: CDDA 100%
Signature: 1383135CD1C6559E4FFAC9551377845DC423822F
 [CUETools log; Date: 03.05.2014 19:31:25; Version: 2.1.4]
[CTDB TOCID: A7ZSlgHtBTxqE_WfW765ynu2fbc-] disk not present in database.
[AccurateRip ID: 0025c5f3-019484bc-ca117b0e] found.
Track [ CRC | V2 ] Status
01 [ae5fc603|8b8d92c9] (1+1/2) Accurately ripped
02 [666593c8|09da2ea1] (1+1/2) Accurately ripped
03 [9020925f|cb432acb] (1+1/2) Accurately ripped
04 [02360d9c|5707f2df] (1+1/2) Accurately ripped
05 [6b20eb72|8a7820df] (1+1/2) Accurately ripped
06 [e4a0f0a3|d9c5278e] (1+1/2) Accurately ripped
07 [5ff5cab2|0390239e] (1+1/2) Accurately ripped
08 [bd9c27f9|143561d9] (1+1/2) Accurately ripped
09 [7ec86782|df51e0c2] (1+1/2) Accurately ripped
10 [c6334b16|5f53a8ba] (1+1/2) Accurately ripped
11 [23876354|f92470d6] (1+1/2) Accurately ripped
12 [18845c95|6ed48592] (1+1/2) Accurately ripped
13 [41467637|440bafcb] (1+1/2) Accurately ripped
14 [1f903f10|091a6387] (1+1/2) Accurately ripped
Track Peak [ CRC32 ] [W/O NULL] [ LOG ]
-- 100,0 [24A56F5D] [54E109AD]
01 99,9 [C1976FB1] [B7F6577B] CRC32
02 99,9 [9B6ABBCD] [0971365A] CRC32
03 99,9 [2D0D7FF8] [97C3287B] CRC32
04 99,9 [7BC00666] [B580DA98] CRC32
05 99,9 [AB5271AA] [3CF075F2] CRC32
06 99,9 [BCF356BE] [AEE70E6C] CRC32
07 99,9 [1CF3C700] [42C8D844] CRC32
08 99,9 [7BABB495] [75CE957A] CRC32
09 99,9 [785E241C] [B4C39E7C] CRC32
10 99,9 [BFCAFFEC] [AF9983B1] CRC32
11 99,9 [7CB30092] [183359E5] CRC32
12 99,9 [A4FD6C2B] [ECBA245E] CRC32
13 99,9 [44030FF5] [FC3A74A8] CRC32
14 100,0 [8BED6F52] [3755F943] CRC32

[600.1 MB] Скачать / Download