(Eurobeat/Hi-NRG/Dance) VA - Super Eurobeat Vol. 50 - 1994, FLAC (tracks+.cue), lossless - Скачать

Жанр: Electronic
Стиль: Eurobeat/Hi-NRG/Dance
Год выпуска: 1994
Производитель: Japan
Битрейт аудио: lossless
Аудио кодек: FLAC (*.flac)
Тип рипа: tracks+.cue
Источник: genseks (Собственный рип)
Продолжительность: 00:01:13:52

Дополнительная информация: с измененными тэгами и индексной картой (*.cue), оригинальный лог (*.log) файл от программыEACизменениямне подвергался.

download, альбом, поп, дискография, бесплатно, торрент, трек, pop, композиции, pop-music, soundtrack, музыка, песни, mp3, скачать, поп-музыка, альбом, lossless, torrent, высокое качество, cd

01. Lolita - Try Me (2:53)
02. Annalise - Queen Of Love (1:31)
03. Annalise - New Love (1:32)
04. Virginelle - Kiss Me Kiss Me Babe (1:33)
05. Mega NRG Man - Seventies (1:33)
06. Anika - You're My Life (1:22)
07. Lisa Johnson - Doctor Doctor (1:46)
08. King & Queen - He-Hey Dancin' (1:22)
09. Chester - Bang Bang For Your Love (1:41)
10. Love & Pride - Shotgun Killer (1:18)
11. Vanessa - Special Desire (1:31)
12. Alexis - Sugar Baby (1:42)
13. Norma Sheffield - Sweet Heaven (1:30)
14. Norma Sheffield - Memories (1:31)
15. Margaret - Mine Is Your Love (1:26)
16. Lou Grant - Take Me High All Days (1:26)
17. Virginelle - Hot Love & Emotion (1:17)
18. Maio & Co. - Bye Bye Baby (1:29)
19. Edo - Stranger (1:30)
20. Virginelle - My Name Is Virginelle (1:14)
21. King & Queen - King And Queen (1:13)
22. Jilly - Take A Look In My Heart (1:17)
23. Dave Hammond - Sound Of My Heart (1:26)
24. Maio & Co. - Dark In The Night (1:29)
25. Vanessa - Hey Hey (1:30)
26. Samantha Gilles - Here Comes The Night (1:20)
27. Atrium - In The Name Of Strangers (1:17)
28. Sandy Bee - Funky Funky Child (1:23)
29. Mike Hammer - Supersonic Love (1:17)
30. Tension - Baby Come Back (1:15)
31. Frank Torpedo - Sex And Dance (1:33)
32. Edo - Born To Be Wild (1:39)
33. Lolita - Walkie Talkie (1:30)
34. Virginelle - Don't You Love Me (1:34)
35. Macho Gang - Never Ask Me Why (1:17)
36. Silver - Lady Bug (1:37)
37. Angie Davies - Superman (1:28)
38. De Niro - Start (1:26)
39. Chester - Laser Game (1:42)
40. Helena - With You (1:18)
41. Mike Skanner - What Is Love (1:22)
42. Domino - Domino Dancing (1:42)
43. Karen - Hurricane (1:16)
44. DJ NRG - Kamikaze (1:23)
45. Virginelle - Mystery In Love (1:31)
46. Derreck Simons - T N T (1:28)
47. Casanova - In The Name Of Love (1:20)
48. Lolita - Time To Dance (1:28)
49. Roxanne - Super Sex Symbol (1:11)
50. King & Queen - Para Para (1:35)

*.log
 Exact Audio Copy V1.0 beta 3 from 29. August 2011
Отчёт EAC об извлечении, выполненном 16. июля 2013, 19:49
Various / SEB.50
Дисковод: TSSTcorpCDDVDW SH-S223L Adapter: 3 ID: 0
Режим чтения : Достоверность
Использование точного потока : Да
Отключение кэша аудио : Да
Использование указателей C2 : Нет
Коррекция смещения при чтении : 6
Способность читать области Lead-in и Lead-out : Нет
Заполнение пропущенных сэмплов тишиной : Да
Удаление блоков с тишиной в начале и конце : Нет
При вычислениях CRC использовались нулевые сэмплы : Да
Интерфейс : Встроенный Win32-интерфейс для Win NT/2000
Обработка зазоров : Добавлено к предыдущему треку
Выходной формат : Пользовательский кодировщик
Выбранный битрейт : 768 kBit/s
Качество : Высокий
Добавление ID3-тега : Нет
Утилита сжатия : C:\Program Files (x86)\Exact Audio Copy\FLAC\FLAC.EXE
Дополнительные параметры : -8 -V -T "ARTIST=%artist%" -T "TITLE=%title%" -T "ALBUM=%albumtitle%" -T "DATE=%year%" -T "TRACKNUMBER=%tracknr%" -T "GENRE=%genre%" -T "COMMENT=%comment%" -T "BAND=%albuminterpret%" -T "ALBUMARTIST=%albuminterpret%" -T "COMPOSER=%composer%" %haslyrics%--tag-from-file=LYRICS="%lyricsfile%"%haslyrics% -T "DISCNUMBER=%cdnumber%" -T "TOTALDISCS=%totalcds%" -T "TOTALTRACKS=%numtracks%" %hascover%--picture="%coverfile%"%hascover% %source% -o %dest%
TOC извлечённого CD
Трек | Старт | Длительность | Начальный сектор | Конечный сектор
---------------------------------------------------------------------
1 | 0:00.00 | 2:52.50 | 0 | 12949
2 | 2:52.50 | 1:30.62 | 12950 | 19761
3 | 4:23.37 | 1:31.43 | 19762 | 26629
4 | 5:55.05 | 1:32.52 | 26630 | 33581
5 | 7:27.57 | 1:32.70 | 33582 | 40551
6 | 9:00.52 | 1:21.45 | 40552 | 46671
7 | 10:22.22 | 1:45.43 | 46672 | 54589
8 | 12:07.65 | 1:21.40 | 54590 | 60704
9 | 13:29.30 | 1:40.55 | 60705 | 68259
10 | 15:10.10 | 1:18.30 | 68260 | 74139
11 | 16:28.40 | 1:31.25 | 74140 | 80989
12 | 17:59.65 | 1:41.57 | 80990 | 88621
13 | 19:41.47 | 1:29.73 | 88622 | 95369
14 | 21:11.45 | 1:31.10 | 95370 | 102204
15 | 22:42.55 | 1:26.22 | 102205 | 108676
16 | 24:09.02 | 1:26.25 | 108677 | 115151
17 | 25:35.27 | 1:16.63 | 115152 | 120914
18 | 26:52.15 | 1:29.17 | 120915 | 127606
19 | 28:21.32 | 1:29.40 | 127607 | 134321
20 | 29:50.72 | 1:13.45 | 134322 | 139841
21 | 31:04.42 | 1:13.10 | 139842 | 145326
22 | 32:17.52 | 1:17.00 | 145327 | 151101
23 | 33:34.52 | 1:26.33 | 151102 | 157584
24 | 35:01.10 | 1:29.35 | 157585 | 164294
25 | 36:30.45 | 1:29.47 | 164295 | 171016
26 | 38:00.17 | 1:20.00 | 171017 | 177016
27 | 39:20.17 | 1:16.55 | 177017 | 182771
28 | 40:36.72 | 1:23.15 | 182772 | 189011
29 | 42:00.12 | 1:16.58 | 189012 | 194769
30 | 43:16.70 | 1:15.20 | 194770 | 200414
31 | 44:32.15 | 1:32.55 | 200415 | 207369
32 | 46:04.70 | 1:39.07 | 207370 | 214801
33 | 47:44.02 | 1:29.43 | 214802 | 221519
34 | 49:13.45 | 1:33.52 | 221520 | 228546
35 | 50:47.22 | 1:17.25 | 228547 | 234346
36 | 52:04.47 | 1:37.35 | 234347 | 241656
37 | 53:42.07 | 1:28.10 | 241657 | 248266
38 | 55:10.17 | 1:26.28 | 248267 | 254744
39 | 56:36.45 | 1:41.45 | 254745 | 262364
40 | 58:18.15 | 1:18.25 | 262365 | 268239
41 | 59:36.40 | 1:21.47 | 268240 | 274361
42 | 60:58.12 | 1:41.58 | 274362 | 281994
43 | 62:39.70 | 1:15.50 | 281995 | 287669
44 | 63:55.45 | 1:23.10 | 287670 | 293904
45 | 65:18.55 | 1:31.22 | 293905 | 300751
46 | 66:50.02 | 1:28.00 | 300752 | 307351
47 | 68:18.02 | 1:20.00 | 307352 | 313351
48 | 69:38.02 | 1:27.70 | 313352 | 319946
49 | 71:05.72 | 1:10.38 | 319947 | 325234
50 | 72:16.35 | 1:35.37 | 325235 | 332396
Трек 1
Имя файла D:\МУЗЫКА\ane118\01. Various - Try Me.wav
Длина предзазора 0:00:02.00
Пиковый уровень 99.2 %
Скорость извлечения 4.6 X
Качество трека 100.0 %
CRC теста F12A6DB8
CRC копии F12A6DB8
Копирование... OK
Трек 2
Имя файла D:\МУЗЫКА\ane118\02. Various - Queen Of Love.wav
Пиковый уровень 99.2 %
Скорость извлечения 4.1 X
Качество трека 100.0 %
CRC теста DE95F31A
CRC копии DE95F31A
Копирование... OK
Трек 3
Имя файла D:\МУЗЫКА\ane118\03. Various - New Love.wav
Пиковый уровень 99.2 %
Скорость извлечения 4.3 X
Качество трека 100.0 %
CRC теста 873A0285
CRC копии 873A0285
Копирование... OK
Трек 4
Имя файла D:\МУЗЫКА\ane118\04. Various - Kiss Me Kiss Me Babe.wav
Пиковый уровень 99.2 %
Скорость извлечения 4.5 X
Качество трека 100.0 %
CRC теста A4557A43
CRC копии A4557A43
Копирование... OK
Трек 5
Имя файла D:\МУЗЫКА\ane118\05. Various - Seventies.wav
Пиковый уровень 99.2 %
Скорость извлечения 3.6 X
Качество трека 99.8 %
CRC теста 1E04C63D
CRC копии 1E04C63D
Копирование... OK
Трек 6
Имя файла D:\МУЗЫКА\ane118\06. Various - You're My Life.wav
Пиковый уровень 99.2 %
Скорость извлечения 4.5 X
Качество трека 100.0 %
CRC теста 85D74525
CRC копии 85D74525
Копирование... OK
Трек 7
Имя файла D:\МУЗЫКА\ane118\07. Various - Doctor Doctor.wav
Пиковый уровень 99.2 %
Скорость извлечения 4.0 X
Качество трека 99.8 %
CRC теста 302903C8
CRC копии 302903C8
Копирование... OK
Трек 8
Имя файла D:\МУЗЫКА\ane118\08. Various - He-Hey Dancin'.wav
Пиковый уровень 99.2 %
Скорость извлечения 4.7 X
Качество трека 100.0 %
CRC теста 7CC5DFC1
CRC копии 7CC5DFC1
Копирование... OK
Трек 9
Имя файла D:\МУЗЫКА\ane118\09. Various - Bang Bang For Your Love.wav
Пиковый уровень 99.2 %
Скорость извлечения 5.1 X
Качество трека 100.0 %
CRC теста 42E8D8C0
CRC копии 42E8D8C0
Копирование... OK
Трек 10
Имя файла D:\МУЗЫКА\ane118\10. Various - Shotgun Killer.wav
Пиковый уровень 99.2 %
Скорость извлечения 4.9 X
Качество трека 100.0 %
CRC теста C3050FEE
CRC копии C3050FEE
Копирование... OK
Трек 11
Имя файла D:\МУЗЫКА\ane118\11. Various - Special Desire.wav
Пиковый уровень 99.2 %
Скорость извлечения 5.1 X
Качество трека 100.0 %
CRC теста 73F59B43
CRC копии 73F59B43
Копирование... OK
Трек 12
Имя файла D:\МУЗЫКА\ane118\12. Various - Sugar Baby.wav
Пиковый уровень 99.2 %
Скорость извлечения 5.5 X
Качество трека 100.0 %
CRC теста BC81F9D1
CRC копии BC81F9D1
Копирование... OK
Трек 13
Имя файла D:\МУЗЫКА\ane118\13. Various - Sweet Heaven.wav
Пиковый уровень 99.2 %
Скорость извлечения 4.2 X
Качество трека 99.8 %
CRC теста CA86FBDB
CRC копии CA86FBDB
Копирование... OK
Трек 14
Имя файла D:\МУЗЫКА\ane118\14. Various - Memories.wav
Пиковый уровень 99.2 %
Скорость извлечения 5.6 X
Качество трека 100.0 %
CRC теста 8D53D740
CRC копии 8D53D740
Копирование... OK
Трек 15
Имя файла D:\МУЗЫКА\ane118\15. Various - Mine Is Your Love.wav
Пиковый уровень 99.2 %
Скорость извлечения 4.3 X
Качество трека 99.8 %
CRC теста F63E310E
CRC копии F63E310E
Копирование... OK
Трек 16
Имя файла D:\МУЗЫКА\ane118\16. Various - Take Me High All Days.wav
Пиковый уровень 99.2 %
Скорость извлечения 4.3 X
Качество трека 99.8 %
CRC теста 7F82D378
CRC копии 7F82D378
Копирование... OK
Трек 17
Имя файла D:\МУЗЫКА\ane118\17. Various - Hot Love & Emotion.wav
Пиковый уровень 99.2 %
Скорость извлечения 5.5 X
Качество трека 100.0 %
CRC теста ACB3760E
CRC копии ACB3760E
Копирование... OK
Трек 18
Имя файла D:\МУЗЫКА\ane118\18. Various - Bye Bye Baby.wav
Пиковый уровень 99.2 %
Скорость извлечения 5.8 X
Качество трека 100.0 %
CRC теста 8C8F5626
CRC копии 8C8F5626
Копирование... OK
Трек 19
Имя файла D:\МУЗЫКА\ane118\19. Various - Stranger.wav
Пиковый уровень 99.2 %
Скорость извлечения 6.0 X
Качество трека 100.0 %
CRC теста FA9BBFB3
CRC копии FA9BBFB3
Копирование... OK
Трек 20
Имя файла D:\МУЗЫКА\ane118\20. Various - My Name Is Virginelle.wav
Пиковый уровень 99.2 %
Скорость извлечения 5.5 X
Качество трека 100.0 %
CRC теста 7B910F69
CRC копии 7B910F69
Копирование... OK
Трек 21
Имя файла D:\МУЗЫКА\ane118\21. Various - King And Queen.wav
Пиковый уровень 99.2 %
Скорость извлечения 5.7 X
Качество трека 100.0 %
CRC теста BECB1540
CRC копии BECB1540
Копирование... OK
Трек 22
Имя файла D:\МУЗЫКА\ane118\22. Various - Take A Look In My Heart.wav
Пиковый уровень 99.2 %
Скорость извлечения 4.4 X
Качество трека 99.8 %
CRC теста CBD5568A
CRC копии CBD5568A
Копирование... OK
Трек 23
Имя файла D:\МУЗЫКА\ane118\23. Various - Sound Of My Heart.wav
Пиковый уровень 99.2 %
Скорость извлечения 6.2 X
Качество трека 100.0 %
CRC теста 0EC01EE8
CRC копии 0EC01EE8
Копирование... OK
Трек 24
Имя файла D:\МУЗЫКА\ane118\24. Various - Dark In The Night.wav
Пиковый уровень 99.2 %
Скорость извлечения 6.3 X
Качество трека 100.0 %
CRC теста 5885A482
CRC копии 5885A482
Копирование... OK
Трек 25
Имя файла D:\МУЗЫКА\ane118\25. Various - Hey Hey.wav
Пиковый уровень 99.2 %
Скорость извлечения 4.9 X
Качество трека 99.8 %
CRC теста D986EC9C
CRC копии D986EC9C
Копирование... OK
Трек 26
Имя файла D:\МУЗЫКА\ane118\26. Various - Here Comes The Night.wav
Пиковый уровень 99.2 %
Скорость извлечения 4.8 X
Качество трека 99.8 %
CRC теста 3C0AE530
CRC копии 3C0AE530
Копирование... OK
Трек 27
Имя файла D:\МУЗЫКА\ane118\27. Various - In The Name Of Strangers.wav
Пиковый уровень 99.2 %
Скорость извлечения 6.3 X
Качество трека 100.0 %
CRC теста 634AFBCC
CRC копии 634AFBCC
Копирование... OK
Трек 28
Имя файла D:\МУЗЫКА\ane118\28. Various - Funky Funky Child.wav
Пиковый уровень 99.2 %
Скорость извлечения 6.4 X
Качество трека 100.0 %
CRC теста 9AFEF322
CRC копии 9AFEF322
Копирование... OK
Трек 29
Имя файла D:\МУЗЫКА\ane118\29. Various - Supersonic Love.wav
Пиковый уровень 99.2 %
Скорость извлечения 6.4 X
Качество трека 100.0 %
CRC теста C59CECD5
CRC копии C59CECD5
Копирование... OK
Трек 30
Имя файла D:\МУЗЫКА\ane118\30. Various - Baby Come Back.wav
Пиковый уровень 99.2 %
Скорость извлечения 6.3 X
Качество трека 100.0 %
CRC теста FF798846
CRC копии FF798846
Копирование... OK
Трек 31
Имя файла D:\МУЗЫКА\ane118\31. Various - Sex And Dance.wav
Пиковый уровень 99.2 %
Скорость извлечения 6.9 X
Качество трека 100.0 %
CRC теста D59C77D4
CRC копии D59C77D4
Копирование... OK
Трек 32
Имя файла D:\МУЗЫКА\ane118\32. Various - Born To Be Wild.wav
Пиковый уровень 99.2 %
Скорость извлечения 7.1 X
Качество трека 100.0 %
CRC теста 59237A08
CRC копии 59237A08
Копирование... OK
Трек 33
Имя файла D:\МУЗЫКА\ane118\33. Various - Walkie Talkie.wav
Пиковый уровень 99.2 %
Скорость извлечения 7.0 X
Качество трека 100.0 %
CRC теста 96757779
CRC копии 96757779
Копирование... OK
Трек 34
Имя файла D:\МУЗЫКА\ane118\34. Various - Don't You Love Me.wav
Пиковый уровень 99.2 %
Скорость извлечения 7.1 X
Качество трека 100.0 %
CRC теста 50B43A50
CRC копии 50B43A50
Копирование... OK
Трек 35
Имя файла D:\МУЗЫКА\ane118\35. Various - Never Ask Me Why.wav
Пиковый уровень 99.2 %
Скорость извлечения 5.2 X
Качество трека 99.8 %
CRC теста 4E86FCF8
CRC копии 4E86FCF8
Копирование... OK
Трек 36
Имя файла D:\МУЗЫКА\ane118\36. Various - Lady Bug.wav
Пиковый уровень 99.2 %
Скорость извлечения 7.4 X
Качество трека 100.0 %
CRC теста 32917113
CRC копии 32917113
Копирование... OK
Трек 37
Имя файла D:\МУЗЫКА\ane118\37. Various - Superman.wav
Пиковый уровень 99.2 %
Скорость извлечения 7.2 X
Качество трека 100.0 %
CRC теста 8A15C6C3
CRC копии 8A15C6C3
Копирование... OK
Трек 38
Имя файла D:\МУЗЫКА\ane118\38. Various - Start.wav
Пиковый уровень 99.2 %
Скорость извлечения 7.2 X
Качество трека 100.0 %
CRC теста FECC8452
CRC копии FECC8452
Копирование... OK
Трек 39
Имя файла D:\МУЗЫКА\ane118\39. Various - Laser Game.wav
Пиковый уровень 99.2 %
Скорость извлечения 5.9 X
Качество трека 99.8 %
CRC теста AE0A3DBB
CRC копии AE0A3DBB
Копирование... OK
Трек 40
Имя файла D:\МУЗЫКА\ane118\40. Various - With You.wav
Пиковый уровень 99.2 %
Скорость извлечения 5.4 X
Качество трека 99.8 %
CRC теста 62293603
CRC копии 62293603
Копирование... OK
Трек 41
Имя файла D:\МУЗЫКА\ane118\41. Various - What Is Love.wav
Пиковый уровень 99.2 %
Скорость извлечения 5.5 X
Качество трека 99.8 %
CRC теста 6117F61E
CRC копии 6117F61E
Копирование... OK
Трек 42
Имя файла D:\МУЗЫКА\ane118\42. Various - Domino Dancing.wav
Пиковый уровень 99.2 %
Скорость извлечения 7.8 X
Качество трека 100.0 %
CRC теста 9A1AA76A
CRC копии 9A1AA76A
Копирование... OK
Трек 43
Имя файла D:\МУЗЫКА\ane118\43. Various - Hurricane.wav
Пиковый уровень 99.2 %
Скорость извлечения 5.4 X
Качество трека 99.8 %
CRC теста E2329D05
CRC копии E2329D05
Копирование... OK
Трек 44
Имя файла D:\МУЗЫКА\ane118\44. Various - Kamikaze.wav
Пиковый уровень 99.2 %
Скорость извлечения 7.5 X
Качество трека 100.0 %
CRC теста 93DEC75E
CRC копии 93DEC75E
Копирование... OK
Трек 45
Имя файла D:\МУЗЫКА\ane118\45. Various - Mystery In Love.wav
Пиковый уровень 99.2 %
Скорость извлечения 6.1 X
Качество трека 99.8 %
CRC теста C25E5CA5
CRC копии C25E5CA5
Копирование... OK
Трек 46
Имя файла D:\МУЗЫКА\ane118\46. Various - T N T.wav
Пиковый уровень 99.2 %
Скорость извлечения 7.7 X
Качество трека 100.0 %
CRC теста 951322A2
CRC копии 951322A2
Копирование... OK
Трек 47
Имя файла D:\МУЗЫКА\ane118\47. Various - In The Name Of Love.wav
Пиковый уровень 99.2 %
Скорость извлечения 5.8 X
Качество трека 99.8 %
CRC теста 8886741E
CRC копии 8886741E
Копирование... OK
Трек 48
Имя файла D:\МУЗЫКА\ane118\48. Various - Time To Dance.wav
Пиковый уровень 99.2 %
Скорость извлечения 6.0 X
Качество трека 99.8 %
CRC теста 74F77A83
CRC копии 74F77A83
Копирование... OK
Трек 49
Имя файла D:\МУЗЫКА\ane118\49. Various - Super Sex Symbol.wav
Пиковый уровень 99.2 %
Скорость извлечения 7.4 X
Качество трека 100.0 %
CRC теста 4E0776B0
CRC копии 4E0776B0
Копирование... OK
Трек 50
Имя файла D:\МУЗЫКА\ane118\50. Various - Para Para.wav
Пиковый уровень 99.2 %
Скорость извлечения 8.1 X
Качество трека 100.0 %
CRC теста B11CB816
CRC копии B11CB816
Копирование... OK
Ошибок не произошло
Конец отчёта
==== Контрольная сумма отчёта E9C29D81F238C8835CFB5A70928A11502CF712D86147E3FF7DBD7BC1798EE36F ====
*.cue
 REM GENRE Eurobeat
REM DATE 1994
REM DISCID D6114F32
REM COMMENT "ExactAudioCopy v1.0b3"
CATALOG 4988064100507
PERFORMER "Various Artists"
TITLE "Super Eurobeat Vol. 50 - Anniversary Non-Stop Mix - Greatest Euro Hits 50!"
FILE "01. Lolita - Try Me.wav" WAVE
TRACK 01 AUDIO
TITLE "Try Me"
PERFORMER "Lolita"
INDEX 01 00:00:00
FILE "02. Annalise - Queen Of Love.wav" WAVE
TRACK 02 AUDIO
TITLE "Queen Of Love"
PERFORMER "Annalise"
INDEX 01 00:00:00
FILE "03. Annalise - New Love.wav" WAVE
TRACK 03 AUDIO
TITLE "New Love"
PERFORMER "Annalise"
INDEX 01 00:00:00
FILE "04. Virginelle - Kiss Me Kiss Me Babe.wav" WAVE
TRACK 04 AUDIO
TITLE "Kiss Me Kiss Me Babe"
PERFORMER "Virginelle"
INDEX 01 00:00:00
FILE "05. Mega NRG Man - Seventies.wav" WAVE
TRACK 05 AUDIO
TITLE "Seventies"
PERFORMER "Mega NRG Man"
INDEX 01 00:00:00
FILE "06. Anika - You're My Life.wav" WAVE
TRACK 06 AUDIO
TITLE "You're My Life"
PERFORMER "Anika"
INDEX 01 00:00:00
FILE "07. Lisa Johnson - Doctor Doctor.wav" WAVE
TRACK 07 AUDIO
TITLE "Doctor Doctor"
PERFORMER "Lisa Johnson"
INDEX 01 00:00:00
FILE "08. King & Queen - He-Hey Dancin'.wav" WAVE
TRACK 08 AUDIO
TITLE "He-Hey Dancin'"
PERFORMER "King & Queen"
INDEX 01 00:00:00
FILE "09. Chester - Bang Bang For Your Love.wav" WAVE
TRACK 09 AUDIO
TITLE "Bang Bang For Your Love"
PERFORMER "Chester"
INDEX 01 00:00:00
FILE "10. Love & Pride - Shotgun Killer.wav" WAVE
TRACK 10 AUDIO
TITLE "Shotgun Killer"
PERFORMER "Love & Pride"
INDEX 01 00:00:00
FILE "11. Vanessa - Special Desire.wav" WAVE
TRACK 11 AUDIO
TITLE "Special Desire"
PERFORMER "Vanessa"
INDEX 01 00:00:00
FILE "12. Alexis - Sugar Baby.wav" WAVE
TRACK 12 AUDIO
TITLE "Sugar Baby"
PERFORMER "Alexis"
INDEX 01 00:00:00
FILE "13. Norma Sheffield - Sweet Heaven.wav" WAVE
TRACK 13 AUDIO
TITLE "Sweet Heaven"
PERFORMER "Norma Sheffield"
INDEX 01 00:00:00
FILE "14. Norma Sheffield - Memories.wav" WAVE
TRACK 14 AUDIO
TITLE "Memories"
PERFORMER "Norma Sheffield"
INDEX 01 00:00:00
FILE "15. Margaret - Mine Is Your Love.wav" WAVE
TRACK 15 AUDIO
TITLE "Mine Is Your Love"
PERFORMER "Margaret"
INDEX 01 00:00:00
FILE "16. Lou Grant - Take Me High All Days.wav" WAVE
TRACK 16 AUDIO
TITLE "Take Me High All Days"
PERFORMER "Lou Grant"
INDEX 01 00:00:00
FILE "17. Virginelle - Hot Love & Emotion.wav" WAVE
TRACK 17 AUDIO
TITLE "Hot Love & Emotion"
PERFORMER "Virginelle"
INDEX 01 00:00:00
FILE "18. Maio & Co. - Bye Bye Baby.wav" WAVE
TRACK 18 AUDIO
TITLE "Bye Bye Baby"
PERFORMER "Maio & Co."
INDEX 01 00:00:00
FILE "19. Edo - Stranger.wav" WAVE
TRACK 19 AUDIO
TITLE "Stranger"
PERFORMER "Edo"
INDEX 01 00:00:00
FILE "20. Virginelle - My Name Is Virginelle.wav" WAVE
TRACK 20 AUDIO
TITLE "My Name Is Virginelle"
PERFORMER "Virginelle"
INDEX 01 00:00:00
FILE "21. King & Queen - King And Queen.wav" WAVE
TRACK 21 AUDIO
TITLE "King And Queen"
PERFORMER "King & Queen"
INDEX 01 00:00:00
FILE "22. Jilly - Take A Look In My Heart.wav" WAVE
TRACK 22 AUDIO
TITLE "Take A Look In My Heart"
PERFORMER "Jilly"
INDEX 01 00:00:00
FILE "23. Dave Hammond - Sound Of My Heart.wav" WAVE
TRACK 23 AUDIO
TITLE "Sound Of My Heart"
PERFORMER "Dave Hammond"
INDEX 01 00:00:00
FILE "24. Maio & Co. - Dark In The Night.wav" WAVE
TRACK 24 AUDIO
TITLE "Dark In The Night"
PERFORMER "Maio & Co."
INDEX 01 00:00:00
FILE "25. Vanessa - Hey Hey.wav" WAVE
TRACK 25 AUDIO
TITLE "Hey Hey"
PERFORMER "Vanessa"
INDEX 01 00:00:00
FILE "26. Samantha Gilles - Here Comes The Night.wav" WAVE
TRACK 26 AUDIO
TITLE "Here Comes The Night"
PERFORMER "Samantha Gilles"
INDEX 01 00:00:00
FILE "27. Atrium - In The Name Of Strangers.wav" WAVE
TRACK 27 AUDIO
TITLE "In The Name Of Strangers"
PERFORMER "Atrium"
INDEX 01 00:00:00
FILE "28. Sandy Bee - Funky Funky Child.wav" WAVE
TRACK 28 AUDIO
TITLE "Funky Funky Child"
PERFORMER "Sandy Bee"
INDEX 01 00:00:00
FILE "29. Mike Hammer - Supersonic Love.wav" WAVE
TRACK 29 AUDIO
TITLE "Supersonic Love"
PERFORMER "Mike Hammer"
INDEX 01 00:00:00
FILE "30. Tension - Baby Come Back.wav" WAVE
TRACK 30 AUDIO
TITLE "Baby Come Back"
PERFORMER "Tension"
INDEX 01 00:00:00
FILE "31. Frank Torpedo - Sex And Dance.wav" WAVE
TRACK 31 AUDIO
TITLE "Sex And Dance"
PERFORMER "Frank Torpedo"
INDEX 01 00:00:00
FILE "32. Edo - Born To Be Wild.wav" WAVE
TRACK 32 AUDIO
TITLE "Born To Be Wild"
PERFORMER "Edo"
INDEX 01 00:00:00
FILE "33. Lolita - Walkie Talkie.wav" WAVE
TRACK 33 AUDIO
TITLE "Walkie Talkie"
PERFORMER "Lolita"
INDEX 01 00:00:00
FILE "34. Virginelle - Don't You Love Me.wav" WAVE
TRACK 34 AUDIO
TITLE "Don't You Love Me"
PERFORMER "Virginelle"
INDEX 01 00:00:00
FILE "35. Macho Gang - Never Ask Me Why.wav" WAVE
TRACK 35 AUDIO
TITLE "Never Ask Me Why"
PERFORMER "Macho Gang"
INDEX 01 00:00:00
FILE "36. Silver - Lady Bug.wav" WAVE
TRACK 36 AUDIO
TITLE "Lady Bug"
PERFORMER "Silver"
INDEX 01 00:00:00
FILE "37. Angie Davies - Superman.wav" WAVE
TRACK 37 AUDIO
TITLE "Superman"
PERFORMER "Angie Davies"
INDEX 01 00:00:00
FILE "38. De Niro - Start.wav" WAVE
TRACK 38 AUDIO
TITLE "Start"
PERFORMER "De Niro"
INDEX 01 00:00:00
FILE "39. Chester - Laser Game.wav" WAVE
TRACK 39 AUDIO
TITLE "Laser Game"
PERFORMER "Chester"
INDEX 01 00:00:00
FILE "40. Helena - With You.wav" WAVE
TRACK 40 AUDIO
TITLE "With You"
PERFORMER "Helena"
INDEX 01 00:00:00
FILE "41. Mike Skanner - What Is Love.wav" WAVE
TRACK 41 AUDIO
TITLE "What Is Love"
PERFORMER "Mike Skanner"
INDEX 01 00:00:00
FILE "42. Domino - Domino Dancing.wav" WAVE
TRACK 42 AUDIO
TITLE "Domino Dancing"
PERFORMER "Domino"
INDEX 01 00:00:00
FILE "43. Karen - Hurricane.wav" WAVE
TRACK 43 AUDIO
TITLE "Hurricane"
PERFORMER "Karen"
INDEX 01 00:00:00
FILE "44. DJ NRG - Kamikaze.wav" WAVE
TRACK 44 AUDIO
TITLE "Kamikaze"
PERFORMER "DJ NRG"
INDEX 01 00:00:00
FILE "45. Virginelle - Mystery In Love.wav" WAVE
TRACK 45 AUDIO
TITLE "Mystery In Love"
PERFORMER "Virginelle"
INDEX 01 00:00:00
FILE "46. Derreck Simons - T N T.wav" WAVE
TRACK 46 AUDIO
TITLE "T N T"
PERFORMER "Derreck Simons"
INDEX 01 00:00:00
FILE "47. Casanova - In The Name Of Love.wav" WAVE
TRACK 47 AUDIO
TITLE "In The Name Of Love"
PERFORMER "Casanova"
INDEX 01 00:00:00
FILE "48. Lolita - Time To Dance.wav" WAVE
TRACK 48 AUDIO
TITLE "Time To Dance"
PERFORMER "Lolita"
INDEX 01 00:00:00
FILE "49. Roxanne - Super Sex Symbol.wav" WAVE
TRACK 49 AUDIO
TITLE "Super Sex Symbol"
PERFORMER "Roxanne"
INDEX 01 00:00:00
FILE "50. King & Queen - Para Para.wav" WAVE
TRACK 50 AUDIO
TITLE "Para Para"
PERFORMER "King & Queen"
INDEX 01 00:00:00
*.auCDtect
 -----------------------
DON'T MODIFY THIS FILE
-----------------------
PERFORMER: auCDtect Task Manager, ver. 1.5.1RC6 build 1.5.1.7
Copyright (c) 2008-2010 y-soft. All rights reserved
http://y-soft.org
ANALYZER: auCDtect: CD records authenticity detector, version 0.8.2
Copyright (c) 2004 Oleg Berngardt. All rights reserved.
Copyright (c) 2004 Alexander Djourik. All rights reserved.
FILE: 01. Lolita - Try Me.flac
Size: 23305089 Hash: DEE7AE4C168074E58F30EB42A72B49EF Accuracy: -m0
Conclusion: CDDA 100%
Signature: A5A7BEEB44A3B446C9C8B7C5230F8425C4B3E396
FILE: 02. Annalise - Queen Of Love.flac
Size: 12380172 Hash: EE655D307E4200AF62EC0B3A5253868E Accuracy: -m0
Conclusion: CDDA 100%
Signature: 5593926059B13E929FDEB45D9FEBB0A88920B412
FILE: 03. Annalise - New Love.flac
Size: 12844554 Hash: E2FEAF5EA1293AFF609822AA45EE1AC7 Accuracy: -m0
Conclusion: CDDA 99%
Signature: 9B7E2754CD1FC33C6EA7F1665213F9FD9651FE78
FILE: 04. Virginelle - Kiss Me Kiss Me Babe.flac
Size: 13269896 Hash: CAA14BFF3A16D1D79B21FF436DF46BEC Accuracy: -m0
Conclusion: CDDA 100%
Signature: D4ADAC94E0EC67CD43033D953B59EC9BF7FE5BE6
FILE: 05. Mega NRG Man - Seventies.flac
Size: 13449561 Hash: 1FCA8687198C48EC52D6629D7C2AF766 Accuracy: -m0
Conclusion: CDDA 100%
Signature: 99A697F66B7347DD447A631D48CD8A0703B323AB
FILE: 06. Anika - You're My Life.flac
Size: 11561090 Hash: 593857D90F109DA302AA9667F6C2C4B6 Accuracy: -m0
Conclusion: CDDA 100%
Signature: E3B1897E955F7E0822A00B25A1D7807EEC1084ED
FILE: 07. Lisa Johnson - Doctor Doctor.flac
Size: 14563961 Hash: EDFAB1197545C6F98C87743EDD15CE0B Accuracy: -m0
Conclusion: CDDA 100%
Signature: E90368324374E1DFE6CEFEE9F28C7BC135B3E1F3
FILE: 08. King & Queen - He-Hey Dancin'.flac
Size: 11278430 Hash: D43D4F9267E191DC27BEC277D070A090 Accuracy: -m0
Conclusion: CDDA 100%
Signature: FE90022E97C6C6000B94FC98D3CFFADD073E5684
FILE: 09. Chester - Bang Bang For Your Love.flac
Size: 13553100 Hash: 0713A451A02EBA05F2E0FA5602EC6D9A Accuracy: -m0
Conclusion: CDDA 99%
Signature: 2CD8C7AD902DFE5DB2D97000C8EF689B2AABAA22
FILE: 10. Love & Pride - Shotgun Killer.flac
Size: 10566945 Hash: 5884C4EC2E1909F51ABF8A79EA135750 Accuracy: -m0
Conclusion: CDDA 99%
Signature: 1B0D25B1E5AEB474A1EF02D4416E02428A41F042
FILE: 11. Vanessa - Special Desire.flac
Size: 12588466 Hash: A1EFE4918EF25A673D343F2E081A1F7D Accuracy: -m0
Conclusion: CDDA 100%
Signature: 887DEFF152206BD9189F261708653BB650B370E2
FILE: 12. Alexis - Sugar Baby.flac
Size: 14185742 Hash: 877CAC9E2133CF3A0C04517B9DA71A24 Accuracy: -m0
Conclusion: CDDA 100%
Signature: C544D40F7006D61FDD318878DFC6C75A3A54DBCE
FILE: 13. Norma Sheffield - Sweet Heaven.flac
Size: 12436204 Hash: 4522F719227A444FA10C4A23AFABEFB1 Accuracy: -m0
Conclusion: CDDA 100%
Signature: B43CE74BA88556BA0728A8769F8813C8BDF681C4
FILE: 14. Norma Sheffield - Memories.flac
Size: 12816145 Hash: B2B394677DAFEB48A3D49F26A71DB365 Accuracy: -m0
Conclusion: CDDA 100%
Signature: 8AE4AF84201908E2CD7AC810FDAC7FE44C9211CF
FILE: 15. Margaret - Mine Is Your Love.flac
Size: 11598725 Hash: 78AE754F99A8B306BF0A63F866FC5C1D Accuracy: -m0
Conclusion: CDDA 100%
Signature: 017E4ED2FF369026C0929BCD4AC088D7D4BE3A96
FILE: 16. Lou Grant - Take Me High All Days.flac
Size: 12142417 Hash: B8F05E90952D4F70F8596E4141B5EFBA Accuracy: -m0
Conclusion: CDDA 99%
Signature: F7E56B0E2722E87B110EEE0922049F2E8F395F0E
FILE: 17. Virginelle - Hot Love & Emotion.flac
Size: 10629935 Hash: 96326E6D0898B1A8755996712223251B Accuracy: -m0
Conclusion: CDDA 100%
Signature: 644727170D72C304A288576FFAF00099C4558BB5
FILE: 18. Maio & Co. - Bye Bye Baby.flac
Size: 12090015 Hash: 1A41262A82719FEEE5D68B570F57DD3F Accuracy: -m0
Conclusion: CDDA 100%
Signature: E583F9FC3EF23800DCA8836A12F90DB031C044AE
FILE: 19. Edo - Stranger.flac
Size: 12378961 Hash: 75F0A2547230F60E730B024051B734FE Accuracy: -m0
Conclusion: CDDA 100%
Signature: CE117FF39DCE557724095D0E0A5575C6A915C8A4
FILE: 20. Virginelle - My Name Is Virginelle.flac
Size: 9738871 Hash: 82CB153B5C43026178E665AC7C09644F Accuracy: -m0
Conclusion: CDDA 100%
Signature: D01B1317C7D063BA3107B1A006303CA2F55AB0D5
FILE: 21. King & Queen - King And Queen.flac
Size: 10020114 Hash: 1A69210C74AE5F4CE820C989EFE2DA49 Accuracy: -m0
Conclusion: CDDA 99%
Signature: 4C11FBCCE62BA7B77F5E0F818CF35071E0EB10ED
FILE: 22. Jilly - Take A Look In My Heart.flac
Size: 10527775 Hash: 7DDB531D6EFA4F1366067551145D1797 Accuracy: -m0
Conclusion: CDDA 100%
Signature: 9D51F35F626818DA75EDB1D7A288B43871F75713
FILE: 23. Dave Hammond - Sound Of My Heart.flac
Size: 10955161 Hash: F51A8B716994BB8AB16FC2630EDF3BD2 Accuracy: -m0
Conclusion: CDDA 100%
Signature: 68CB561492507190B9D1CCDA83B1ECD7EEF2D0AC
FILE: 24. Maio & Co. - Dark In The Night.flac
Size: 12379842 Hash: 7B84347898B0A6A79423CF29B21DC255 Accuracy: -m0
Conclusion: CDDA 100%
Signature: E72D7EFBB1420E0961E77DF5DABDB20710F446D5
FILE: 25. Vanessa - Hey Hey.flac
Size: 12293544 Hash: 09A2FEB48503E3E2CCDF7F4C6065F0F7 Accuracy: -m0
Conclusion: CDDA 100%
Signature: 5D6B891ED6BC30F81DBAB8D5211760E68FEDC206
FILE: 26. Samantha Gilles - Here Comes The Night.flac
Size: 11259377 Hash: 2525DA931A0C8B1C586B83072A49D7A2 Accuracy: -m0
Conclusion: CDDA 99%
Signature: EF8C93484E298C84CC4CC0A5B25ADD6E9E64FA26
FILE: 27. Atrium - In The Name Of Strangers.flac
Size: 10789602 Hash: C5951EECE48E832955A1A53B38335558 Accuracy: -m0
Conclusion: CDDA 99%
Signature: 9BFC143631B60A49661B6E9AD8019EA31A94418A
FILE: 28. Sandy Bee - Funky Funky Child.flac
Size: 11445695 Hash: 7DBC8CFC634DD37BEE100E2640FFA380 Accuracy: -m0
Conclusion: CDDA 100%
Signature: BFB04AC823A7FE6AFD15653373326A3EA7315196
FILE: 29. Mike Hammer - Supersonic Love.flac
Size: 10360273 Hash: C5DD9018265D28D83212ECBEA8D23E17 Accuracy: -m0
Conclusion: CDDA 100%
Signature: BF462AF4E0CE65DC316FEB24AB77762F57754366
FILE: 30. Tension - Baby Come Back.flac
Size: 10248386 Hash: 5EEB29326C951A2AF5DB1E075A2E5AC7 Accuracy: -m0
Conclusion: CDDA 100%
Signature: DE0016BF2949D5E5283BF1D45791C6F5DAFC7DEA
FILE: 31. Frank Torpedo - Sex And Dance.flac
Size: 12915300 Hash: 09CBE0BD00D654D3D9271F883C9CEFCF Accuracy: -m0
Conclusion: CDDA 100%
Signature: D3CB87E365FC833706A57F74B94B955962E68A1E
FILE: 32. Edo - Born To Be Wild.flac
Size: 13796706 Hash: 0742821C13EB57D8383FAB5531B6B2C4 Accuracy: -m0
Conclusion: CDDA 100%
Signature: D1DCA420254D52CA5CB7B4A9F1F9F81D3033FC9D
FILE: 33. Lolita - Walkie Talkie.flac
Size: 12527026 Hash: 29417AC5CD4343C55636AA3C89A97941 Accuracy: -m0
Conclusion: CDDA 100%
Signature: BCF2B018FB5F61C6E3EBF3BA155CF0264753E932
FILE: 34. Virginelle - Don't You Love Me.flac
Size: 13197988 Hash: 772A09AE27B0C9D8F60D4EA299F8A560 Accuracy: -m0
Conclusion: CDDA 100%
Signature: DE65741961C3DD76563DDE2CFB04F20C7889F60F
FILE: 35. Macho Gang - Never Ask Me Why.flac
Size: 10540415 Hash: 81869FD2372FB9768484B58E2911D4B0 Accuracy: -m0
Conclusion: CDDA 100%
Signature: D33F20B85CD6992AB21CBF2116244A9732872AD5
FILE: 36. Silver - Lady Bug.flac
Size: 13213455 Hash: CA6FDA2A5039EF9553B57DFA974B1ADC Accuracy: -m0
Conclusion: CDDA 100%
Signature: D6413768949ADE380D949C276A1015084D98EA1F
FILE: 37. Angie Davies - Superman.flac
Size: 11914077 Hash: 5BAB395F702FFADA37BEC3FE888FA870 Accuracy: -m0
Conclusion: CDDA 100%
Signature: 4EBE4B4E5977A824925C02C389AE1918CAF19FDD
FILE: 38. De Niro - Start.flac
Size: 12192553 Hash: 87EE7094062A71807C2627714F47AFB1 Accuracy: -m0
Conclusion: CDDA 100%
Signature: 732F420EE449F940CC3E3AB856BC665FBAAE0BFD
FILE: 39. Chester - Laser Game.flac
Size: 14203747 Hash: EC2D637D1F45A8461DE1FABA3E0E759B Accuracy: -m0
Conclusion: CDDA 100%
Signature: 5FFC676B9EB830393A2DEF4262364B0C01FD9C6E
FILE: 40. Helena - With You.flac
Size: 11075516 Hash: 47B33BC34AD747DC7985316A0475EB99 Accuracy: -m0
Conclusion: CDDA 100%
Signature: 9469297BFEE4809E73685E525693A2E01E8FBC3A
FILE: 41. Mike Skanner - What Is Love.flac
Size: 11567936 Hash: 33FA0863D0F87EAF5FDB92A380C9110C Accuracy: -m0
Conclusion: CDDA 99%
Signature: 59FF822766F5C13C0E2532C77335C588AF0331B5
FILE: 42. Domino - Domino Dancing.flac
Size: 14159838 Hash: 1F0A3202F4F6DA14C328A2BD5F4FF429 Accuracy: -m0
Conclusion: CDDA 100%
Signature: F4CF77C64676809612CE10AFD84BCE94FE688194
FILE: 43. Karen - Hurricane.flac
Size: 10790806 Hash: 34882CBCC999A2372A50F7BC045ED57B Accuracy: -m0
Conclusion: CDDA 100%
Signature: 4851E842921CD5A91467B5340B028766B80AE151
FILE: 44. DJ NRG - Kamikaze.flac
Size: 11426428 Hash: 8181DDD9C4D8DA69AD4353B9F75F717C Accuracy: -m0
Conclusion: CDDA 99%
Signature: FDFE4D4F4D6D128AE8CA5B20056B689A5F0B355F
FILE: 45. Virginelle - Mystery In Love.flac
Size: 12652203 Hash: 93DCD7115A2DD1137AA5BB4D6F1F73EA Accuracy: -m0
Conclusion: CDDA 99%
Signature: 3630763A49748C8A7287A1E88C6128F09BC7D9A8
FILE: 46. Derreck Simons - T N T.flac
Size: 12097824 Hash: 34910EC310BB646EA79BB706EC7AFA57 Accuracy: -m0
Conclusion: CDDA 100%
Signature: 9EDDC308F3240BF18B6C4CA4938A7FBC4E395DBF
FILE: 47. Casanova - In The Name Of Love.flac
Size: 11036580 Hash: 0F00B1CEB073A8853CEC0937675B7712 Accuracy: -m0
Conclusion: CDDA 100%
Signature: DFC84835042272C85C0099E752D764D7D2BF29A9
FILE: 48. Lolita - Time To Dance.flac
Size: 12454535 Hash: D309B4F58CA6192BF5335657FEE60A72 Accuracy: -m0
Conclusion: CDDA 100%
Signature: FE486A1E7C44E9B0599E9D4EAB13FD9EB8AD5956
FILE: 49. Roxanne - Super Sex Symbol.flac
Size: 9757344 Hash: 95AADBA5134D4FAB69AEAD038C492B44 Accuracy: -m0
Conclusion: CDDA 100%
Signature: A45FA157052E7FE399DAA111E8247D92965AF7B1
FILE: 50. King & Queen - Para Para.flac
Size: 13045247 Hash: F92E78CA3CE426290DEEDC8A140B485F Accuracy: -m0
Conclusion: CDDA 100%
Signature: 222EA70A7D02CD74736A0A5E3B519DD0A13078B2
*.accurip
 [CUETools log; Date: 21.07.2013 11:53:49; Version: 2.1.4]
[CTDB TOCID: ssnJ2uPRqKksini1LHunBW2rPys-] found.
Track | CTDB Status
1 | (6/6) Accurately ripped
2 | (6/6) Accurately ripped
3 | (6/6) Accurately ripped
4 | (6/6) Accurately ripped
5 | (6/6) Accurately ripped
6 | (6/6) Accurately ripped
7 | (6/6) Accurately ripped
8 | (6/6) Accurately ripped
9 | (6/6) Accurately ripped
10 | (6/6) Accurately ripped
11 | (6/6) Accurately ripped
12 | (6/6) Accurately ripped
13 | (6/6) Accurately ripped
14 | (6/6) Accurately ripped
15 | (6/6) Accurately ripped
16 | (6/6) Accurately ripped
17 | (6/6) Accurately ripped
18 | (6/6) Accurately ripped
19 | (6/6) Accurately ripped
20 | (6/6) Accurately ripped
21 | (6/6) Accurately ripped
22 | (6/6) Accurately ripped
23 | (6/6) Accurately ripped
24 | (6/6) Accurately ripped
25 | (6/6) Accurately ripped
26 | (6/6) Accurately ripped
27 | (6/6) Accurately ripped
28 | (6/6) Accurately ripped
29 | (6/6) Accurately ripped
30 | (6/6) Accurately ripped
31 | (6/6) Accurately ripped
32 | (6/6) Accurately ripped
33 | (6/6) Accurately ripped
34 | (6/6) Accurately ripped
35 | (6/6) Accurately ripped
36 | (6/6) Accurately ripped
37 | (6/6) Accurately ripped
38 | (6/6) Accurately ripped
39 | (6/6) Accurately ripped
40 | (6/6) Accurately ripped
41 | (6/6) Accurately ripped
42 | (6/6) Accurately ripped
43 | (6/6) Accurately ripped
44 | (6/6) Accurately ripped
45 | (6/6) Accurately ripped
46 | (6/6) Accurately ripped
47 | (6/6) Accurately ripped
48 | (6/6) Accurately ripped
49 | (6/6) Accurately ripped
50 | (6/6) Accurately ripped
[AccurateRip ID: 0084cec4-11c33450-d6114f32] found.
Track [ CRC | V2 ] Status
01 [1dd41aba|d28077e7] (0+0/3) No match
02 [a08069d4|c8db420d] (0+0/3) No match
03 [dd0fbb67|87c9a8d5] (0+0/3) No match
04 [cb9c0a9b|bf937345] (0+0/3) No match
05 [1237eb56|cfb70b5b] (0+0/3) No match
06 [a3714d3c|4766b0e0] (0+0/3) No match
07 [9decc321|75c4ceff] (0+0/3) No match
08 [cf5c630f|57b69743] (0+0/3) No match
09 [6f2cb884|9b0d9d71] (0+0/3) No match
10 [217003f4|c9ea69bb] (0+0/3) No match
11 [0dba1533|f74f2539] (0+0/3) No match
12 [57ebe6d1|5483ccb2] (0+0/3) No match
13 [1028aeb3|3897e6bb] (0+0/3) No match
14 [caa121b6|326f5632] (0+0/3) No match
15 [5138151c|4aacaf69] (0+0/3) No match
16 [1ca72eaa|b3058a5e] (0+0/3) No match
17 [84409f5d|92f015ae] (0+0/3) No match
18 [c049396b|cc6a7e68] (0+0/3) No match
19 [f0fcfd41|7f01d79a] (0+0/3) No match
20 [16835239|88634b0d] (0+0/3) No match
21 [d3c9083a|8a7714a2] (0+0/3) No match
22 [6d060142|93403755] (0+0/3) No match
23 [9d91b0e6|e9e5a330] (0+0/3) No match
24 [100741f0|2986c9e6] (0+0/3) No match
25 [9f2b1b32|57e8a209] (0+0/3) No match
26 [28447c57|87ae6a62] (0+0/3) No match
27 [db5771e5|13e5f401] (0+0/3) No match
28 [dd98a35d|4abf4086] (0+0/3) No match
29 [0985d7cd|92d4423e] (0+0/3) No match
30 [c2a138b8|76094062] (0+0/3) No match
31 [c49bd577|a89dcc35] (0+0/3) No match
32 [89e9a889|dfa27ec2] (0+0/3) No match
33 [0baa29fe|9446e5dd] (0+0/3) No match
34 [9baf39a2|5132f64d] (0+0/3) No match
35 [36c6522d|c68785db] (0+0/3) No match
36 [6241811d|8d79b411] (0+0/3) No match
37 [73739aa1|b1252f2d] (0+0/3) No match
38 [9dda78cb|3125de51] (0+0/3) No match
39 [63d027e9|6894c993] (0+0/3) No match
40 [1214b3a4|cbd6cb53] (0+0/3) No match
41 [85fc87e4|fc3197ef] (0+0/3) No match
42 [01d59641|7d6863b8] (0+0/3) No match
43 [bf20a692|e432d155] (0+0/3) No match
44 [137514ad|1ea79e1b] (0+0/3) No match
45 [65da5eee|23aeacad] (0+0/3) No match
46 [f3d49a44|76702da7] (0+0/3) No match
47 [ea45255a|ae31a33b] (0+0/3) No match
48 [f10de0e5|16ae1738] (0+0/3) No match
49 [b7b870b8|2897ce64] (0+0/3) No match
50 [0fa98ecd|40409ee9] (0+0/3) No match
Offsetted by -110:
01 [fc815c59] (3/3) Accurately ripped
02 [de4d457b] (3/3) Accurately ripped
03 [e5004915] (3/3) Accurately ripped
04 [dbb67298] (3/3) Accurately ripped
05 [7426f678] (3/3) Accurately ripped
06 [254c40ba] (3/3) Accurately ripped
07 [09e9a591] (3/3) Accurately ripped
08 [5c3cc647] (3/3) Accurately ripped
09 [4188cc7f] (3/3) Accurately ripped
10 [6b55c335] (3/3) Accurately ripped
11 [add2405a] (3/3) Accurately ripped
12 [48c1a1e0] (3/3) Accurately ripped
13 [a900a0f3] (3/3) Accurately ripped
14 [5492f6a6] (3/3) Accurately ripped
15 [7655ef57] (3/3) Accurately ripped
16 [2d86a6d3] (3/3) Accurately ripped
17 [497c3059] (3/3) Accurately ripped
18 [da678b18] (3/3) Accurately ripped
19 [00a4c53f] (3/3) Accurately ripped
20 [4dd826d4] (3/3) Accurately ripped
21 [b0e5eee2] (3/3) Accurately ripped
22 [d5f8741e] (3/3) Accurately ripped
23 [054a1a42] (3/3) Accurately ripped
24 [fa44591a] (3/3) Accurately ripped
25 [c2c04e8c] (3/3) Accurately ripped
26 [89f68c10] (3/3) Accurately ripped
27 [31460a09] (3/3) Accurately ripped
28 [86a3501a] (3/3) Accurately ripped
29 [06de60bc] (3/3) Accurately ripped
30 [95f38668] (3/3) Accurately ripped
31 [3d6ea9bf] (3/3) Accurately ripped
32 [75806361] (3/3) Accurately ripped
33 [29dbbb2b] (3/3) Accurately ripped
34 [fc3d65e4] (3/3) Accurately ripped
35 [f94739d8] (3/3) Accurately ripped
36 [cd7bf070] (3/3) Accurately ripped
37 [2cd9c580] (3/3) Accurately ripped
38 [2d1b6603] (3/3) Accurately ripped
39 [7e932dd0] (3/3) Accurately ripped
40 [e4cb8519] (3/3) Accurately ripped
41 [0ae68796] (3/3) Accurately ripped
42 [eac53104] (3/3) Accurately ripped
43 [12818c02] (3/3) Accurately ripped
44 [f213a205] (3/3) Accurately ripped
45 [67d4758e] (3/3) Accurately ripped
46 [f2398015] (3/3) Accurately ripped
47 [8887a0e4] (3/3) Accurately ripped
48 [e68c991c] (3/3) Accurately ripped
49 [50844016] (3/3) Accurately ripped
50 [25ecfdd6] (3/3) Accurately ripped
Track Peak [ CRC32 ] [W/O NULL] [ LOG ]
-- 99,2 [ED5C273C] [68D45E24]
01 99,2 [F12A6DB8] [AEF74D4C] CRC32
02 99,2 [DE95F31A] [C3EBF0FC] CRC32
03 99,2 [873A0285] [79581056] CRC32
04 99,2 [A4557A43] [2C81D9AA] CRC32
05 99,2 [1E04C63D] [34E43782] CRC32
06 99,2 [85D74525] [9595DF14] CRC32
07 99,2 [302903C8] [20D52620] CRC32
08 99,2 [7CC5DFC1] [83AC4A40] CRC32
09 99,2 [42E8D8C0] [0A9475C9] CRC32
10 99,2 [C3050FEE] [523AC4BB] CRC32
11 99,2 [73F59B43] [72150214] CRC32
12 99,2 [BC81F9D1] [4D5C43D6] CRC32
13 99,2 [CA86FBDB] [8AAA1D3F] CRC32
14 99,2 [8D53D740] [832E8831] CRC32
15 99,2 [F63E310E] [3A5F2C8B] CRC32
16 99,2 [7F82D378] [EB0E3CB0] CRC32
17 99,2 [ACB3760E] [54666ADF] CRC32
18 99,2 [8C8F5626] [CC4B6744] CRC32
19 99,2 [FA9BBFB3] [ED6292D8] CRC32
20 99,2 [7B910F69] [499AB81C] CRC32
21 99,2 [BECB1540] [FDA895CB] CRC32
22 99,2 [CBD5568A] [B14EA601] CRC32
23 99,2 [0EC01EE8] [8157C079] CRC32
24 99,2 [5885A482] [377D6873] CRC32
25 99,2 [D986EC9C] [726ED848] CRC32
26 99,2 [3C0AE530] [C5AF066A] CRC32
27 99,2 [634AFBCC] [EFA389E5] CRC32
28 99,2 [9AFEF322] [6F633AEE] CRC32
29 99,2 [C59CECD5] [13820940] CRC32
30 99,2 [FF798846] [40F7AA89] CRC32
31 99,2 [D59C77D4] [091D2C8E] CRC32
32 99,2 [59237A08] [9C152656] CRC32
33 99,2 [96757779] [085AF1B5] CRC32
34 99,2 [50B43A50] [902D9A2B] CRC32
35 99,2 [4E86FCF8] [40061EC1] CRC32
36 99,2 [32917113] [E601910F] CRC32
37 99,2 [8A15C6C3] [106E7320] CRC32
38 99,2 [FECC8452] [11DB6E4A] CRC32
39 99,2 [AE0A3DBB] [D4A65D61] CRC32
40 99,2 [62293603] [8BB90900] CRC32
41 99,2 [6117F61E] [F3ED3819] CRC32
42 99,2 [9A1AA76A] [970BA3DC] CRC32
43 99,2 [E2329D05] [F18C1A25] CRC32
44 99,2 [93DEC75E] [CA7CCA29] CRC32
45 99,2 [C25E5CA5] [7709451C] CRC32
46 99,2 [951322A2] [FDD47EFC] CRC32
47 99,2 [8886741E] [6F31ADA9] CRC32
48 99,2 [74F77A83] [58C7D9D3] CRC32
49 99,2 [4E0776B0] [82BF17A6] CRC32
50 99,2 [B11CB816] [9D51F8DE] CRC32
 Exact Audio Copy V1.0 beta 3 from 29. August 2011
Отчёт EAC об извлечении, выполненном 16. июля 2013, 19:49
Various / SEB.50
Дисковод: TSSTcorpCDDVDW SH-S223L Adapter: 3 ID: 0
Режим чтения : Достоверность
Использование точного потока : Да
Отключение кэша аудио : Да
Использование указателей C2 : Нет
Коррекция смещения при чтении : 6
Способность читать области Lead-in и Lead-out : Нет
Заполнение пропущенных сэмплов тишиной : Да
Удаление блоков с тишиной в начале и конце : Нет
При вычислениях CRC использовались нулевые сэмплы : Да
Интерфейс : Встроенный Win32-интерфейс для Win NT/2000
Обработка зазоров : Добавлено к предыдущему треку
Выходной формат : Пользовательский кодировщик
Выбранный битрейт : 768 kBit/s
Качество : Высокий
Добавление ID3-тега : Нет
Утилита сжатия : C:\Program Files (x86)\Exact Audio Copy\FLAC\FLAC.EXE
Дополнительные параметры : -8 -V -T "ARTIST=%artist%" -T "TITLE=%title%" -T "ALBUM=%albumtitle%" -T "DATE=%year%" -T "TRACKNUMBER=%tracknr%" -T "GENRE=%genre%" -T "COMMENT=%comment%" -T "BAND=%albuminterpret%" -T "ALBUMARTIST=%albuminterpret%" -T "COMPOSER=%composer%" %haslyrics%--tag-from-file=LYRICS="%lyricsfile%"%haslyrics% -T "DISCNUMBER=%cdnumber%" -T "TOTALDISCS=%totalcds%" -T "TOTALTRACKS=%numtracks%" %hascover%--picture="%coverfile%"%hascover% %source% -o %dest%
TOC извлечённого CD
Трек | Старт | Длительность | Начальный сектор | Конечный сектор
---------------------------------------------------------------------
1 | 0:00.00 | 2:52.50 | 0 | 12949
2 | 2:52.50 | 1:30.62 | 12950 | 19761
3 | 4:23.37 | 1:31.43 | 19762 | 26629
4 | 5:55.05 | 1:32.52 | 26630 | 33581
5 | 7:27.57 | 1:32.70 | 33582 | 40551
6 | 9:00.52 | 1:21.45 | 40552 | 46671
7 | 10:22.22 | 1:45.43 | 46672 | 54589
8 | 12:07.65 | 1:21.40 | 54590 | 60704
9 | 13:29.30 | 1:40.55 | 60705 | 68259
10 | 15:10.10 | 1:18.30 | 68260 | 74139
11 | 16:28.40 | 1:31.25 | 74140 | 80989
12 | 17:59.65 | 1:41.57 | 80990 | 88621
13 | 19:41.47 | 1:29.73 | 88622 | 95369
14 | 21:11.45 | 1:31.10 | 95370 | 102204
15 | 22:42.55 | 1:26.22 | 102205 | 108676
16 | 24:09.02 | 1:26.25 | 108677 | 115151
17 | 25:35.27 | 1:16.63 | 115152 | 120914
18 | 26:52.15 | 1:29.17 | 120915 | 127606
19 | 28:21.32 | 1:29.40 | 127607 | 134321
20 | 29:50.72 | 1:13.45 | 134322 | 139841
21 | 31:04.42 | 1:13.10 | 139842 | 145326
22 | 32:17.52 | 1:17.00 | 145327 | 151101
23 | 33:34.52 | 1:26.33 | 151102 | 157584
24 | 35:01.10 | 1:29.35 | 157585 | 164294
25 | 36:30.45 | 1:29.47 | 164295 | 171016
26 | 38:00.17 | 1:20.00 | 171017 | 177016
27 | 39:20.17 | 1:16.55 | 177017 | 182771
28 | 40:36.72 | 1:23.15 | 182772 | 189011
29 | 42:00.12 | 1:16.58 | 189012 | 194769
30 | 43:16.70 | 1:15.20 | 194770 | 200414
31 | 44:32.15 | 1:32.55 | 200415 | 207369
32 | 46:04.70 | 1:39.07 | 207370 | 214801
33 | 47:44.02 | 1:29.43 | 214802 | 221519
34 | 49:13.45 | 1:33.52 | 221520 | 228546
35 | 50:47.22 | 1:17.25 | 228547 | 234346
36 | 52:04.47 | 1:37.35 | 234347 | 241656
37 | 53:42.07 | 1:28.10 | 241657 | 248266
38 | 55:10.17 | 1:26.28 | 248267 | 254744
39 | 56:36.45 | 1:41.45 | 254745 | 262364
40 | 58:18.15 | 1:18.25 | 262365 | 268239
41 | 59:36.40 | 1:21.47 | 268240 | 274361
42 | 60:58.12 | 1:41.58 | 274362 | 281994
43 | 62:39.70 | 1:15.50 | 281995 | 287669
44 | 63:55.45 | 1:23.10 | 287670 | 293904
45 | 65:18.55 | 1:31.22 | 293905 | 300751
46 | 66:50.02 | 1:28.00 | 300752 | 307351
47 | 68:18.02 | 1:20.00 | 307352 | 313351
48 | 69:38.02 | 1:27.70 | 313352 | 319946
49 | 71:05.72 | 1:10.38 | 319947 | 325234
50 | 72:16.35 | 1:35.37 | 325235 | 332396
Трек 1
Имя файла D:\МУЗЫКА\ane118\01. Various - Try Me.wav
Длина предзазора 0:00:02.00
Пиковый уровень 99.2 %
Скорость извлечения 4.6 X
Качество трека 100.0 %
CRC теста F12A6DB8
CRC копии F12A6DB8
Копирование... OK
Трек 2
Имя файла D:\МУЗЫКА\ane118\02. Various - Queen Of Love.wav
Пиковый уровень 99.2 %
Скорость извлечения 4.1 X
Качество трека 100.0 %
CRC теста DE95F31A
CRC копии DE95F31A
Копирование... OK
Трек 3
Имя файла D:\МУЗЫКА\ane118\03. Various - New Love.wav
Пиковый уровень 99.2 %
Скорость извлечения 4.3 X
Качество трека 100.0 %
CRC теста 873A0285
CRC копии 873A0285
Копирование... OK
Трек 4
Имя файла D:\МУЗЫКА\ane118\04. Various - Kiss Me Kiss Me Babe.wav
Пиковый уровень 99.2 %
Скорость извлечения 4.5 X
Качество трека 100.0 %
CRC теста A4557A43
CRC копии A4557A43
Копирование... OK
Трек 5
Имя файла D:\МУЗЫКА\ane118\05. Various - Seventies.wav
Пиковый уровень 99.2 %
Скорость извлечения 3.6 X
Качество трека 99.8 %
CRC теста 1E04C63D
CRC копии 1E04C63D
Копирование... OK
Трек 6
Имя файла D:\МУЗЫКА\ane118\06. Various - You're My Life.wav
Пиковый уровень 99.2 %
Скорость извлечения 4.5 X
Качество трека 100.0 %
CRC теста 85D74525
CRC копии 85D74525
Копирование... OK
Трек 7
Имя файла D:\МУЗЫКА\ane118\07. Various - Doctor Doctor.wav
Пиковый уровень 99.2 %
Скорость извлечения 4.0 X
Качество трека 99.8 %
CRC теста 302903C8
CRC копии 302903C8
Копирование... OK
Трек 8
Имя файла D:\МУЗЫКА\ane118\08. Various - He-Hey Dancin'.wav
Пиковый уровень 99.2 %
Скорость извлечения 4.7 X
Качество трека 100.0 %
CRC теста 7CC5DFC1
CRC копии 7CC5DFC1
Копирование... OK
Трек 9
Имя файла D:\МУЗЫКА\ane118\09. Various - Bang Bang For Your Love.wav
Пиковый уровень 99.2 %
Скорость извлечения 5.1 X
Качество трека 100.0 %
CRC теста 42E8D8C0
CRC копии 42E8D8C0
Копирование... OK
Трек 10
Имя файла D:\МУЗЫКА\ane118\10. Various - Shotgun Killer.wav
Пиковый уровень 99.2 %
Скорость извлечения 4.9 X
Качество трека 100.0 %
CRC теста C3050FEE
CRC копии C3050FEE
Копирование... OK
Трек 11
Имя файла D:\МУЗЫКА\ane118\11. Various - Special Desire.wav
Пиковый уровень 99.2 %
Скорость извлечения 5.1 X
Качество трека 100.0 %
CRC теста 73F59B43
CRC копии 73F59B43
Копирование... OK
Трек 12
Имя файла D:\МУЗЫКА\ane118\12. Various - Sugar Baby.wav
Пиковый уровень 99.2 %
Скорость извлечения 5.5 X
Качество трека 100.0 %
CRC теста BC81F9D1
CRC копии BC81F9D1
Копирование... OK
Трек 13
Имя файла D:\МУЗЫКА\ane118\13. Various - Sweet Heaven.wav
Пиковый уровень 99.2 %
Скорость извлечения 4.2 X
Качество трека 99.8 %
CRC теста CA86FBDB
CRC копии CA86FBDB
Копирование... OK
Трек 14
Имя файла D:\МУЗЫКА\ane118\14. Various - Memories.wav
Пиковый уровень 99.2 %
Скорость извлечения 5.6 X
Качество трека 100.0 %
CRC теста 8D53D740
CRC копии 8D53D740
Копирование... OK
Трек 15
Имя файла D:\МУЗЫКА\ane118\15. Various - Mine Is Your Love.wav
Пиковый уровень 99.2 %
Скорость извлечения 4.3 X
Качество трека 99.8 %
CRC теста F63E310E
CRC копии F63E310E
Копирование... OK
Трек 16
Имя файла D:\МУЗЫКА\ane118\16. Various - Take Me High All Days.wav
Пиковый уровень 99.2 %
Скорость извлечения 4.3 X
Качество трека 99.8 %
CRC теста 7F82D378
CRC копии 7F82D378
Копирование... OK
Трек 17
Имя файла D:\МУЗЫКА\ane118\17. Various - Hot Love & Emotion.wav
Пиковый уровень 99.2 %
Скорость извлечения 5.5 X
Качество трека 100.0 %
CRC теста ACB3760E
CRC копии ACB3760E
Копирование... OK
Трек 18
Имя файла D:\МУЗЫКА\ane118\18. Various - Bye Bye Baby.wav
Пиковый уровень 99.2 %
Скорость извлечения 5.8 X
Качество трека 100.0 %
CRC теста 8C8F5626
CRC копии 8C8F5626
Копирование... OK
Трек 19
Имя файла D:\МУЗЫКА\ane118\19. Various - Stranger.wav
Пиковый уровень 99.2 %
Скорость извлечения 6.0 X
Качество трека 100.0 %
CRC теста FA9BBFB3
CRC копии FA9BBFB3
Копирование... OK
Трек 20
Имя файла D:\МУЗЫКА\ane118\20. Various - My Name Is Virginelle.wav
Пиковый уровень 99.2 %
Скорость извлечения 5.5 X
Качество трека 100.0 %
CRC теста 7B910F69
CRC копии 7B910F69
Копирование... OK
Трек 21
Имя файла D:\МУЗЫКА\ane118\21. Various - King And Queen.wav
Пиковый уровень 99.2 %
Скорость извлечения 5.7 X
Качество трека 100.0 %
CRC теста BECB1540
CRC копии BECB1540
Копирование... OK
Трек 22
Имя файла D:\МУЗЫКА\ane118\22. Various - Take A Look In My Heart.wav
Пиковый уровень 99.2 %
Скорость извлечения 4.4 X
Качество трека 99.8 %
CRC теста CBD5568A
CRC копии CBD5568A
Копирование... OK
Трек 23
Имя файла D:\МУЗЫКА\ane118\23. Various - Sound Of My Heart.wav
Пиковый уровень 99.2 %
Скорость извлечения 6.2 X
Качество трека 100.0 %
CRC теста 0EC01EE8
CRC копии 0EC01EE8
Копирование... OK
Трек 24
Имя файла D:\МУЗЫКА\ane118\24. Various - Dark In The Night.wav
Пиковый уровень 99.2 %
Скорость извлечения 6.3 X
Качество трека 100.0 %
CRC теста 5885A482
CRC копии 5885A482
Копирование... OK
Трек 25
Имя файла D:\МУЗЫКА\ane118\25. Various - Hey Hey.wav
Пиковый уровень 99.2 %
Скорость извлечения 4.9 X
Качество трека 99.8 %
CRC теста D986EC9C
CRC копии D986EC9C
Копирование... OK
Трек 26
Имя файла D:\МУЗЫКА\ane118\26. Various - Here Comes The Night.wav
Пиковый уровень 99.2 %
Скорость извлечения 4.8 X
Качество трека 99.8 %
CRC теста 3C0AE530
CRC копии 3C0AE530
Копирование... OK
Трек 27
Имя файла D:\МУЗЫКА\ane118\27. Various - In The Name Of Strangers.wav
Пиковый уровень 99.2 %
Скорость извлечения 6.3 X
Качество трека 100.0 %
CRC теста 634AFBCC
CRC копии 634AFBCC
Копирование... OK
Трек 28
Имя файла D:\МУЗЫКА\ane118\28. Various - Funky Funky Child.wav
Пиковый уровень 99.2 %
Скорость извлечения 6.4 X
Качество трека 100.0 %
CRC теста 9AFEF322
CRC копии 9AFEF322
Копирование... OK
Трек 29
Имя файла D:\МУЗЫКА\ane118\29. Various - Supersonic Love.wav
Пиковый уровень 99.2 %
Скорость извлечения 6.4 X
Качество трека 100.0 %
CRC теста C59CECD5
CRC копии C59CECD5
Копирование... OK
Трек 30
Имя файла D:\МУЗЫКА\ane118\30. Various - Baby Come Back.wav
Пиковый уровень 99.2 %
Скорость извлечения 6.3 X
Качество трека 100.0 %
CRC теста FF798846
CRC копии FF798846
Копирование... OK
Трек 31
Имя файла D:\МУЗЫКА\ane118\31. Various - Sex And Dance.wav
Пиковый уровень 99.2 %
Скорость извлечения 6.9 X
Качество трека 100.0 %
CRC теста D59C77D4
CRC копии D59C77D4
Копирование... OK
Трек 32
Имя файла D:\МУЗЫКА\ane118\32. Various - Born To Be Wild.wav
Пиковый уровень 99.2 %
Скорость извлечения 7.1 X
Качество трека 100.0 %
CRC теста 59237A08
CRC копии 59237A08
Копирование... OK
Трек 33
Имя файла D:\МУЗЫКА\ane118\33. Various - Walkie Talkie.wav
Пиковый уровень 99.2 %
Скорость извлечения 7.0 X
Качество трека 100.0 %
CRC теста 96757779
CRC копии 96757779
Копирование... OK
Трек 34
Имя файла D:\МУЗЫКА\ane118\34. Various - Don't You Love Me.wav
Пиковый уровень 99.2 %
Скорость извлечения 7.1 X
Качество трека 100.0 %
CRC теста 50B43A50
CRC копии 50B43A50
Копирование... OK
Трек 35
Имя файла D:\МУЗЫКА\ane118\35. Various - Never Ask Me Why.wav
Пиковый уровень 99.2 %
Скорость извлечения 5.2 X
Качество трека 99.8 %
CRC теста 4E86FCF8
CRC копии 4E86FCF8
Копирование... OK
Трек 36
Имя файла D:\МУЗЫКА\ane118\36. Various - Lady Bug.wav
Пиковый уровень 99.2 %
Скорость извлечения 7.4 X
Качество трека 100.0 %
CRC теста 32917113
CRC копии 32917113
Копирование... OK
Трек 37
Имя файла D:\МУЗЫКА\ane118\37. Various - Superman.wav
Пиковый уровень 99.2 %
Скорость извлечения 7.2 X
Качество трека 100.0 %
CRC теста 8A15C6C3
CRC копии 8A15C6C3
Копирование... OK
Трек 38
Имя файла D:\МУЗЫКА\ane118\38. Various - Start.wav
Пиковый уровень 99.2 %
Скорость извлечения 7.2 X
Качество трека 100.0 %
CRC теста FECC8452
CRC копии FECC8452
Копирование... OK
Трек 39
Имя файла D:\МУЗЫКА\ane118\39. Various - Laser Game.wav
Пиковый уровень 99.2 %
Скорость извлечения 5.9 X
Качество трека 99.8 %
CRC теста AE0A3DBB
CRC копии AE0A3DBB
Копирование... OK
Трек 40
Имя файла D:\МУЗЫКА\ane118\40. Various - With You.wav
Пиковый уровень 99.2 %
Скорость извлечения 5.4 X
Качество трека 99.8 %
CRC теста 62293603
CRC копии 62293603
Копирование... OK
Трек 41
Имя файла D:\МУЗЫКА\ane118\41. Various - What Is Love.wav
Пиковый уровень 99.2 %
Скорость извлечения 5.5 X
Качество трека 99.8 %
CRC теста 6117F61E
CRC копии 6117F61E
Копирование... OK
Трек 42
Имя файла D:\МУЗЫКА\ane118\42. Various - Domino Dancing.wav
Пиковый уровень 99.2 %
Скорость извлечения 7.8 X
Качество трека 100.0 %
CRC теста 9A1AA76A
CRC копии 9A1AA76A
Копирование... OK
Трек 43
Имя файла D:\МУЗЫКА\ane118\43. Various - Hurricane.wav
Пиковый уровень 99.2 %
Скорость извлечения 5.4 X
Качество трека 99.8 %
CRC теста E2329D05
CRC копии E2329D05
Копирование... OK
Трек 44
Имя файла D:\МУЗЫКА\ane118\44. Various - Kamikaze.wav
Пиковый уровень 99.2 %
Скорость извлечения 7.5 X
Качество трека 100.0 %
CRC теста 93DEC75E
CRC копии 93DEC75E
Копирование... OK
Трек 45
Имя файла D:\МУЗЫКА\ane118\45. Various - Mystery In Love.wav
Пиковый уровень 99.2 %
Скорость извлечения 6.1 X
Качество трека 99.8 %
CRC теста C25E5CA5
CRC копии C25E5CA5
Копирование... OK
Трек 46
Имя файла D:\МУЗЫКА\ane118\46. Various - T N T.wav
Пиковый уровень 99.2 %
Скорость извлечения 7.7 X
Качество трека 100.0 %
CRC теста 951322A2
CRC копии 951322A2
Копирование... OK
Трек 47
Имя файла D:\МУЗЫКА\ane118\47. Various - In The Name Of Love.wav
Пиковый уровень 99.2 %
Скорость извлечения 5.8 X
Качество трека 99.8 %
CRC теста 8886741E
CRC копии 8886741E
Копирование... OK
Трек 48
Имя файла D:\МУЗЫКА\ane118\48. Various - Time To Dance.wav
Пиковый уровень 99.2 %
Скорость извлечения 6.0 X
Качество трека 99.8 %
CRC теста 74F77A83
CRC копии 74F77A83
Копирование... OK
Трек 49
Имя файла D:\МУЗЫКА\ane118\49. Various - Super Sex Symbol.wav
Пиковый уровень 99.2 %
Скорость извлечения 7.4 X
Качество трека 100.0 %
CRC теста 4E0776B0
CRC копии 4E0776B0
Копирование... OK
Трек 50
Имя файла D:\МУЗЫКА\ane118\50. Various - Para Para.wav
Пиковый уровень 99.2 %
Скорость извлечения 8.1 X
Качество трека 100.0 %
CRC теста B11CB816
CRC копии B11CB816
Копирование... OK
Ошибок не произошло
Конец отчёта
==== Контрольная сумма отчёта E9C29D81F238C8835CFB5A70928A11502CF712D86147E3FF7DBD7BC1798EE36F ====
 REM GENRE Eurobeat
REM DATE 1994
REM DISCID D6114F32
REM COMMENT "ExactAudioCopy v1.0b3"
CATALOG 4988064100507
PERFORMER "Various Artists"
TITLE "Super Eurobeat Vol. 50 - Anniversary Non-Stop Mix - Greatest Euro Hits 50!"
FILE "01. Lolita - Try Me.wav" WAVE
TRACK 01 AUDIO
TITLE "Try Me"
PERFORMER "Lolita"
INDEX 01 00:00:00
FILE "02. Annalise - Queen Of Love.wav" WAVE
TRACK 02 AUDIO
TITLE "Queen Of Love"
PERFORMER "Annalise"
INDEX 01 00:00:00
FILE "03. Annalise - New Love.wav" WAVE
TRACK 03 AUDIO
TITLE "New Love"
PERFORMER "Annalise"
INDEX 01 00:00:00
FILE "04. Virginelle - Kiss Me Kiss Me Babe.wav" WAVE
TRACK 04 AUDIO
TITLE "Kiss Me Kiss Me Babe"
PERFORMER "Virginelle"
INDEX 01 00:00:00
FILE "05. Mega NRG Man - Seventies.wav" WAVE
TRACK 05 AUDIO
TITLE "Seventies"
PERFORMER "Mega NRG Man"
INDEX 01 00:00:00
FILE "06. Anika - You're My Life.wav" WAVE
TRACK 06 AUDIO
TITLE "You're My Life"
PERFORMER "Anika"
INDEX 01 00:00:00
FILE "07. Lisa Johnson - Doctor Doctor.wav" WAVE
TRACK 07 AUDIO
TITLE "Doctor Doctor"
PERFORMER "Lisa Johnson"
INDEX 01 00:00:00
FILE "08. King & Queen - He-Hey Dancin'.wav" WAVE
TRACK 08 AUDIO
TITLE "He-Hey Dancin'"
PERFORMER "King & Queen"
INDEX 01 00:00:00
FILE "09. Chester - Bang Bang For Your Love.wav" WAVE
TRACK 09 AUDIO
TITLE "Bang Bang For Your Love"
PERFORMER "Chester"
INDEX 01 00:00:00
FILE "10. Love & Pride - Shotgun Killer.wav" WAVE
TRACK 10 AUDIO
TITLE "Shotgun Killer"
PERFORMER "Love & Pride"
INDEX 01 00:00:00
FILE "11. Vanessa - Special Desire.wav" WAVE
TRACK 11 AUDIO
TITLE "Special Desire"
PERFORMER "Vanessa"
INDEX 01 00:00:00
FILE "12. Alexis - Sugar Baby.wav" WAVE
TRACK 12 AUDIO
TITLE "Sugar Baby"
PERFORMER "Alexis"
INDEX 01 00:00:00
FILE "13. Norma Sheffield - Sweet Heaven.wav" WAVE
TRACK 13 AUDIO
TITLE "Sweet Heaven"
PERFORMER "Norma Sheffield"
INDEX 01 00:00:00
FILE "14. Norma Sheffield - Memories.wav" WAVE
TRACK 14 AUDIO
TITLE "Memories"
PERFORMER "Norma Sheffield"
INDEX 01 00:00:00
FILE "15. Margaret - Mine Is Your Love.wav" WAVE
TRACK 15 AUDIO
TITLE "Mine Is Your Love"
PERFORMER "Margaret"
INDEX 01 00:00:00
FILE "16. Lou Grant - Take Me High All Days.wav" WAVE
TRACK 16 AUDIO
TITLE "Take Me High All Days"
PERFORMER "Lou Grant"
INDEX 01 00:00:00
FILE "17. Virginelle - Hot Love & Emotion.wav" WAVE
TRACK 17 AUDIO
TITLE "Hot Love & Emotion"
PERFORMER "Virginelle"
INDEX 01 00:00:00
FILE "18. Maio & Co. - Bye Bye Baby.wav" WAVE
TRACK 18 AUDIO
TITLE "Bye Bye Baby"
PERFORMER "Maio & Co."
INDEX 01 00:00:00
FILE "19. Edo - Stranger.wav" WAVE
TRACK 19 AUDIO
TITLE "Stranger"
PERFORMER "Edo"
INDEX 01 00:00:00
FILE "20. Virginelle - My Name Is Virginelle.wav" WAVE
TRACK 20 AUDIO
TITLE "My Name Is Virginelle"
PERFORMER "Virginelle"
INDEX 01 00:00:00
FILE "21. King & Queen - King And Queen.wav" WAVE
TRACK 21 AUDIO
TITLE "King And Queen"
PERFORMER "King & Queen"
INDEX 01 00:00:00
FILE "22. Jilly - Take A Look In My Heart.wav" WAVE
TRACK 22 AUDIO
TITLE "Take A Look In My Heart"
PERFORMER "Jilly"
INDEX 01 00:00:00
FILE "23. Dave Hammond - Sound Of My Heart.wav" WAVE
TRACK 23 AUDIO
TITLE "Sound Of My Heart"
PERFORMER "Dave Hammond"
INDEX 01 00:00:00
FILE "24. Maio & Co. - Dark In The Night.wav" WAVE
TRACK 24 AUDIO
TITLE "Dark In The Night"
PERFORMER "Maio & Co."
INDEX 01 00:00:00
FILE "25. Vanessa - Hey Hey.wav" WAVE
TRACK 25 AUDIO
TITLE "Hey Hey"
PERFORMER "Vanessa"
INDEX 01 00:00:00
FILE "26. Samantha Gilles - Here Comes The Night.wav" WAVE
TRACK 26 AUDIO
TITLE "Here Comes The Night"
PERFORMER "Samantha Gilles"
INDEX 01 00:00:00
FILE "27. Atrium - In The Name Of Strangers.wav" WAVE
TRACK 27 AUDIO
TITLE "In The Name Of Strangers"
PERFORMER "Atrium"
INDEX 01 00:00:00
FILE "28. Sandy Bee - Funky Funky Child.wav" WAVE
TRACK 28 AUDIO
TITLE "Funky Funky Child"
PERFORMER "Sandy Bee"
INDEX 01 00:00:00
FILE "29. Mike Hammer - Supersonic Love.wav" WAVE
TRACK 29 AUDIO
TITLE "Supersonic Love"
PERFORMER "Mike Hammer"
INDEX 01 00:00:00
FILE "30. Tension - Baby Come Back.wav" WAVE
TRACK 30 AUDIO
TITLE "Baby Come Back"
PERFORMER "Tension"
INDEX 01 00:00:00
FILE "31. Frank Torpedo - Sex And Dance.wav" WAVE
TRACK 31 AUDIO
TITLE "Sex And Dance"
PERFORMER "Frank Torpedo"
INDEX 01 00:00:00
FILE "32. Edo - Born To Be Wild.wav" WAVE
TRACK 32 AUDIO
TITLE "Born To Be Wild"
PERFORMER "Edo"
INDEX 01 00:00:00
FILE "33. Lolita - Walkie Talkie.wav" WAVE
TRACK 33 AUDIO
TITLE "Walkie Talkie"
PERFORMER "Lolita"
INDEX 01 00:00:00
FILE "34. Virginelle - Don't You Love Me.wav" WAVE
TRACK 34 AUDIO
TITLE "Don't You Love Me"
PERFORMER "Virginelle"
INDEX 01 00:00:00
FILE "35. Macho Gang - Never Ask Me Why.wav" WAVE
TRACK 35 AUDIO
TITLE "Never Ask Me Why"
PERFORMER "Macho Gang"
INDEX 01 00:00:00
FILE "36. Silver - Lady Bug.wav" WAVE
TRACK 36 AUDIO
TITLE "Lady Bug"
PERFORMER "Silver"
INDEX 01 00:00:00
FILE "37. Angie Davies - Superman.wav" WAVE
TRACK 37 AUDIO
TITLE "Superman"
PERFORMER "Angie Davies"
INDEX 01 00:00:00
FILE "38. De Niro - Start.wav" WAVE
TRACK 38 AUDIO
TITLE "Start"
PERFORMER "De Niro"
INDEX 01 00:00:00
FILE "39. Chester - Laser Game.wav" WAVE
TRACK 39 AUDIO
TITLE "Laser Game"
PERFORMER "Chester"
INDEX 01 00:00:00
FILE "40. Helena - With You.wav" WAVE
TRACK 40 AUDIO
TITLE "With You"
PERFORMER "Helena"
INDEX 01 00:00:00
FILE "41. Mike Skanner - What Is Love.wav" WAVE
TRACK 41 AUDIO
TITLE "What Is Love"
PERFORMER "Mike Skanner"
INDEX 01 00:00:00
FILE "42. Domino - Domino Dancing.wav" WAVE
TRACK 42 AUDIO
TITLE "Domino Dancing"
PERFORMER "Domino"
INDEX 01 00:00:00
FILE "43. Karen - Hurricane.wav" WAVE
TRACK 43 AUDIO
TITLE "Hurricane"
PERFORMER "Karen"
INDEX 01 00:00:00
FILE "44. DJ NRG - Kamikaze.wav" WAVE
TRACK 44 AUDIO
TITLE "Kamikaze"
PERFORMER "DJ NRG"
INDEX 01 00:00:00
FILE "45. Virginelle - Mystery In Love.wav" WAVE
TRACK 45 AUDIO
TITLE "Mystery In Love"
PERFORMER "Virginelle"
INDEX 01 00:00:00
FILE "46. Derreck Simons - T N T.wav" WAVE
TRACK 46 AUDIO
TITLE "T N T"
PERFORMER "Derreck Simons"
INDEX 01 00:00:00
FILE "47. Casanova - In The Name Of Love.wav" WAVE
TRACK 47 AUDIO
TITLE "In The Name Of Love"
PERFORMER "Casanova"
INDEX 01 00:00:00
FILE "48. Lolita - Time To Dance.wav" WAVE
TRACK 48 AUDIO
TITLE "Time To Dance"
PERFORMER "Lolita"
INDEX 01 00:00:00
FILE "49. Roxanne - Super Sex Symbol.wav" WAVE
TRACK 49 AUDIO
TITLE "Super Sex Symbol"
PERFORMER "Roxanne"
INDEX 01 00:00:00
FILE "50. King & Queen - Para Para.wav" WAVE
TRACK 50 AUDIO
TITLE "Para Para"
PERFORMER "King & Queen"
INDEX 01 00:00:00
 -----------------------
DON'T MODIFY THIS FILE
-----------------------
PERFORMER: auCDtect Task Manager, ver. 1.5.1RC6 build 1.5.1.7
Copyright (c) 2008-2010 y-soft. All rights reserved
http://y-soft.org
ANALYZER: auCDtect: CD records authenticity detector, version 0.8.2
Copyright (c) 2004 Oleg Berngardt. All rights reserved.
Copyright (c) 2004 Alexander Djourik. All rights reserved.
FILE: 01. Lolita - Try Me.flac
Size: 23305089 Hash: DEE7AE4C168074E58F30EB42A72B49EF Accuracy: -m0
Conclusion: CDDA 100%
Signature: A5A7BEEB44A3B446C9C8B7C5230F8425C4B3E396
FILE: 02. Annalise - Queen Of Love.flac
Size: 12380172 Hash: EE655D307E4200AF62EC0B3A5253868E Accuracy: -m0
Conclusion: CDDA 100%
Signature: 5593926059B13E929FDEB45D9FEBB0A88920B412
FILE: 03. Annalise - New Love.flac
Size: 12844554 Hash: E2FEAF5EA1293AFF609822AA45EE1AC7 Accuracy: -m0
Conclusion: CDDA 99%
Signature: 9B7E2754CD1FC33C6EA7F1665213F9FD9651FE78
FILE: 04. Virginelle - Kiss Me Kiss Me Babe.flac
Size: 13269896 Hash: CAA14BFF3A16D1D79B21FF436DF46BEC Accuracy: -m0
Conclusion: CDDA 100%
Signature: D4ADAC94E0EC67CD43033D953B59EC9BF7FE5BE6
FILE: 05. Mega NRG Man - Seventies.flac
Size: 13449561 Hash: 1FCA8687198C48EC52D6629D7C2AF766 Accuracy: -m0
Conclusion: CDDA 100%
Signature: 99A697F66B7347DD447A631D48CD8A0703B323AB
FILE: 06. Anika - You're My Life.flac
Size: 11561090 Hash: 593857D90F109DA302AA9667F6C2C4B6 Accuracy: -m0
Conclusion: CDDA 100%
Signature: E3B1897E955F7E0822A00B25A1D7807EEC1084ED
FILE: 07. Lisa Johnson - Doctor Doctor.flac
Size: 14563961 Hash: EDFAB1197545C6F98C87743EDD15CE0B Accuracy: -m0
Conclusion: CDDA 100%
Signature: E90368324374E1DFE6CEFEE9F28C7BC135B3E1F3
FILE: 08. King & Queen - He-Hey Dancin'.flac
Size: 11278430 Hash: D43D4F9267E191DC27BEC277D070A090 Accuracy: -m0
Conclusion: CDDA 100%
Signature: FE90022E97C6C6000B94FC98D3CFFADD073E5684
FILE: 09. Chester - Bang Bang For Your Love.flac
Size: 13553100 Hash: 0713A451A02EBA05F2E0FA5602EC6D9A Accuracy: -m0
Conclusion: CDDA 99%
Signature: 2CD8C7AD902DFE5DB2D97000C8EF689B2AABAA22
FILE: 10. Love & Pride - Shotgun Killer.flac
Size: 10566945 Hash: 5884C4EC2E1909F51ABF8A79EA135750 Accuracy: -m0
Conclusion: CDDA 99%
Signature: 1B0D25B1E5AEB474A1EF02D4416E02428A41F042
FILE: 11. Vanessa - Special Desire.flac
Size: 12588466 Hash: A1EFE4918EF25A673D343F2E081A1F7D Accuracy: -m0
Conclusion: CDDA 100%
Signature: 887DEFF152206BD9189F261708653BB650B370E2
FILE: 12. Alexis - Sugar Baby.flac
Size: 14185742 Hash: 877CAC9E2133CF3A0C04517B9DA71A24 Accuracy: -m0
Conclusion: CDDA 100%
Signature: C544D40F7006D61FDD318878DFC6C75A3A54DBCE
FILE: 13. Norma Sheffield - Sweet Heaven.flac
Size: 12436204 Hash: 4522F719227A444FA10C4A23AFABEFB1 Accuracy: -m0
Conclusion: CDDA 100%
Signature: B43CE74BA88556BA0728A8769F8813C8BDF681C4
FILE: 14. Norma Sheffield - Memories.flac
Size: 12816145 Hash: B2B394677DAFEB48A3D49F26A71DB365 Accuracy: -m0
Conclusion: CDDA 100%
Signature: 8AE4AF84201908E2CD7AC810FDAC7FE44C9211CF
FILE: 15. Margaret - Mine Is Your Love.flac
Size: 11598725 Hash: 78AE754F99A8B306BF0A63F866FC5C1D Accuracy: -m0
Conclusion: CDDA 100%
Signature: 017E4ED2FF369026C0929BCD4AC088D7D4BE3A96
FILE: 16. Lou Grant - Take Me High All Days.flac
Size: 12142417 Hash: B8F05E90952D4F70F8596E4141B5EFBA Accuracy: -m0
Conclusion: CDDA 99%
Signature: F7E56B0E2722E87B110EEE0922049F2E8F395F0E
FILE: 17. Virginelle - Hot Love & Emotion.flac
Size: 10629935 Hash: 96326E6D0898B1A8755996712223251B Accuracy: -m0
Conclusion: CDDA 100%
Signature: 644727170D72C304A288576FFAF00099C4558BB5
FILE: 18. Maio & Co. - Bye Bye Baby.flac
Size: 12090015 Hash: 1A41262A82719FEEE5D68B570F57DD3F Accuracy: -m0
Conclusion: CDDA 100%
Signature: E583F9FC3EF23800DCA8836A12F90DB031C044AE
FILE: 19. Edo - Stranger.flac
Size: 12378961 Hash: 75F0A2547230F60E730B024051B734FE Accuracy: -m0
Conclusion: CDDA 100%
Signature: CE117FF39DCE557724095D0E0A5575C6A915C8A4
FILE: 20. Virginelle - My Name Is Virginelle.flac
Size: 9738871 Hash: 82CB153B5C43026178E665AC7C09644F Accuracy: -m0
Conclusion: CDDA 100%
Signature: D01B1317C7D063BA3107B1A006303CA2F55AB0D5
FILE: 21. King & Queen - King And Queen.flac
Size: 10020114 Hash: 1A69210C74AE5F4CE820C989EFE2DA49 Accuracy: -m0
Conclusion: CDDA 99%
Signature: 4C11FBCCE62BA7B77F5E0F818CF35071E0EB10ED
FILE: 22. Jilly - Take A Look In My Heart.flac
Size: 10527775 Hash: 7DDB531D6EFA4F1366067551145D1797 Accuracy: -m0
Conclusion: CDDA 100%
Signature: 9D51F35F626818DA75EDB1D7A288B43871F75713
FILE: 23. Dave Hammond - Sound Of My Heart.flac
Size: 10955161 Hash: F51A8B716994BB8AB16FC2630EDF3BD2 Accuracy: -m0
Conclusion: CDDA 100%
Signature: 68CB561492507190B9D1CCDA83B1ECD7EEF2D0AC
FILE: 24. Maio & Co. - Dark In The Night.flac
Size: 12379842 Hash: 7B84347898B0A6A79423CF29B21DC255 Accuracy: -m0
Conclusion: CDDA 100%
Signature: E72D7EFBB1420E0961E77DF5DABDB20710F446D5
FILE: 25. Vanessa - Hey Hey.flac
Size: 12293544 Hash: 09A2FEB48503E3E2CCDF7F4C6065F0F7 Accuracy: -m0
Conclusion: CDDA 100%
Signature: 5D6B891ED6BC30F81DBAB8D5211760E68FEDC206
FILE: 26. Samantha Gilles - Here Comes The Night.flac
Size: 11259377 Hash: 2525DA931A0C8B1C586B83072A49D7A2 Accuracy: -m0
Conclusion: CDDA 99%
Signature: EF8C93484E298C84CC4CC0A5B25ADD6E9E64FA26
FILE: 27. Atrium - In The Name Of Strangers.flac
Size: 10789602 Hash: C5951EECE48E832955A1A53B38335558 Accuracy: -m0
Conclusion: CDDA 99%
Signature: 9BFC143631B60A49661B6E9AD8019EA31A94418A
FILE: 28. Sandy Bee - Funky Funky Child.flac
Size: 11445695 Hash: 7DBC8CFC634DD37BEE100E2640FFA380 Accuracy: -m0
Conclusion: CDDA 100%
Signature: BFB04AC823A7FE6AFD15653373326A3EA7315196
FILE: 29. Mike Hammer - Supersonic Love.flac
Size: 10360273 Hash: C5DD9018265D28D83212ECBEA8D23E17 Accuracy: -m0
Conclusion: CDDA 100%
Signature: BF462AF4E0CE65DC316FEB24AB77762F57754366
FILE: 30. Tension - Baby Come Back.flac
Size: 10248386 Hash: 5EEB29326C951A2AF5DB1E075A2E5AC7 Accuracy: -m0
Conclusion: CDDA 100%
Signature: DE0016BF2949D5E5283BF1D45791C6F5DAFC7DEA
FILE: 31. Frank Torpedo - Sex And Dance.flac
Size: 12915300 Hash: 09CBE0BD00D654D3D9271F883C9CEFCF Accuracy: -m0
Conclusion: CDDA 100%
Signature: D3CB87E365FC833706A57F74B94B955962E68A1E
FILE: 32. Edo - Born To Be Wild.flac
Size: 13796706 Hash: 0742821C13EB57D8383FAB5531B6B2C4 Accuracy: -m0
Conclusion: CDDA 100%
Signature: D1DCA420254D52CA5CB7B4A9F1F9F81D3033FC9D
FILE: 33. Lolita - Walkie Talkie.flac
Size: 12527026 Hash: 29417AC5CD4343C55636AA3C89A97941 Accuracy: -m0
Conclusion: CDDA 100%
Signature: BCF2B018FB5F61C6E3EBF3BA155CF0264753E932
FILE: 34. Virginelle - Don't You Love Me.flac
Size: 13197988 Hash: 772A09AE27B0C9D8F60D4EA299F8A560 Accuracy: -m0
Conclusion: CDDA 100%
Signature: DE65741961C3DD76563DDE2CFB04F20C7889F60F
FILE: 35. Macho Gang - Never Ask Me Why.flac
Size: 10540415 Hash: 81869FD2372FB9768484B58E2911D4B0 Accuracy: -m0
Conclusion: CDDA 100%
Signature: D33F20B85CD6992AB21CBF2116244A9732872AD5
FILE: 36. Silver - Lady Bug.flac
Size: 13213455 Hash: CA6FDA2A5039EF9553B57DFA974B1ADC Accuracy: -m0
Conclusion: CDDA 100%
Signature: D6413768949ADE380D949C276A1015084D98EA1F
FILE: 37. Angie Davies - Superman.flac
Size: 11914077 Hash: 5BAB395F702FFADA37BEC3FE888FA870 Accuracy: -m0
Conclusion: CDDA 100%
Signature: 4EBE4B4E5977A824925C02C389AE1918CAF19FDD
FILE: 38. De Niro - Start.flac
Size: 12192553 Hash: 87EE7094062A71807C2627714F47AFB1 Accuracy: -m0
Conclusion: CDDA 100%
Signature: 732F420EE449F940CC3E3AB856BC665FBAAE0BFD
FILE: 39. Chester - Laser Game.flac
Size: 14203747 Hash: EC2D637D1F45A8461DE1FABA3E0E759B Accuracy: -m0
Conclusion: CDDA 100%
Signature: 5FFC676B9EB830393A2DEF4262364B0C01FD9C6E
FILE: 40. Helena - With You.flac
Size: 11075516 Hash: 47B33BC34AD747DC7985316A0475EB99 Accuracy: -m0
Conclusion: CDDA 100%
Signature: 9469297BFEE4809E73685E525693A2E01E8FBC3A
FILE: 41. Mike Skanner - What Is Love.flac
Size: 11567936 Hash: 33FA0863D0F87EAF5FDB92A380C9110C Accuracy: -m0
Conclusion: CDDA 99%
Signature: 59FF822766F5C13C0E2532C77335C588AF0331B5
FILE: 42. Domino - Domino Dancing.flac
Size: 14159838 Hash: 1F0A3202F4F6DA14C328A2BD5F4FF429 Accuracy: -m0
Conclusion: CDDA 100%
Signature: F4CF77C64676809612CE10AFD84BCE94FE688194
FILE: 43. Karen - Hurricane.flac
Size: 10790806 Hash: 34882CBCC999A2372A50F7BC045ED57B Accuracy: -m0
Conclusion: CDDA 100%
Signature: 4851E842921CD5A91467B5340B028766B80AE151
FILE: 44. DJ NRG - Kamikaze.flac
Size: 11426428 Hash: 8181DDD9C4D8DA69AD4353B9F75F717C Accuracy: -m0
Conclusion: CDDA 99%
Signature: FDFE4D4F4D6D128AE8CA5B20056B689A5F0B355F
FILE: 45. Virginelle - Mystery In Love.flac
Size: 12652203 Hash: 93DCD7115A2DD1137AA5BB4D6F1F73EA Accuracy: -m0
Conclusion: CDDA 99%
Signature: 3630763A49748C8A7287A1E88C6128F09BC7D9A8
FILE: 46. Derreck Simons - T N T.flac
Size: 12097824 Hash: 34910EC310BB646EA79BB706EC7AFA57 Accuracy: -m0
Conclusion: CDDA 100%
Signature: 9EDDC308F3240BF18B6C4CA4938A7FBC4E395DBF
FILE: 47. Casanova - In The Name Of Love.flac
Size: 11036580 Hash: 0F00B1CEB073A8853CEC0937675B7712 Accuracy: -m0
Conclusion: CDDA 100%
Signature: DFC84835042272C85C0099E752D764D7D2BF29A9
FILE: 48. Lolita - Time To Dance.flac
Size: 12454535 Hash: D309B4F58CA6192BF5335657FEE60A72 Accuracy: -m0
Conclusion: CDDA 100%
Signature: FE486A1E7C44E9B0599E9D4EAB13FD9EB8AD5956
FILE: 49. Roxanne - Super Sex Symbol.flac
Size: 9757344 Hash: 95AADBA5134D4FAB69AEAD038C492B44 Accuracy: -m0
Conclusion: CDDA 100%
Signature: A45FA157052E7FE399DAA111E8247D92965AF7B1
FILE: 50. King & Queen - Para Para.flac
Size: 13045247 Hash: F92E78CA3CE426290DEEDC8A140B485F Accuracy: -m0
Conclusion: CDDA 100%
Signature: 222EA70A7D02CD74736A0A5E3B519DD0A13078B2
 [CUETools log; Date: 21.07.2013 11:53:49; Version: 2.1.4]
[CTDB TOCID: ssnJ2uPRqKksini1LHunBW2rPys-] found.
Track | CTDB Status
1 | (6/6) Accurately ripped
2 | (6/6) Accurately ripped
3 | (6/6) Accurately ripped
4 | (6/6) Accurately ripped
5 | (6/6) Accurately ripped
6 | (6/6) Accurately ripped
7 | (6/6) Accurately ripped
8 | (6/6) Accurately ripped
9 | (6/6) Accurately ripped
10 | (6/6) Accurately ripped
11 | (6/6) Accurately ripped
12 | (6/6) Accurately ripped
13 | (6/6) Accurately ripped
14 | (6/6) Accurately ripped
15 | (6/6) Accurately ripped
16 | (6/6) Accurately ripped
17 | (6/6) Accurately ripped
18 | (6/6) Accurately ripped
19 | (6/6) Accurately ripped
20 | (6/6) Accurately ripped
21 | (6/6) Accurately ripped
22 | (6/6) Accurately ripped
23 | (6/6) Accurately ripped
24 | (6/6) Accurately ripped
25 | (6/6) Accurately ripped
26 | (6/6) Accurately ripped
27 | (6/6) Accurately ripped
28 | (6/6) Accurately ripped
29 | (6/6) Accurately ripped
30 | (6/6) Accurately ripped
31 | (6/6) Accurately ripped
32 | (6/6) Accurately ripped
33 | (6/6) Accurately ripped
34 | (6/6) Accurately ripped
35 | (6/6) Accurately ripped
36 | (6/6) Accurately ripped
37 | (6/6) Accurately ripped
38 | (6/6) Accurately ripped
39 | (6/6) Accurately ripped
40 | (6/6) Accurately ripped
41 | (6/6) Accurately ripped
42 | (6/6) Accurately ripped
43 | (6/6) Accurately ripped
44 | (6/6) Accurately ripped
45 | (6/6) Accurately ripped
46 | (6/6) Accurately ripped
47 | (6/6) Accurately ripped
48 | (6/6) Accurately ripped
49 | (6/6) Accurately ripped
50 | (6/6) Accurately ripped
[AccurateRip ID: 0084cec4-11c33450-d6114f32] found.
Track [ CRC | V2 ] Status
01 [1dd41aba|d28077e7] (0+0/3) No match
02 [a08069d4|c8db420d] (0+0/3) No match
03 [dd0fbb67|87c9a8d5] (0+0/3) No match
04 [cb9c0a9b|bf937345] (0+0/3) No match
05 [1237eb56|cfb70b5b] (0+0/3) No match
06 [a3714d3c|4766b0e0] (0+0/3) No match
07 [9decc321|75c4ceff] (0+0/3) No match
08 [cf5c630f|57b69743] (0+0/3) No match
09 [6f2cb884|9b0d9d71] (0+0/3) No match
10 [217003f4|c9ea69bb] (0+0/3) No match
11 [0dba1533|f74f2539] (0+0/3) No match
12 [57ebe6d1|5483ccb2] (0+0/3) No match
13 [1028aeb3|3897e6bb] (0+0/3) No match
14 [caa121b6|326f5632] (0+0/3) No match
15 [5138151c|4aacaf69] (0+0/3) No match
16 [1ca72eaa|b3058a5e] (0+0/3) No match
17 [84409f5d|92f015ae] (0+0/3) No match
18 [c049396b|cc6a7e68] (0+0/3) No match
19 [f0fcfd41|7f01d79a] (0+0/3) No match
20 [16835239|88634b0d] (0+0/3) No match
21 [d3c9083a|8a7714a2] (0+0/3) No match
22 [6d060142|93403755] (0+0/3) No match
23 [9d91b0e6|e9e5a330] (0+0/3) No match
24 [100741f0|2986c9e6] (0+0/3) No match
25 [9f2b1b32|57e8a209] (0+0/3) No match
26 [28447c57|87ae6a62] (0+0/3) No match
27 [db5771e5|13e5f401] (0+0/3) No match
28 [dd98a35d|4abf4086] (0+0/3) No match
29 [0985d7cd|92d4423e] (0+0/3) No match
30 [c2a138b8|76094062] (0+0/3) No match
31 [c49bd577|a89dcc35] (0+0/3) No match
32 [89e9a889|dfa27ec2] (0+0/3) No match
33 [0baa29fe|9446e5dd] (0+0/3) No match
34 [9baf39a2|5132f64d] (0+0/3) No match
35 [36c6522d|c68785db] (0+0/3) No match
36 [6241811d|8d79b411] (0+0/3) No match
37 [73739aa1|b1252f2d] (0+0/3) No match
38 [9dda78cb|3125de51] (0+0/3) No match
39 [63d027e9|6894c993] (0+0/3) No match
40 [1214b3a4|cbd6cb53] (0+0/3) No match
41 [85fc87e4|fc3197ef] (0+0/3) No match
42 [01d59641|7d6863b8] (0+0/3) No match
43 [bf20a692|e432d155] (0+0/3) No match
44 [137514ad|1ea79e1b] (0+0/3) No match
45 [65da5eee|23aeacad] (0+0/3) No match
46 [f3d49a44|76702da7] (0+0/3) No match
47 [ea45255a|ae31a33b] (0+0/3) No match
48 [f10de0e5|16ae1738] (0+0/3) No match
49 [b7b870b8|2897ce64] (0+0/3) No match
50 [0fa98ecd|40409ee9] (0+0/3) No match
Offsetted by -110:
01 [fc815c59] (3/3) Accurately ripped
02 [de4d457b] (3/3) Accurately ripped
03 [e5004915] (3/3) Accurately ripped
04 [dbb67298] (3/3) Accurately ripped
05 [7426f678] (3/3) Accurately ripped
06 [254c40ba] (3/3) Accurately ripped
07 [09e9a591] (3/3) Accurately ripped
08 [5c3cc647] (3/3) Accurately ripped
09 [4188cc7f] (3/3) Accurately ripped
10 [6b55c335] (3/3) Accurately ripped
11 [add2405a] (3/3) Accurately ripped
12 [48c1a1e0] (3/3) Accurately ripped
13 [a900a0f3] (3/3) Accurately ripped
14 [5492f6a6] (3/3) Accurately ripped
15 [7655ef57] (3/3) Accurately ripped
16 [2d86a6d3] (3/3) Accurately ripped
17 [497c3059] (3/3) Accurately ripped
18 [da678b18] (3/3) Accurately ripped
19 [00a4c53f] (3/3) Accurately ripped
20 [4dd826d4] (3/3) Accurately ripped
21 [b0e5eee2] (3/3) Accurately ripped
22 [d5f8741e] (3/3) Accurately ripped
23 [054a1a42] (3/3) Accurately ripped
24 [fa44591a] (3/3) Accurately ripped
25 [c2c04e8c] (3/3) Accurately ripped
26 [89f68c10] (3/3) Accurately ripped
27 [31460a09] (3/3) Accurately ripped
28 [86a3501a] (3/3) Accurately ripped
29 [06de60bc] (3/3) Accurately ripped
30 [95f38668] (3/3) Accurately ripped
31 [3d6ea9bf] (3/3) Accurately ripped
32 [75806361] (3/3) Accurately ripped
33 [29dbbb2b] (3/3) Accurately ripped
34 [fc3d65e4] (3/3) Accurately ripped
35 [f94739d8] (3/3) Accurately ripped
36 [cd7bf070] (3/3) Accurately ripped
37 [2cd9c580] (3/3) Accurately ripped
38 [2d1b6603] (3/3) Accurately ripped
39 [7e932dd0] (3/3) Accurately ripped
40 [e4cb8519] (3/3) Accurately ripped
41 [0ae68796] (3/3) Accurately ripped
42 [eac53104] (3/3) Accurately ripped
43 [12818c02] (3/3) Accurately ripped
44 [f213a205] (3/3) Accurately ripped
45 [67d4758e] (3/3) Accurately ripped
46 [f2398015] (3/3) Accurately ripped
47 [8887a0e4] (3/3) Accurately ripped
48 [e68c991c] (3/3) Accurately ripped
49 [50844016] (3/3) Accurately ripped
50 [25ecfdd6] (3/3) Accurately ripped
Track Peak [ CRC32 ] [W/O NULL] [ LOG ]
-- 99,2 [ED5C273C] [68D45E24]
01 99,2 [F12A6DB8] [AEF74D4C] CRC32
02 99,2 [DE95F31A] [C3EBF0FC] CRC32
03 99,2 [873A0285] [79581056] CRC32
04 99,2 [A4557A43] [2C81D9AA] CRC32
05 99,2 [1E04C63D] [34E43782] CRC32
06 99,2 [85D74525] [9595DF14] CRC32
07 99,2 [302903C8] [20D52620] CRC32
08 99,2 [7CC5DFC1] [83AC4A40] CRC32
09 99,2 [42E8D8C0] [0A9475C9] CRC32
10 99,2 [C3050FEE] [523AC4BB] CRC32
11 99,2 [73F59B43] [72150214] CRC32
12 99,2 [BC81F9D1] [4D5C43D6] CRC32
13 99,2 [CA86FBDB] [8AAA1D3F] CRC32
14 99,2 [8D53D740] [832E8831] CRC32
15 99,2 [F63E310E] [3A5F2C8B] CRC32
16 99,2 [7F82D378] [EB0E3CB0] CRC32
17 99,2 [ACB3760E] [54666ADF] CRC32
18 99,2 [8C8F5626] [CC4B6744] CRC32
19 99,2 [FA9BBFB3] [ED6292D8] CRC32
20 99,2 [7B910F69] [499AB81C] CRC32
21 99,2 [BECB1540] [FDA895CB] CRC32
22 99,2 [CBD5568A] [B14EA601] CRC32
23 99,2 [0EC01EE8] [8157C079] CRC32
24 99,2 [5885A482] [377D6873] CRC32
25 99,2 [D986EC9C] [726ED848] CRC32
26 99,2 [3C0AE530] [C5AF066A] CRC32
27 99,2 [634AFBCC] [EFA389E5] CRC32
28 99,2 [9AFEF322] [6F633AEE] CRC32
29 99,2 [C59CECD5] [13820940] CRC32
30 99,2 [FF798846] [40F7AA89] CRC32
31 99,2 [D59C77D4] [091D2C8E] CRC32
32 99,2 [59237A08] [9C152656] CRC32
33 99,2 [96757779] [085AF1B5] CRC32
34 99,2 [50B43A50] [902D9A2B] CRC32
35 99,2 [4E86FCF8] [40061EC1] CRC32
36 99,2 [32917113] [E601910F] CRC32
37 99,2 [8A15C6C3] [106E7320] CRC32
38 99,2 [FECC8452] [11DB6E4A] CRC32
39 99,2 [AE0A3DBB] [D4A65D61] CRC32
40 99,2 [62293603] [8BB90900] CRC32
41 99,2 [6117F61E] [F3ED3819] CRC32
42 99,2 [9A1AA76A] [970BA3DC] CRC32
43 99,2 [E2329D05] [F18C1A25] CRC32
44 99,2 [93DEC75E] [CA7CCA29] CRC32
45 99,2 [C25E5CA5] [7709451C] CRC32
46 99,2 [951322A2] [FDD47EFC] CRC32
47 99,2 [8886741E] [6F31ADA9] CRC32
48 99,2 [74F77A83] [58C7D9D3] CRC32
49 99,2 [4E0776B0] [82BF17A6] CRC32
50 99,2 [B11CB816] [9D51F8DE] CRC32

[626.8 MB] Скачать / Download