(Eurobeat/Hi-NRG/Dance) VA - Super Eurobeat Vol. 5 - Extended Version - 1994, FLAC (tracks+.cue), lossless - Скачать

Жанр: Electronic
Стиль: Eurobeat/Hi-NRG/Dance
Год выпуска: 1994
Производитель: Japan
Битрейт аудио: lossless
Аудио кодек: FLAC (*.flac)
Тип рипа: tracks+.cue
Источник: what.cd
Продолжительность: 00:01:16:52

Дополнительная информация:Немного подправил тэги и индексную карту (*.cue), оригинальный лог (*.log) файл от программыEACизменениямне подвергался.

трек, поп, бесплатно, pop-music, скачать, pop, высокое качество, поп-музыка, torrent, дискография, lossless, композиции, soundtrack, cd, торрент, песни, альбом, download, музыка, альбом, mp3

01. Aleph - Doctor (6:17)
02. Vanessa - Be My Lady (6:19)
03. Virgin - Heaven (6:04)
04. Gipsy & Queen - Touch Me Feel Me Kiss Me (4:43)
05. Alpha Town - Japan Japan (6:09)
06. Dr. Money - Give Up (5:46)
07. Mister Black - Macho Man (5:50)
08. Pleasure & Pain - Higher (5:23)
09. Aleph - Take My Life (5:45)
10. Frank Torpedo - Bang Bang (5:46)
11. Eskimo - Jump (6:53)
12. Max Coveri & Radiorama - One Two Three (5:19)
13. Mark Farina - Cha Cha Cha Cha (6:37)

*.log
 Exact Audio Copy V1.0 beta 3 from 29. August 2011
EAC extraction logfile from 28. October 2011, 16:09
Various / Super Eurobeat Vol. 005 - Extended Version
Used drive : PLEXTOR CD-R PREMIUM Adapter: 1 ID: 0
Read mode : Secure
Utilize accurate stream : Yes
Defeat audio cache : Yes
Make use of C2 pointers : No
Read offset correction : 30
Overread into Lead-In and Lead-Out : No
Fill up missing offset samples with silence : Yes
Delete leading and trailing silent blocks : No
Null samples used in CRC calculations : Yes
Used interface : Native Win32 interface for Win NT & 2000
Gap handling : Appended to previous track
Used output format : User Defined Encoder
Selected bitrate : 128 kBit/s
Quality : High
Add ID3 tag : Yes
Command line compressor : C:\Program Files\Exact Audio Copy\Flac\flac.exe
Additional command line options : -8 -V -T "ARTIST=%artist%" -T "TITLE=%title%" -T "ALBUM=%albumtitle%" -T "DATE=%year%" -T "TRACKNUMBER=%tracknr%" -T "GENRE=%genre%" -T "PERFORMER=%albuminterpret%" -T "COMPOSER=%composer%" %haslyrics%--tag-from-file=LYRICS="%lyricsfile%"%haslyrics% -T "ALBUMARTIST=%albumartist%" -T "ALBUM ARTIST=%albumartist%" -T "DISCNUMBER=%cdnumber%" -T "TOTALDISCS=%totalcds%" -T "TOTALTRACKS=%numtracks%" -T "COMMENT=%comment%" %source% -o %dest%
TOC of the extracted CD
Track | Start | Length | Start sector | End sector
---------------------------------------------------------
1 | 0:00.00 | 6:17.25 | 0 | 28299
2 | 6:17.25 | 6:19.37 | 28300 | 56761
3 | 12:36.62 | 6:04.30 | 56762 | 84091
4 | 18:41.17 | 4:42.73 | 84092 | 105314
5 | 23:24.15 | 6:08.72 | 105315 | 132986
6 | 29:33.12 | 5:45.43 | 132987 | 158904
7 | 35:18.55 | 5:50.37 | 158905 | 185191
8 | 41:09.17 | 5:22.68 | 185192 | 209409
9 | 46:32.10 | 5:44.52 | 209410 | 235261
10 | 52:16.62 | 5:46.10 | 235262 | 261221
11 | 58:02.72 | 6:53.33 | 261222 | 292229
12 | 64:56.30 | 5:19.00 | 292230 | 316154
13 | 70:15.30 | 6:37.05 | 316155 | 345934
Track 1
Filename D:\lossless\01. Aleph - Doctor.wav
Pre-gap length 0:00:02.00
Peak level 99.3 %
Extraction speed 5.0 X
Track quality 100.0 %
Test CRC 694637A0
Copy CRC 694637A0
Accurately ripped (confidence 2) [D352A121] (AR v1)
Copy OK
Track 2
Filename D:\lossless\02. Vanessa - Be My Lady.wav
Pre-gap length 0:00:01.40
Peak level 99.2 %
Extraction speed 5.1 X
Track quality 100.0 %
Test CRC 9680E90C
Copy CRC 9680E90C
Accurately ripped (confidence 2) [75533005] (AR v1)
Copy OK
Track 3
Filename D:\lossless\03. Virgin - Heaven.wav
Pre-gap length 0:00:00.09
Peak level 99.2 %
Extraction speed 5.3 X
Track quality 100.0 %
Test CRC 3D49BBE5
Copy CRC 3D49BBE5
Accurately ripped (confidence 2) [D9BFC4D8] (AR v1)
Copy OK
Track 4
Filename D:\lossless\04. Gipsy And Queen - Touch Me Feel Me Kiss Me.wav
Pre-gap length 0:00:00.66
Peak level 99.2 %
Extraction speed 5.2 X
Track quality 100.0 %
Test CRC 6A629A10
Copy CRC 6A629A10
Accurately ripped (confidence 2) [C0A4967E] (AR v1)
Copy OK
Track 5
Filename D:\lossless\05. Alpha Town - Japan Japan.wav
Pre-gap length 0:00:00.17
Peak level 97.0 %
Extraction speed 5.3 X
Track quality 100.0 %
Test CRC 00AAE702
Copy CRC 00AAE702
Accurately ripped (confidence 2) [7E1F0220] (AR v1)
Copy OK
Track 6
Filename D:\lossless\06. Dr. Money - Give Up.wav
Peak level 99.3 %
Extraction speed 5.3 X
Track quality 100.0 %
Test CRC 9A7F11A8
Copy CRC 9A7F11A8
Accurately ripped (confidence 2) [D7D1B860] (AR v1)
Copy OK
Track 7
Filename D:\lossless\07. Mister Black - Macho Man.wav
Pre-gap length 0:00:00.44
Peak level 99.3 %
Extraction speed 5.3 X
Track quality 100.0 %
Test CRC 15A18623
Copy CRC 15A18623
Accurately ripped (confidence 2) [BF000344] (AR v1)
Copy OK
Track 8
Filename D:\lossless\08. Pleasure & Pain - Higher.wav
Pre-gap length 0:00:00.09
Peak level 99.2 %
Extraction speed 5.3 X
Track quality 100.0 %
Test CRC 0E83C71E
Copy CRC 0E83C71E
Accurately ripped (confidence 2) [B19CC1EA] (AR v1)
Copy OK
Track 9
Filename D:\lossless\09. Aleph - Take My Life.wav
Pre-gap length 0:00:00.13
Peak level 99.2 %
Extraction speed 5.3 X
Track quality 100.0 %
Test CRC 21847520
Copy CRC 21847520
Accurately ripped (confidence 2) [25CAFEE7] (AR v1)
Copy OK
Track 10
Filename D:\lossless\10. Frank Torpedo - Bang Bang.wav
Pre-gap length 0:00:00.16
Peak level 99.2 %
Extraction speed 5.2 X
Track quality 100.0 %
Test CRC B3C81775
Copy CRC B3C81775
Accurately ripped (confidence 2) [380DB66D] (AR v1)
Copy OK
Track 11
Filename D:\lossless\11. Eskimo - Jump.wav
Pre-gap length 0:00:01.46
Peak level 99.3 %
Extraction speed 5.3 X
Track quality 100.0 %
Test CRC 5ECA07A6
Copy CRC 5ECA07A6
Accurately ripped (confidence 2) [4B41E4D9] (AR v1)
Copy OK
Track 12
Filename D:\lossless\12. Max Coveri & Radiorama - One Two Three.wav
Pre-gap length 0:00:00.73
Peak level 99.2 %
Extraction speed 4.3 X
Track quality 100.0 %
Test CRC 86B810CA
Copy CRC 86B810CA
Accurately ripped (confidence 2) [087325F4] (AR v1)
Copy OK
Track 13
Filename D:\lossless\13. Mark Farina - Cha Cha Cha Cha.wav
Pre-gap length 0:00:00.26
Peak level 99.2 %
Extraction speed 4.8 X
Track quality 99.9 %
Test CRC F6841454
Copy CRC F6841454
Accurately ripped (confidence 2) [F649133E] (AR v1)
Copy OK
All tracks accurately ripped
No errors occurred
End of status report
---- CUETools DB Plugin V2.1.3
[CTDB TOCID: oCvsOTtkQ5DKmeJweXZoj3EtIxw-] disk not present in database, Submit result: oCvsOTtkQ5DKmeJweXZoj3EtIxw- has been uploaded
==== Log checksum D251658A45CB6DB64650E267E6671CC5A393EBC562A4C3A1263E0FBBED0D2CEE ====
*.cue
 REM GENRE Eurobeat
REM DATE 1994
REM DISCID C412040D
REM COMMENT "ExactAudioCopy v1.0b3"
CATALOG 4988064112173
PERFORMER "Various Artists"
TITLE "Super Eurobeat Vol. 5 - Extended Version"
FILE "01. Aleph - Doctor.wav" WAVE
TRACK 01 AUDIO
TITLE "Doctor"
PERFORMER "Aleph"
INDEX 01 00:00:00
TRACK 02 AUDIO
TITLE "Be My Lady"
PERFORMER "Vanessa"
INDEX 00 06:15:70
FILE "02. Vanessa - Be My Lady.wav" WAVE
INDEX 01 00:00:00
TRACK 03 AUDIO
TITLE "Heaven"
PERFORMER "Virgin"
INDEX 00 06:19:30
FILE "03. Virgin - Heaven.wav" WAVE
INDEX 01 00:00:00
TRACK 04 AUDIO
TITLE "Touch Me Feel Me Kiss Me"
PERFORMER "Gipsy & Queen"
INDEX 00 06:03:55
FILE "04. Gipsy & Queen - Touch Me Feel Me Kiss Me.wav" WAVE
INDEX 01 00:00:00
TRACK 05 AUDIO
TITLE "Japan Japan"
PERFORMER "Alpha Town"
INDEX 00 04:42:60
FILE "05. Alpha Town - Japan Japan.wav" WAVE
INDEX 01 00:00:00
FILE "06. Dr. Money - Give Up.wav" WAVE
TRACK 06 AUDIO
TITLE "Give Up"
PERFORMER "Dr. Money"
INDEX 01 00:00:00
TRACK 07 AUDIO
TITLE "Macho Man"
PERFORMER "Mister Black"
INDEX 00 05:45:10
FILE "07. Mister Black - Macho Man.wav" WAVE
INDEX 01 00:00:00
TRACK 08 AUDIO
TITLE "Higher"
PERFORMER "Pleasure & Pain"
INDEX 00 05:50:30
FILE "08. Pleasure & Pain - Higher.wav" WAVE
INDEX 01 00:00:00
TRACK 09 AUDIO
TITLE "Take My Life"
PERFORMER "Aleph"
INDEX 00 05:22:58
FILE "09. Aleph - Take My Life.wav" WAVE
INDEX 01 00:00:00
TRACK 10 AUDIO
TITLE "Bang Bang"
PERFORMER "Frank Torpedo"
INDEX 00 05:44:40
FILE "10. Frank Torpedo - Bang Bang.wav" WAVE
INDEX 01 00:00:00
TRACK 11 AUDIO
TITLE "Jump"
PERFORMER "Eskimo"
INDEX 00 05:44:50
FILE "11. Eskimo - Jump.wav" WAVE
INDEX 01 00:00:00
TRACK 12 AUDIO
TITLE "One Two Three"
PERFORMER "Max Coveri & Radiorama"
INDEX 00 06:52:53
FILE "12. Max Coveri & Radiorama - One Two Three.wav" WAVE
INDEX 01 00:00:00
TRACK 13 AUDIO
TITLE "Cha Cha Cha Cha"
PERFORMER "Mark Farina"
INDEX 00 05:18:55
FILE "13. Mark Farina - Cha Cha Cha Cha.wav" WAVE
INDEX 01 00:00:00
*.auCDtect
 -----------------------
DON'T MODIFY THIS FILE
-----------------------
PERFORMER: auCDtect Task Manager, ver. 1.5.1RC6 build 1.5.1.7
Copyright (c) 2008-2010 y-soft. All rights reserved
http://y-soft.org
ANALYZER: auCDtect: CD records authenticity detector, version 0.8.2
Copyright (c) 2004 Oleg Berngardt. All rights reserved.
Copyright (c) 2004 Alexander Djourik. All rights reserved.
FILE: 01. Aleph - Doctor.flac
Size: 48721632 Hash: 34887B42D47FE81CD10E9B472BDE8090 Accuracy: -m0
Conclusion: CDDA 99%
Signature: 79EEE77A17457FE94B88E8F891C10277E15021CD
FILE: 02. Vanessa - Be My Lady.flac
Size: 48650949 Hash: F0FF776C58F383B9ACF170C1D9189C60 Accuracy: -m0
Conclusion: CDDA 100%
Signature: 600643318843D203B749F0150DECEB99DF2398E6
FILE: 03. Virgin - Heaven.flac
Size: 47617692 Hash: 7602D2C693BFD9CF82BD8E9ED461EFFF Accuracy: -m0
Conclusion: CDDA 100%
Signature: 831AFF90749D858E15E6CEBE6463D2319B64E43F
FILE: 04. Gipsy & Queen - Touch Me Feel Me Kiss Me.flac
Size: 37383160 Hash: F85FF38222007E5DCE4B6F3995F3B386 Accuracy: -m0
Conclusion: CDDA 100%
Signature: 90E024D11C41F384AB607457C8A2FE23B8E10E84
FILE: 05. Alpha Town - Japan Japan.flac
Size: 48144333 Hash: 096AC58F6A0674231A113F235E0FE696 Accuracy: -m0
Conclusion: CDDA 99%
Signature: CEE3F8265027B668D7D843AE3FF4A980869B1012
FILE: 06. Dr. Money - Give Up.flac
Size: 44343842 Hash: FB2F84B16088A7A8FAB463226A9D17AF Accuracy: -m0
Conclusion: CDDA 100%
Signature: 34B6989AFDE65D8202403A42944FF93EE71C742A
FILE: 07. Mister Black - Macho Man.flac
Size: 46967014 Hash: 17781AB165386471FD01140C4F1D524E Accuracy: -m0
Conclusion: CDDA 100%
Signature: EEDCD02EA2A0DE360361D4A5E6738482802CEE24
FILE: 08. Pleasure & Pain - Higher.flac
Size: 42085017 Hash: 7D4593FA63BCF308EF92C7E988C560BB Accuracy: -m0
Conclusion: CDDA 100%
Signature: 8460A0E14F3D0D2933E920E9005253711233936D
FILE: 09. Aleph - Take My Life.flac
Size: 46350119 Hash: 8DE6C58F4F83205CAADBA7A038752C62 Accuracy: -m0
Conclusion: CDDA 100%
Signature: D8092C850080E661D7E716E19B5240F5D23DE9D5
FILE: 10. Frank Torpedo - Bang Bang.flac
Size: 43048260 Hash: 9A99D537A655A868CD677675C0B835EB Accuracy: -m0
Conclusion: CDDA 100%
Signature: 6B3427EA7DFD74C24B036890C242FCCAE32CDFE2
FILE: 11. Eskimo - Jump.flac
Size: 54063856 Hash: ADC34AC32BCE469609303D6E61DDDF6B Accuracy: -m0
Conclusion: CDDA 100%
Signature: 1DF47D679AA8AE6E49EA51FE7C82ACA8DC1FFE58
FILE: 12. Max Coveri & Radiorama - One Two Three.flac
Size: 40394657 Hash: CE8CEC0F11E69AA28038EA963E07041A Accuracy: -m0
Conclusion: CDDA 100%
Signature: 220208D24BE17739DD4AFE696288B673329CEB39
FILE: 13. Mark Farina - Cha Cha Cha Cha.flac
Size: 46747801 Hash: 5B5146CEB2ECDA59279D8FBEF8CE6A71 Accuracy: -m0
Conclusion: CDDA 100%
Signature: 0E93C543A93B9708EF8B1C6522FB2886FE7E6368
*.accurip
 [CUETools log; Date: 23.03.2013 0:02:48; Version: 2.1.4]
[CTDB TOCID: oCvsOTtkQ5DKmeJweXZoj3EtIxw-] found.
Track | CTDB Status
1 | (1/1) Accurately ripped
2 | (1/1) Accurately ripped
3 | (1/1) Accurately ripped
4 | (1/1) Accurately ripped
5 | (1/1) Accurately ripped
6 | (1/1) Accurately ripped
7 | (1/1) Accurately ripped
8 | (1/1) Accurately ripped
9 | (1/1) Accurately ripped
10 | (1/1) Accurately ripped
11 | (1/1) Accurately ripped
12 | (1/1) Accurately ripped
13 | (1/1) Accurately ripped
[AccurateRip ID: 0024ccf7-016f0210-c412040d] found.
Track [ CRC | V2 ] Status
01 [d352a121|612a787b] (2+0/2) Accurately ripped
02 [75533005|4138536e] (2+0/2) Accurately ripped
03 [d9bfc4d8|9e75e5ae] (2+0/2) Accurately ripped
04 [c0a4967e|d35ff9e4] (2+0/2) Accurately ripped
05 [7e1f0220|c1a1eea1] (2+0/2) Accurately ripped
06 [d7d1b860|a9f55494] (2+0/2) Accurately ripped
07 [bf000344|aca41054] (2+0/2) Accurately ripped
08 [b19cc1ea|c132ac13] (2+0/2) Accurately ripped
09 [25cafee7|82f140bc] (2+0/2) Accurately ripped
10 [380db66d|4cb0bf87] (2+0/2) Accurately ripped
11 [4b41e4d9|02e2363c] (2+0/2) Accurately ripped
12 [087325f4|65bd9502] (2+0/2) Accurately ripped
13 [f649133e|6b99a9e8] (2+0/2) Accurately ripped
Track Peak [ CRC32 ] [W/O NULL] [ LOG ]
-- 99,3 [21F777A3] [6C6E7316]
01 99,2 [694637A0] [3FC79786] CRC32
02 99,2 [9680E90C] [397462CD] CRC32
03 99,2 [3D49BBE5] [C02B787C] CRC32
04 99,2 [6A629A10] [523F811F] CRC32
05 97,0 [00AAE702] [2EB402DD] CRC32
06 99,3 [9A7F11A8] [FFAE42B4] CRC32
07 99,3 [15A18623] [0E45E1F4] CRC32
08 99,2 [0E83C71E] [EEF4CC6B] CRC32
09 99,2 [21847520] [8F167D9E] CRC32
10 99,2 [B3C81775] [CBFC4700] CRC32
11 99,2 [5ECA07A6] [D45ACB9C] CRC32
12 99,2 [86B810CA] [71A9CDF3] CRC32
13 99,2 [F6841454] [26EFB093] CRC32
 Exact Audio Copy V1.0 beta 3 from 29. August 2011
EAC extraction logfile from 28. October 2011, 16:09
Various / Super Eurobeat Vol. 005 - Extended Version
Used drive : PLEXTOR CD-R PREMIUM Adapter: 1 ID: 0
Read mode : Secure
Utilize accurate stream : Yes
Defeat audio cache : Yes
Make use of C2 pointers : No
Read offset correction : 30
Overread into Lead-In and Lead-Out : No
Fill up missing offset samples with silence : Yes
Delete leading and trailing silent blocks : No
Null samples used in CRC calculations : Yes
Used interface : Native Win32 interface for Win NT & 2000
Gap handling : Appended to previous track
Used output format : User Defined Encoder
Selected bitrate : 128 kBit/s
Quality : High
Add ID3 tag : Yes
Command line compressor : C:\Program Files\Exact Audio Copy\Flac\flac.exe
Additional command line options : -8 -V -T "ARTIST=%artist%" -T "TITLE=%title%" -T "ALBUM=%albumtitle%" -T "DATE=%year%" -T "TRACKNUMBER=%tracknr%" -T "GENRE=%genre%" -T "PERFORMER=%albuminterpret%" -T "COMPOSER=%composer%" %haslyrics%--tag-from-file=LYRICS="%lyricsfile%"%haslyrics% -T "ALBUMARTIST=%albumartist%" -T "ALBUM ARTIST=%albumartist%" -T "DISCNUMBER=%cdnumber%" -T "TOTALDISCS=%totalcds%" -T "TOTALTRACKS=%numtracks%" -T "COMMENT=%comment%" %source% -o %dest%
TOC of the extracted CD
Track | Start | Length | Start sector | End sector
---------------------------------------------------------
1 | 0:00.00 | 6:17.25 | 0 | 28299
2 | 6:17.25 | 6:19.37 | 28300 | 56761
3 | 12:36.62 | 6:04.30 | 56762 | 84091
4 | 18:41.17 | 4:42.73 | 84092 | 105314
5 | 23:24.15 | 6:08.72 | 105315 | 132986
6 | 29:33.12 | 5:45.43 | 132987 | 158904
7 | 35:18.55 | 5:50.37 | 158905 | 185191
8 | 41:09.17 | 5:22.68 | 185192 | 209409
9 | 46:32.10 | 5:44.52 | 209410 | 235261
10 | 52:16.62 | 5:46.10 | 235262 | 261221
11 | 58:02.72 | 6:53.33 | 261222 | 292229
12 | 64:56.30 | 5:19.00 | 292230 | 316154
13 | 70:15.30 | 6:37.05 | 316155 | 345934
Track 1
Filename D:\lossless\01. Aleph - Doctor.wav
Pre-gap length 0:00:02.00
Peak level 99.3 %
Extraction speed 5.0 X
Track quality 100.0 %
Test CRC 694637A0
Copy CRC 694637A0
Accurately ripped (confidence 2) [D352A121] (AR v1)
Copy OK
Track 2
Filename D:\lossless\02. Vanessa - Be My Lady.wav
Pre-gap length 0:00:01.40
Peak level 99.2 %
Extraction speed 5.1 X
Track quality 100.0 %
Test CRC 9680E90C
Copy CRC 9680E90C
Accurately ripped (confidence 2) [75533005] (AR v1)
Copy OK
Track 3
Filename D:\lossless\03. Virgin - Heaven.wav
Pre-gap length 0:00:00.09
Peak level 99.2 %
Extraction speed 5.3 X
Track quality 100.0 %
Test CRC 3D49BBE5
Copy CRC 3D49BBE5
Accurately ripped (confidence 2) [D9BFC4D8] (AR v1)
Copy OK
Track 4
Filename D:\lossless\04. Gipsy And Queen - Touch Me Feel Me Kiss Me.wav
Pre-gap length 0:00:00.66
Peak level 99.2 %
Extraction speed 5.2 X
Track quality 100.0 %
Test CRC 6A629A10
Copy CRC 6A629A10
Accurately ripped (confidence 2) [C0A4967E] (AR v1)
Copy OK
Track 5
Filename D:\lossless\05. Alpha Town - Japan Japan.wav
Pre-gap length 0:00:00.17
Peak level 97.0 %
Extraction speed 5.3 X
Track quality 100.0 %
Test CRC 00AAE702
Copy CRC 00AAE702
Accurately ripped (confidence 2) [7E1F0220] (AR v1)
Copy OK
Track 6
Filename D:\lossless\06. Dr. Money - Give Up.wav
Peak level 99.3 %
Extraction speed 5.3 X
Track quality 100.0 %
Test CRC 9A7F11A8
Copy CRC 9A7F11A8
Accurately ripped (confidence 2) [D7D1B860] (AR v1)
Copy OK
Track 7
Filename D:\lossless\07. Mister Black - Macho Man.wav
Pre-gap length 0:00:00.44
Peak level 99.3 %
Extraction speed 5.3 X
Track quality 100.0 %
Test CRC 15A18623
Copy CRC 15A18623
Accurately ripped (confidence 2) [BF000344] (AR v1)
Copy OK
Track 8
Filename D:\lossless\08. Pleasure & Pain - Higher.wav
Pre-gap length 0:00:00.09
Peak level 99.2 %
Extraction speed 5.3 X
Track quality 100.0 %
Test CRC 0E83C71E
Copy CRC 0E83C71E
Accurately ripped (confidence 2) [B19CC1EA] (AR v1)
Copy OK
Track 9
Filename D:\lossless\09. Aleph - Take My Life.wav
Pre-gap length 0:00:00.13
Peak level 99.2 %
Extraction speed 5.3 X
Track quality 100.0 %
Test CRC 21847520
Copy CRC 21847520
Accurately ripped (confidence 2) [25CAFEE7] (AR v1)
Copy OK
Track 10
Filename D:\lossless\10. Frank Torpedo - Bang Bang.wav
Pre-gap length 0:00:00.16
Peak level 99.2 %
Extraction speed 5.2 X
Track quality 100.0 %
Test CRC B3C81775
Copy CRC B3C81775
Accurately ripped (confidence 2) [380DB66D] (AR v1)
Copy OK
Track 11
Filename D:\lossless\11. Eskimo - Jump.wav
Pre-gap length 0:00:01.46
Peak level 99.3 %
Extraction speed 5.3 X
Track quality 100.0 %
Test CRC 5ECA07A6
Copy CRC 5ECA07A6
Accurately ripped (confidence 2) [4B41E4D9] (AR v1)
Copy OK
Track 12
Filename D:\lossless\12. Max Coveri & Radiorama - One Two Three.wav
Pre-gap length 0:00:00.73
Peak level 99.2 %
Extraction speed 4.3 X
Track quality 100.0 %
Test CRC 86B810CA
Copy CRC 86B810CA
Accurately ripped (confidence 2) [087325F4] (AR v1)
Copy OK
Track 13
Filename D:\lossless\13. Mark Farina - Cha Cha Cha Cha.wav
Pre-gap length 0:00:00.26
Peak level 99.2 %
Extraction speed 4.8 X
Track quality 99.9 %
Test CRC F6841454
Copy CRC F6841454
Accurately ripped (confidence 2) [F649133E] (AR v1)
Copy OK
All tracks accurately ripped
No errors occurred
End of status report
---- CUETools DB Plugin V2.1.3
[CTDB TOCID: oCvsOTtkQ5DKmeJweXZoj3EtIxw-] disk not present in database, Submit result: oCvsOTtkQ5DKmeJweXZoj3EtIxw- has been uploaded
==== Log checksum D251658A45CB6DB64650E267E6671CC5A393EBC562A4C3A1263E0FBBED0D2CEE ====
 REM GENRE Eurobeat
REM DATE 1994
REM DISCID C412040D
REM COMMENT "ExactAudioCopy v1.0b3"
CATALOG 4988064112173
PERFORMER "Various Artists"
TITLE "Super Eurobeat Vol. 5 - Extended Version"
FILE "01. Aleph - Doctor.wav" WAVE
TRACK 01 AUDIO
TITLE "Doctor"
PERFORMER "Aleph"
INDEX 01 00:00:00
TRACK 02 AUDIO
TITLE "Be My Lady"
PERFORMER "Vanessa"
INDEX 00 06:15:70
FILE "02. Vanessa - Be My Lady.wav" WAVE
INDEX 01 00:00:00
TRACK 03 AUDIO
TITLE "Heaven"
PERFORMER "Virgin"
INDEX 00 06:19:30
FILE "03. Virgin - Heaven.wav" WAVE
INDEX 01 00:00:00
TRACK 04 AUDIO
TITLE "Touch Me Feel Me Kiss Me"
PERFORMER "Gipsy & Queen"
INDEX 00 06:03:55
FILE "04. Gipsy & Queen - Touch Me Feel Me Kiss Me.wav" WAVE
INDEX 01 00:00:00
TRACK 05 AUDIO
TITLE "Japan Japan"
PERFORMER "Alpha Town"
INDEX 00 04:42:60
FILE "05. Alpha Town - Japan Japan.wav" WAVE
INDEX 01 00:00:00
FILE "06. Dr. Money - Give Up.wav" WAVE
TRACK 06 AUDIO
TITLE "Give Up"
PERFORMER "Dr. Money"
INDEX 01 00:00:00
TRACK 07 AUDIO
TITLE "Macho Man"
PERFORMER "Mister Black"
INDEX 00 05:45:10
FILE "07. Mister Black - Macho Man.wav" WAVE
INDEX 01 00:00:00
TRACK 08 AUDIO
TITLE "Higher"
PERFORMER "Pleasure & Pain"
INDEX 00 05:50:30
FILE "08. Pleasure & Pain - Higher.wav" WAVE
INDEX 01 00:00:00
TRACK 09 AUDIO
TITLE "Take My Life"
PERFORMER "Aleph"
INDEX 00 05:22:58
FILE "09. Aleph - Take My Life.wav" WAVE
INDEX 01 00:00:00
TRACK 10 AUDIO
TITLE "Bang Bang"
PERFORMER "Frank Torpedo"
INDEX 00 05:44:40
FILE "10. Frank Torpedo - Bang Bang.wav" WAVE
INDEX 01 00:00:00
TRACK 11 AUDIO
TITLE "Jump"
PERFORMER "Eskimo"
INDEX 00 05:44:50
FILE "11. Eskimo - Jump.wav" WAVE
INDEX 01 00:00:00
TRACK 12 AUDIO
TITLE "One Two Three"
PERFORMER "Max Coveri & Radiorama"
INDEX 00 06:52:53
FILE "12. Max Coveri & Radiorama - One Two Three.wav" WAVE
INDEX 01 00:00:00
TRACK 13 AUDIO
TITLE "Cha Cha Cha Cha"
PERFORMER "Mark Farina"
INDEX 00 05:18:55
FILE "13. Mark Farina - Cha Cha Cha Cha.wav" WAVE
INDEX 01 00:00:00
 -----------------------
DON'T MODIFY THIS FILE
-----------------------
PERFORMER: auCDtect Task Manager, ver. 1.5.1RC6 build 1.5.1.7
Copyright (c) 2008-2010 y-soft. All rights reserved
http://y-soft.org
ANALYZER: auCDtect: CD records authenticity detector, version 0.8.2
Copyright (c) 2004 Oleg Berngardt. All rights reserved.
Copyright (c) 2004 Alexander Djourik. All rights reserved.
FILE: 01. Aleph - Doctor.flac
Size: 48721632 Hash: 34887B42D47FE81CD10E9B472BDE8090 Accuracy: -m0
Conclusion: CDDA 99%
Signature: 79EEE77A17457FE94B88E8F891C10277E15021CD
FILE: 02. Vanessa - Be My Lady.flac
Size: 48650949 Hash: F0FF776C58F383B9ACF170C1D9189C60 Accuracy: -m0
Conclusion: CDDA 100%
Signature: 600643318843D203B749F0150DECEB99DF2398E6
FILE: 03. Virgin - Heaven.flac
Size: 47617692 Hash: 7602D2C693BFD9CF82BD8E9ED461EFFF Accuracy: -m0
Conclusion: CDDA 100%
Signature: 831AFF90749D858E15E6CEBE6463D2319B64E43F
FILE: 04. Gipsy & Queen - Touch Me Feel Me Kiss Me.flac
Size: 37383160 Hash: F85FF38222007E5DCE4B6F3995F3B386 Accuracy: -m0
Conclusion: CDDA 100%
Signature: 90E024D11C41F384AB607457C8A2FE23B8E10E84
FILE: 05. Alpha Town - Japan Japan.flac
Size: 48144333 Hash: 096AC58F6A0674231A113F235E0FE696 Accuracy: -m0
Conclusion: CDDA 99%
Signature: CEE3F8265027B668D7D843AE3FF4A980869B1012
FILE: 06. Dr. Money - Give Up.flac
Size: 44343842 Hash: FB2F84B16088A7A8FAB463226A9D17AF Accuracy: -m0
Conclusion: CDDA 100%
Signature: 34B6989AFDE65D8202403A42944FF93EE71C742A
FILE: 07. Mister Black - Macho Man.flac
Size: 46967014 Hash: 17781AB165386471FD01140C4F1D524E Accuracy: -m0
Conclusion: CDDA 100%
Signature: EEDCD02EA2A0DE360361D4A5E6738482802CEE24
FILE: 08. Pleasure & Pain - Higher.flac
Size: 42085017 Hash: 7D4593FA63BCF308EF92C7E988C560BB Accuracy: -m0
Conclusion: CDDA 100%
Signature: 8460A0E14F3D0D2933E920E9005253711233936D
FILE: 09. Aleph - Take My Life.flac
Size: 46350119 Hash: 8DE6C58F4F83205CAADBA7A038752C62 Accuracy: -m0
Conclusion: CDDA 100%
Signature: D8092C850080E661D7E716E19B5240F5D23DE9D5
FILE: 10. Frank Torpedo - Bang Bang.flac
Size: 43048260 Hash: 9A99D537A655A868CD677675C0B835EB Accuracy: -m0
Conclusion: CDDA 100%
Signature: 6B3427EA7DFD74C24B036890C242FCCAE32CDFE2
FILE: 11. Eskimo - Jump.flac
Size: 54063856 Hash: ADC34AC32BCE469609303D6E61DDDF6B Accuracy: -m0
Conclusion: CDDA 100%
Signature: 1DF47D679AA8AE6E49EA51FE7C82ACA8DC1FFE58
FILE: 12. Max Coveri & Radiorama - One Two Three.flac
Size: 40394657 Hash: CE8CEC0F11E69AA28038EA963E07041A Accuracy: -m0
Conclusion: CDDA 100%
Signature: 220208D24BE17739DD4AFE696288B673329CEB39
FILE: 13. Mark Farina - Cha Cha Cha Cha.flac
Size: 46747801 Hash: 5B5146CEB2ECDA59279D8FBEF8CE6A71 Accuracy: -m0
Conclusion: CDDA 100%
Signature: 0E93C543A93B9708EF8B1C6522FB2886FE7E6368
 [CUETools log; Date: 23.03.2013 0:02:48; Version: 2.1.4]
[CTDB TOCID: oCvsOTtkQ5DKmeJweXZoj3EtIxw-] found.
Track | CTDB Status
1 | (1/1) Accurately ripped
2 | (1/1) Accurately ripped
3 | (1/1) Accurately ripped
4 | (1/1) Accurately ripped
5 | (1/1) Accurately ripped
6 | (1/1) Accurately ripped
7 | (1/1) Accurately ripped
8 | (1/1) Accurately ripped
9 | (1/1) Accurately ripped
10 | (1/1) Accurately ripped
11 | (1/1) Accurately ripped
12 | (1/1) Accurately ripped
13 | (1/1) Accurately ripped
[AccurateRip ID: 0024ccf7-016f0210-c412040d] found.
Track [ CRC | V2 ] Status
01 [d352a121|612a787b] (2+0/2) Accurately ripped
02 [75533005|4138536e] (2+0/2) Accurately ripped
03 [d9bfc4d8|9e75e5ae] (2+0/2) Accurately ripped
04 [c0a4967e|d35ff9e4] (2+0/2) Accurately ripped
05 [7e1f0220|c1a1eea1] (2+0/2) Accurately ripped
06 [d7d1b860|a9f55494] (2+0/2) Accurately ripped
07 [bf000344|aca41054] (2+0/2) Accurately ripped
08 [b19cc1ea|c132ac13] (2+0/2) Accurately ripped
09 [25cafee7|82f140bc] (2+0/2) Accurately ripped
10 [380db66d|4cb0bf87] (2+0/2) Accurately ripped
11 [4b41e4d9|02e2363c] (2+0/2) Accurately ripped
12 [087325f4|65bd9502] (2+0/2) Accurately ripped
13 [f649133e|6b99a9e8] (2+0/2) Accurately ripped
Track Peak [ CRC32 ] [W/O NULL] [ LOG ]
-- 99,3 [21F777A3] [6C6E7316]
01 99,2 [694637A0] [3FC79786] CRC32
02 99,2 [9680E90C] [397462CD] CRC32
03 99,2 [3D49BBE5] [C02B787C] CRC32
04 99,2 [6A629A10] [523F811F] CRC32
05 97,0 [00AAE702] [2EB402DD] CRC32
06 99,3 [9A7F11A8] [FFAE42B4] CRC32
07 99,3 [15A18623] [0E45E1F4] CRC32
08 99,2 [0E83C71E] [EEF4CC6B] CRC32
09 99,2 [21847520] [8F167D9E] CRC32
10 99,2 [B3C81775] [CBFC4700] CRC32
11 99,2 [5ECA07A6] [D45ACB9C] CRC32
12 99,2 [86B810CA] [71A9CDF3] CRC32
13 99,2 [F6841454] [26EFB093] CRC32

[659.8 MB] Скачать / Download