(Eurobeat/Italo-Disco/Hi-NRG) VA - Super Eurobeat Vol. 203 Extended Version - 2010, FLAC (tracks+.cue), lossless - Скачать

Various Artists - Super Eurobeat Vol. 203 Extended Version

Жанр: Eurobeat/Italo-Disco/Hi-NRG || Лейбл: Avex Trax || Catalog#: AVCD-10203 || Год выпуска: 2010 || Производитель: Japan
Аудио кодек: FLAC || Тип рипа: tracks+.cue || Format: CD, Compilation || Битрейт аудио: lossless || Продолжительность: 00:01:15:15 || Источник: what.cd

New Tracks
01. David Dima - Freedom (5:24) 1108 kBit/s
02. Momo - Send Me An Angel (5:26) 1153 kBit/s
03. Ace Warrior - My Dream (5:03) 1104 kBit/s
04. Daniel - Waiting For Your Hero (5:21) 1133 kBit/s
05. Bon - Toy For Love (5:05) 1151 kBit/s
06. Vicky Vale - Do With Me (5:22) 1125 kBit/s
07. The Snake - The Snake Around (5:27) 1110 kBit/s
08. Domino - One-O-Nine (5:08) 1187 kBit/s
09. Christian - Take This Way (5:23) 1132 kBit/s
10. Liliy - I Am A Liar (5:58) 1169 kBit/s
11. Diabolik - Diabolik (4:49) 1159 kBit/s
12. Stephy - I Belong To You (5:51) 1101 kBit/s
J-Euro Remix
13. Girl Next Door - Power Of Love (Morris Capaldi Versus GND Remix) (6:27) 1148 kBit/s
Bonus Track
14. Dave Rodgers - Try Me (Rock Mix) (4:34) 1112 kBit/s

альбом, поп-музыка, альбом, mp3, композиции, torrent, музыка, pop, pop-music, песни, download, высокое качество, soundtrack, cd, lossless, поп, дискография, скачать, трек, торрент, бесплатно

 Exact Audio Copy V0.99 prebeta 5 from 4. May 2009
EAC extraction logfile from 27. October 2010, 20:11
Various Artists / Super Eurobeat Vol. 203 Extended Version
Used drive : HL-DT-STDVDRAM GSA-4163B Adapter: 0 ID: 0
Read mode : Secure
Utilize accurate stream : Yes
Defeat audio cache : Yes
Make use of C2 pointers : No
Read offset correction : 667
Overread into Lead-In and Lead-Out : No
Fill up missing offset samples with silence : Yes
Delete leading and trailing silent blocks : No
Null samples used in CRC calculations : Yes
Used interface : Native Win32 interface for Win NT & 2000
Gap handling : Appended to previous track
Used output format : User Defined Encoder
Selected bitrate : 128 kBit/s
Quality : High
Add ID3 tag : No
Command line compressor : C:\Program Files (x86)\Exact Audio Copy\Flac\flac.exe
Additional command line options : -V -8 -T "artist=%a" -T "title=%t" -T "album=%g" -T "date=%y" -T "tracknumber=%n" -T "genre=%m" %s
TOC of the extracted CD
Track | Start | Length | Start sector | End sector
---------------------------------------------------------
1 | 0:00.00 | 5:23.45 | 0 | 24269
2 | 5:23.45 | 5:25.62 | 24270 | 48706
3 | 10:49.32 | 5:02.65 | 48707 | 71421
4 | 15:52.22 | 5:20.38 | 71422 | 95459
5 | 21:12.60 | 5:05.27 | 95460 | 118361
6 | 26:18.12 | 5:21.43 | 118362 | 142479
7 | 31:39.55 | 5:26.57 | 142480 | 166986
8 | 37:06.37 | 5:07.48 | 166987 | 190059
9 | 42:14.10 | 5:22.55 | 190060 | 214264
10 | 47:36.65 | 5:57.45 | 214265 | 241084
11 | 53:34.35 | 4:48.55 | 241085 | 262739
12 | 58:23.15 | 5:50.57 | 262740 | 289046
13 | 64:13.72 | 6:26.65 | 289047 | 318061
14 | 70:40.62 | 4:34.23 | 318062 | 338634
Track 1
Filename C:\FLAC RIPS\Super Eurobeat Vol. 203 Extended Version\01. David Dima - Freedom.wav
Pre-gap length 0:00:02.00
Peak level 100.0 %
Track quality 100.0 %
Test CRC 77D38B97
Copy CRC 77D38B97
Accurately ripped (confidence 1) [212151D9]
Copy OK
Track 2
Filename C:\FLAC RIPS\Super Eurobeat Vol. 203 Extended Version\02. Momo - Send Me An Angel.wav
Pre-gap length 0:00:01.82
Peak level 100.0 %
Track quality 100.0 %
Test CRC A2DC99C0
Copy CRC A2DC99C0
Accurately ripped (confidence 1) [7A42A077]
Copy OK
Track 3
Filename C:\FLAC RIPS\Super Eurobeat Vol. 203 Extended Version\03. Ace Warrior - My Dream.wav
Pre-gap length 0:00:01.80
Peak level 100.0 %
Track quality 100.0 %
Test CRC 9AD13058
Copy CRC 9AD13058
Accurately ripped (confidence 1) [B2B79747]
Copy OK
Track 4
Filename C:\FLAC RIPS\Super Eurobeat Vol. 203 Extended Version\04. Daniel - Waiting For Your Hero.wav
Pre-gap length 0:00:01.78
Peak level 100.0 %
Track quality 100.0 %
Test CRC 6AD24F1A
Copy CRC 6AD24F1A
Accurately ripped (confidence 1) [8877D9C2]
Copy OK
Track 5
Filename C:\FLAC RIPS\Super Eurobeat Vol. 203 Extended Version\05. Bon - Toy For Love.wav
Pre-gap length 0:00:01.82
Peak level 100.0 %
Track quality 100.0 %
Test CRC 5E18DB3C
Copy CRC 5E18DB3C
Accurately ripped (confidence 1) [D6B1F234]
Copy OK
Track 6
Filename C:\FLAC RIPS\Super Eurobeat Vol. 203 Extended Version\06. Vicky Vale - Do With Me.wav
Pre-gap length 0:00:01.82
Peak level 100.0 %
Track quality 100.0 %
Test CRC 7AE2A248
Copy CRC 7AE2A248
Accurately ripped (confidence 1) [F4089754]
Copy OK
Track 7
Filename C:\FLAC RIPS\Super Eurobeat Vol. 203 Extended Version\07. The Snake - The Snake Around.wav
Pre-gap length 0:00:01.82
Peak level 100.0 %
Track quality 99.9 %
Test CRC D2E5F753
Copy CRC D2E5F753
Accurately ripped (confidence 1) [5333E2B3]
Copy OK
Track 8
Filename C:\FLAC RIPS\Super Eurobeat Vol. 203 Extended Version\08. Domino - One-O-Nine.wav
Pre-gap length 0:00:01.82
Peak level 100.0 %
Track quality 100.0 %
Test CRC 3ED977DD
Copy CRC 3ED977DD
Accurately ripped (confidence 1) [0615EEAE]
Copy OK
Track 9
Filename C:\FLAC RIPS\Super Eurobeat Vol. 203 Extended Version\09. Christian - Take This Way.wav
Pre-gap length 0:00:01.82
Peak level 100.0 %
Track quality 99.9 %
Test CRC 59F36C91
Copy CRC 59F36C91
Accurately ripped (confidence 1) [C9C375DD]
Copy OK
Track 10
Filename C:\FLAC RIPS\Super Eurobeat Vol. 203 Extended Version\10. Liliy - I Am A Liar..wav
Pre-gap length 0:00:01.80
Peak level 100.0 %
Track quality 99.9 %
Test CRC 8FC35C6B
Copy CRC 8FC35C6B
Accurately ripped (confidence 1) [89E6F1E6]
Copy OK
Track 11
Filename C:\FLAC RIPS\Super Eurobeat Vol. 203 Extended Version\11. Diabolik - Diabolik.wav
Pre-gap length 0:00:01.82
Peak level 100.0 %
Track quality 100.0 %
Test CRC FC460025
Copy CRC FC460025
Accurately ripped (confidence 1) [7F0C5E5F]
Copy OK
Track 12
Filename C:\FLAC RIPS\Super Eurobeat Vol. 203 Extended Version\12. Stephy - I Belong To You.wav
Pre-gap length 0:00:01.82
Peak level 100.0 %
Track quality 100.0 %
Test CRC B914A5AC
Copy CRC B914A5AC
Accurately ripped (confidence 1) [1DC87A0E]
Copy OK
Track 13
Filename C:\FLAC RIPS\Super Eurobeat Vol. 203 Extended Version\13. Girl Next Door - Power Of Love (Morris Capaldi Versus GND Remix).wav
Pre-gap length 0:00:01.82
Peak level 100.0 %
Track quality 99.9 %
Test CRC 5F2B4903
Copy CRC 5F2B4903
Accurately ripped (confidence 1) [49B6ED2D]
Copy OK
Track 14
Filename C:\FLAC RIPS\Super Eurobeat Vol. 203 Extended Version\14. Dave Rodgers - Try Me (Rock Mix).wav
Pre-gap length 0:00:04.82
Peak level 100.0 %
Track quality 99.9 %
Test CRC 14854511
Copy CRC 14854511
Accurately ripped (confidence 1) [150CEB38]
Copy OK
All tracks accurately ripped
No errors occurred
End of status report
 REM GENRE Eurobeat
REM DATE 2010
REM DISCID C011A30E
REM COMMENT "ExactAudioCopy v0.99pb5"
PERFORMER "Various Artists"
TITLE "Super Eurobeat Vol. 203 Extended Version"
FILE "01. David Dima - Freedom.wav" WAVE
TRACK 01 AUDIO
TITLE "Freedom"
PERFORMER "David Dima"
INDEX 01 00:00:00
TRACK 02 AUDIO
TITLE "Send Me An Angel"
PERFORMER "Momo"
INDEX 00 05:21:58
FILE "02. Momo - Send Me An Angel.wav" WAVE
INDEX 01 00:00:00
TRACK 03 AUDIO
TITLE "My Dream"
PERFORMER "Ace Warrior"
INDEX 00 05:24:02
FILE "03. Ace Warrior - My Dream.wav" WAVE
INDEX 01 00:00:00
TRACK 04 AUDIO
TITLE "Waiting For Your Hero"
PERFORMER "Daniel"
INDEX 00 05:01:06
FILE "04. Daniel - Waiting For Your Hero.wav" WAVE
INDEX 01 00:00:00
TRACK 05 AUDIO
TITLE "Toy For Love"
PERFORMER "Bon"
INDEX 00 05:18:51
FILE "05. Bon - Toy For Love.wav" WAVE
INDEX 01 00:00:00
TRACK 06 AUDIO
TITLE "Do With Me"
PERFORMER "Vicky Vale"
INDEX 00 05:03:40
FILE "06. Vicky Vale - Do With Me.wav" WAVE
INDEX 01 00:00:00
TRACK 07 AUDIO
TITLE "The Snake Around"
PERFORMER "The Snake"
INDEX 00 05:19:56
FILE "07. The Snake - The Snake Around.wav" WAVE
INDEX 01 00:00:00
TRACK 08 AUDIO
TITLE "One-O-Nine"
PERFORMER "Domino"
INDEX 00 05:24:70
FILE "08. Domino - One-O-Nine.wav" WAVE
INDEX 01 00:00:00
TRACK 09 AUDIO
TITLE "Take This Way"
PERFORMER "Christian"
INDEX 00 05:05:61
FILE "09. Christian - Take This Way.wav" WAVE
INDEX 01 00:00:00
TRACK 10 AUDIO
TITLE "I Am A Liar"
PERFORMER "Liliy"
INDEX 00 05:20:70
FILE "10. Liliy - I Am A Liar.wav" WAVE
INDEX 01 00:00:00
TRACK 11 AUDIO
TITLE "Diabolik"
PERFORMER "Diabolik"
INDEX 00 05:55:58
FILE "11. Diabolik - Diabolik.wav" WAVE
INDEX 01 00:00:00
TRACK 12 AUDIO
TITLE "I Belong To You"
PERFORMER "Stephy"
INDEX 00 04:46:68
FILE "12. Stephy - I Belong To You.wav" WAVE
INDEX 01 00:00:00
TRACK 13 AUDIO
TITLE "Power Of Love (Morris Capaldi Versus GND Remix)"
PERFORMER "Girl Next Door"
INDEX 00 05:48:70
FILE "13. Girl Next Door - Power Of Love (Morris Capaldi Versus GND Remix).wav" WAVE
INDEX 01 00:00:00
TRACK 14 AUDIO
TITLE "Try Me (Rock Mix)"
PERFORMER "Dave Rodgers"
INDEX 00 06:22:03
FILE "14. Dave Rodgers - Try Me (Rock Mix).wav" WAVE
INDEX 01 00:00:00
 [CUETools log; Date: 24.07.2011 21:42:22; Version: 2.1.2]
[CTDB TOCID: FcT5DD4n75rQ5a3.9FyvpvfOxzU-] disk not present in database.
[AccurateRip ID: 002679ee-019b35df-c011a30e] found.
Track [ CRC ] Status
01 [212151d9] (1/1) Accurately ripped
02 [7a42a077] (1/1) Accurately ripped
03 [b2b79747] (1/1) Accurately ripped
04 [8877d9c2] (1/1) Accurately ripped
05 [d6b1f234] (1/1) Accurately ripped
06 [f4089754] (1/1) Accurately ripped
07 [5333e2b3] (1/1) Accurately ripped
08 [0615eeae] (1/1) Accurately ripped
09 [c9c375dd] (1/1) Accurately ripped
10 [89e6f1e6] (1/1) Accurately ripped
11 [7f0c5e5f] (1/1) Accurately ripped
12 [1dc87a0e] (1/1) Accurately ripped
13 [49b6ed2d] (1/1) Accurately ripped
14 [150ceb38] (1/1) Accurately ripped
Track Peak [ CRC32 ] [W/O NULL] [ LOG ]
-- 99,9 [8EBD4E1B] [9AAF2316]
01 99,9 [77D38B97] [213EDC3B] CRC32
02 99,9 [A2DC99C0] [0316721F] CRC32
03 99,9 [9AD13058] [B992F389] CRC32
04 99,9 [6AD24F1A] [C22D341F] CRC32
05 99,9 [5E18DB3C] [92A6F110] CRC32
06 99,9 [7AE2A248] [727D9895] CRC32
07 99,9 [D2E5F753] [1FEF2D10] CRC32
08 99,9 [3ED977DD] [286CC3AE] CRC32
09 99,9 [59F36C91] [36F90575] CRC32
10 99,9 [8FC35C6B] [64D27EA1] CRC32
11 99,9 [FC460025] [144F1FE6] CRC32
12 99,9 [B914A5AC] [7D6FCB4C] CRC32
13 99,9 [5F2B4903] [FE95C86F] CRC32
14 99,9 [14854511] [AA6BA78A] CRC32
 -----------------------
DON'T MODIFY THIS FILE
-----------------------
PERFORMER: auCDtect Task Manager, ver. 1.5.1RC4 build 1.5.1.5
Copyright (c) 2008-2010 y-soft. All rights reserved
http://y-soft.org
ANALYZER: auCDtect: CD records authenticity detector, version 0.8.2
Copyright (c) 2004 Oleg Berngardt. All rights reserved.
Copyright (c) 2004 Alexander Djourik. All rights reserved.
FILE: 01. David Dima - Freedom.flac
Size: 44822294 Hash: A402AA13C8C91D36C554F0030397CC93 Accuracy: -m0
Conclusion: CDDA 99%
Signature: 82FADBADE048BBDFB1FC36D2FFA05970EAE68CA7
FILE: 02. Momo - Send Me An Angel.flac
Size: 46951567 Hash: BD92DED015F454E91139C55AED911FEB Accuracy: -m0
Conclusion: CDDA 100%
Signature: 8F59C699E568C4D211845FB333A5EB138A5214F9
FILE: 03. Ace Warrior - My Dream.flac
Size: 41804411 Hash: 657DCDFB52231FB2C5DBB276577ADBAF Accuracy: -m0
Conclusion: CDDA 100%
Signature: 4DDE020F4C9494BA8943F0F52363F7E681745093
FILE: 04. Daniel - Waiting For Your Hero.flac
Size: 45405736 Hash: AA4DDFF6D886D21C5ED740D9CE3EDE47 Accuracy: -m0
Conclusion: CDDA 100%
Signature: A78B3CCFF039BE36D8BE08C2BA03057CA088CAF3
FILE: 05. Bon - Toy For Love.flac
Size: 43951006 Hash: F01811DF41820C7C3D9E5E897FF2E60D Accuracy: -m0
Conclusion: CDDA 99%
Signature: F7F15A59864ECD7888A7A7A2704C3F0D6C9E6041
FILE: 06. Vicky Vale - Do With Me.flac
Size: 45240207 Hash: 448CBD41F8CF91D5EB3382A5ACEAF7BA Accuracy: -m0
Conclusion: CDDA 100%
Signature: 12CF4AFD66BC36C5E54264F4BCF01B5827AC05CF
FILE: 07. The Snake - The Snake Around.flac
Size: 45337156 Hash: A1BF8789A696018D45038AB7AE876196 Accuracy: -m0
Conclusion: CDDA 100%
Signature: A3BA930CB6E244C69771C317E61858D08EEE4840
FILE: 08. Domino - One-O-Nine.flac
Size: 45646989 Hash: 0B7C786D679FE554A1172AFE5F4DCEBD Accuracy: -m0
Conclusion: CDDA 100%
Signature: 4E0F58526B5BCEF5A76AA7BABA76503CAD9D7C67
FILE: 09. Christian - Take This Way.flac
Size: 45690998 Hash: 8956E2EEC6E1730526F773F4750F99CA Accuracy: -m0
Conclusion: CDDA 100%
Signature: 9F3D00BED90C6A23A250972DC189136942DCB6B7
FILE: 10. Liliy - I Am A Liar.flac
Size: 52277035 Hash: 9D8679A8C79B10191A227C2D56AA22B9 Accuracy: -m0
Conclusion: CDDA 100%
Signature: 7614CF591CFF02FAA912D3A54E9B49B3BB0F0D20
FILE: 11. Diabolik - Diabolik.flac
Size: 41853565 Hash: D68725C0D8D0CDBF0CBAED5936848806 Accuracy: -m0
Conclusion: CDDA 100%
Signature: BC6BC9ABD25BC4BEA258110626B8F3A6DE6EDF35
FILE: 12. Stephy - I Belong To You.flac
Size: 48271805 Hash: 36EDDEA7F32BCB37ABA4179135DDC0EB Accuracy: -m0
Conclusion: CDDA 100%
Signature: BDA5E4CAB38E97BB2EAA65104641A234C039C56D
FILE: 13. Girl Next Door - Power Of Love (Morris Capaldi Versus GND Remix).flac
Size: 55544783 Hash: E2AFDC3359470A8C5DF91686AAED15E4 Accuracy: -m0
Conclusion: CDDA 100%
Signature: 6B30DB9BE506373B297CB690B3627E6D152B0168
FILE: 14. Dave Rodgers - Try Me (Rock Mix).flac
Size: 38144977 Hash: E7931BF82CABA514450041D8810C20AE Accuracy: -m0
Conclusion: CDDA 100%
Signature: 01C93C129CF0A7BE0C5ABF7A5416BE12BCDA9663

[622.8 MB] Скачать / Download