(Eurobeat / Italo-Disco) VA - Non-Stop Eurobeat Express - 1986, FLAC (image+.cue), lossless - Скачать

Жанр: Eurobeat / Italo-Disco
Лэйбл: Nippon Phonogram
Catalog#: 32PD-395
Дата релиза:21.12.1986
Формат издания: CD, Compilation
Страна: Япония
Аудио кодек: FLAC
Тип рипа: image+.cue
Битрейт аудио: lossless
Продолжительность: 37:13
Источник: Интернет

Трэклист:
01.David Lyme – Playboy(4:19)
02.Max-Him – Lady Fantasy(4:23)
03.David Lyme – Bambina(4:39)
04.Lime – Your Love(4:54)
05.Lime – Unexpected Lovers(5:39)
06.David Lyme – I Don't Wanna Lose You(4:33)
07.David Lyme – Bye, Bye Mi Amor(5:21)
08.Max-Him – Danger Danger(3:25)

поп-музыка, скачать, soundtrack, cd, дискография, pop, бесплатно, pop-music, торрент, музыка, поп, mp3, torrent, download, песни, композиции, альбом, альбом, lossless, трек, высокое качество

 AUDIOCHECKER v2.0 beta (build 457) - by Dester - [email protected]
~~~~~~~~~~~~~~~~~~~~~~~~~~~~~~~~~~
-=== DO NOT EDIT THIS FILE! ===-
Path: ...\Non-Stop Eurobeat Express (32PD-395)
1 -=- Non-Stop Eurobeat Express.flac -=- CDDA (99%)
177825572
 REM GENRE Eurobeat
REM DATE 1986
PERFORMER "Various Artists"
TITLE "Non-Stop Eurobeat Express"
FILE "Non-Stop Eurobeat Express.flac" WAVE
TRACK 01 AUDIO
TITLE "Playboy"
PERFORMER "David Lyme"
INDEX 00 00:00:00
INDEX 01 00:02:38
TRACK 02 AUDIO
TITLE "Lady Fantasy"
PERFORMER "Max-Him"
INDEX 01 04:21:18
TRACK 03 AUDIO
TITLE "Bambina"
PERFORMER "David Lyme"
INDEX 01 08:44:14
TRACK 04 AUDIO
TITLE "Your Love"
PERFORMER "Lime"
INDEX 01 13:23:12
TRACK 05 AUDIO
TITLE "Unexpected Lovers"
PERFORMER "Lime"
INDEX 01 18:17:16
TRACK 06 AUDIO
TITLE "I Don't Wanna Lose You"
PERFORMER "David Lyme"
INDEX 01 23:56:04
TRACK 07 AUDIO
TITLE "Bye, Bye Mi Amor"
PERFORMER "David Lyme"
INDEX 01 28:28:66
TRACK 08 AUDIO
TITLE "Danger Danger"
PERFORMER "Max-Him"
INDEX 01 33:49:72

[237.1 MB] Скачать / Download