(Europop) Pepsi & Shirlie - All Right Now (Special Edition) (1987/2011 Remastered), FLAC (image+.cue), lossless - Скачать

Жанр:Europop
Носитель:CD
Страна-производитель диска (релиза):UK
Год издания:2011
Издатель (лейбл):Cherry Pop
Номер по каталогу:CRPOP84
Аудиокодек:FLAC (*.flac)
Тип рипа:image+.cue
Битрейт аудио:lossless
Продолжительность:01:19:12
Источник:Naftamusic
Наличие сканов:да
01. Heartache
02. Lovers' Revolution
03. Can't Give Me Love
04. High Time (Jellybean Remix)
05. What's Going On Inside Your Head?
06. Goodbye Stranger
07. Surrender
08. Crime Of Passion
09. All Right Now
10. Who's Gonna Catch You (When You Fall)? (Bonus Track)
11. Feels Like The First Time (Bonus Track)
12. Dreaming (Bonus Track)
13. It's A Shame (Bonus Track)
14. Heartache (Dot & Daisy's Club Remix) (Bonus Track)
15. Goodbye Stranger (Extended Version) (Bonus Track)
16. Can't Give Me Love (Extended Version) (Bonus Track)
17. Who's Gonna Catch You (When You Fall)? (Extended Version) (Bonus Track)

альбом, дискография, cd, поп-музыка, soundtrack, высокое качество, mp3, бесплатно, torrent, поп, pop-music, музыка, альбом, трек, песни, pop, торрент, download, композиции, lossless, скачать

 Exact Audio Copy V1.3 from 2. September 2016
EAC extraction logfile from 14. July 2017, 21:01
Pepsi & Shirlie / All Right Now (Special Edition)
Used drive : PIONEER BD-RW BDR-208D Adapter: 1 ID: 0
Read mode : Secure
Utilize accurate stream : Yes
Defeat audio cache : Yes
Make use of C2 pointers : No
Read offset correction : 667
Overread into Lead-In and Lead-Out : No
Fill up missing offset samples with silence : Yes
Delete leading and trailing silent blocks : No
Null samples used in CRC calculations : Yes
Used interface : Native Win32 interface for Win NT & 2000
Used output format : Internal WAV Routines
Sample format : 44.100 Hz; 16 Bit; Stereo
TOC of the extracted CD
Track | Start | Length | Start sector | End sector
---------------------------------------------------------
1 | 0:00.00 | 3:38.44 | 0 | 16393
2 | 3:38.44 | 3:36.64 | 16394 | 32657
3 | 7:15.33 | 3:42.23 | 32658 | 49330
4 | 10:57.56 | 3:43.22 | 49331 | 66077
5 | 14:41.03 | 4:20.05 | 66078 | 85582
6 | 19:01.08 | 3:34.62 | 85583 | 101694
7 | 22:35.70 | 4:06.45 | 101695 | 120189
8 | 26:42.40 | 3:49.15 | 120190 | 137379
9 | 30:31.55 | 3:38.24 | 137380 | 153753
10 | 34:10.04 | 3:25.45 | 153754 | 169173
11 | 37:35.49 | 4:29.08 | 169174 | 189356
12 | 42:04.57 | 4:52.53 | 189357 | 211309
13 | 46:57.35 | 4:20.21 | 211310 | 230830
14 | 51:17.56 | 7:39.57 | 230831 | 265312
15 | 58:57.38 | 7:21.50 | 265313 | 298437
16 | 66:19.13 | 6:54.09 | 298438 | 329496
17 | 73:13.22 | 5:59.00 | 329497 | 356421
Range status and errors
Selected range
Filename D:\BlondStyle\All Right Now (Special Edition).wav
Peak level 100.0 %
Extraction speed 7.7 X
Range quality 99.9 %
Test CRC 98667C01
Copy CRC 98667C01
Copy OK
No errors occurred
AccurateRip summary
Track 1 accurately ripped (confidence 9) [6A177F83] (AR v2)
Track 2 accurately ripped (confidence 9) [EC2BA24A] (AR v2)
Track 3 accurately ripped (confidence 9) [55399AEC] (AR v2)
Track 4 accurately ripped (confidence 9) [DC463240] (AR v2)
Track 5 accurately ripped (confidence 9) [C4DBBDA5] (AR v2)
Track 6 accurately ripped (confidence 9) [869D1C63] (AR v2)
Track 7 accurately ripped (confidence 9) [9B55D431] (AR v2)
Track 8 accurately ripped (confidence 9) [4DCF72A9] (AR v2)
Track 9 accurately ripped (confidence 9) [06113161] (AR v2)
Track 10 accurately ripped (confidence 9) [02A8ECB2] (AR v2)
Track 11 accurately ripped (confidence 9) [CFD7B2FE] (AR v2)
Track 12 accurately ripped (confidence 9) [B30A4F42] (AR v2)
Track 13 accurately ripped (confidence 9) [D847E73B] (AR v2)
Track 14 accurately ripped (confidence 9) [BBC9ED9B] (AR v2)
Track 15 accurately ripped (confidence 9) [47D85778] (AR v2)
Track 16 accurately ripped (confidence 9) [F85A4150] (AR v2)
Track 17 accurately ripped (confidence 9) [5FFFB22F] (AR v2)
All tracks accurately ripped
End of status report
---- CUETools DB Plugin V2.1.6
[CTDB TOCID: URgikw6jA6CTyGSD8EU8m14z2TA-] found
Submit result: URgikw6jA6CTyGSD8EU8m14z2TA- has been confirmed
Track | CTDB Status
1 | (9/9) Accurately ripped
2 | (9/9) Accurately ripped
3 | (9/9) Accurately ripped
4 | (9/9) Accurately ripped
5 | (9/9) Accurately ripped
6 | (9/9) Accurately ripped
7 | (9/9) Accurately ripped
8 | (9/9) Accurately ripped
9 | (9/9) Accurately ripped
10 | (9/9) Accurately ripped
11 | (9/9) Accurately ripped
12 | (9/9) Accurately ripped
13 | (9/9) Accurately ripped
14 | (9/9) Accurately ripped
15 | (9/9) Accurately ripped
16 | (9/9) Accurately ripped
17 | (9/9) Accurately ripped
==== Log checksum 903828FF36E9FFE5116920FD271A05AEBA0E3C49508A8114304A0C3C5885B116 ====
 AUDIOCHECKER v2.0 beta (build 457) - by Dester - [email protected]
~~~~~~~~~~~~~~~~~~~~~~~~~~~~~~~~~~
-=== DO NOT EDIT THIS FILE! ===-
Path: ...\Pepsi & Shirlie - All Right Now - 1987 (2011, Special Edition)
1 -=- All Right Now (Special Edition).flac -=- MPEG (95%)
232960804

[768.3 MB] Скачать / Download