(Funk, Disco) Indeep - The Collection - 1991, FLAC (tracks+.cue) lossless - Скачать

Indeep / The Collection
Жанр: Funk, Disco
Страна-производитель диска: Canada
Год издания диска: 1991
Издатель (лейбл): Sutra Records
Номер по каталогу: SPLK-7008
Аудио кодек: FLAC (*.flac)
Тип рипа: tracks+.cue
Битрейт аудио: lossless
Продолжительность: 73:37
Источник (релизер): What
Наличие сканов в содержимом раздачи: нет
Треклист:
01 Last Night A DJ Saved My Life [05:41]
02 When Boys Talk [05:55]
03 Buffalo Bill [04:04]
04 The Night The Boy Learned How To Dance [05:20]
05 The Record Keeps Spinning [05:24]
06 10 Reasons Why I Can't Be Free [05:07]
07 Girls Got Soul [03:16]
08 If You Want It [03:39]
09 You Got To Rock It [04:57]
10 I Got My Rights [03:37]
11 Pajama Party Time [03:31]
12 Love Is Like A Gun [02:54]
13 Slow Down [03:39]
14 Lipstick Politics [04:18]
15 There It Is [03:03]
16 The Rapper [03:48]
17 Telephone Ringing [00:22]
18 Screeching Tires [00:10]
19 Flushing Toilet [00:12]
20 When Boys Talk (Scratch Version) [01:58]
21 Buffalo Bill (Percussion) [00:54]
22 Dog Barks & Screams With Echo [00:10]
23 The Record Keeps Spinning (Bonus Beats) [01:28]

soundtrack, песни, mp3, download, torrent, поп-музыка, трек, композиции, cd, дискография, альбом, pop, pop-music, высокое качество, скачать, поп, lossless, альбом, торрент, бесплатно, музыка

 Exact Audio Copy V0.99 prebeta 5 from 4. May 2009
EAC extraction logfile from 15. February 2011, 23:36
Indeep / Collection
Used drive : TSSTcorpCD/DVDW TS-L532M Adapter: 0 ID: 1
Read mode : Secure
Utilize accurate stream : Yes
Defeat audio cache : Yes
Make use of C2 pointers : No
Read offset correction : 116
Overread into Lead-In and Lead-Out : No
Fill up missing offset samples with silence : Yes
Delete leading and trailing silent blocks : No
Null samples used in CRC calculations : Yes
Used interface : Native Win32 interface for Win NT & 2000
Gap handling : Appended to previous track
Used output format : User Defined Encoder
Selected bitrate : 1024 kBit/s
Quality : High
Add ID3 tag : No
Command line compressor : C:\Programmi\Exact Audio Copy\FLAC\FLAC.EXE
Additional command line options : -6 -V -T "ARTIST=%a" -T "TITLE=%t" -T "ALBUM=%g" -T "DATE=%y" -T "TRACKNUMBER=%n" -T "GENRE=%m" -T "COMMENT=%e" %s -o %d
TOC of the extracted CD
Track | Start | Length | Start sector | End sector
---------------------------------------------------------
1 | 0:00.00 | 5:41.32 | 0 | 25606
2 | 5:41.32 | 5:55.68 | 25607 | 52299
3 | 11:37.25 | 4:04.57 | 52300 | 70656
4 | 15:42.07 | 5:20.25 | 70657 | 94681
5 | 21:02.32 | 5:24.25 | 94682 | 119006
6 | 26:26.57 | 5:07.05 | 119007 | 142036
7 | 31:33.62 | 3:16.23 | 142037 | 156759
8 | 34:50.10 | 3:39.10 | 156760 | 173194
9 | 38:29.20 | 4:57.60 | 173195 | 195529
10 | 43:27.05 | 3:37.12 | 195530 | 211816
11 | 47:04.17 | 3:31.28 | 211817 | 227669
12 | 50:35.45 | 2:54.00 | 227670 | 240719
13 | 53:29.45 | 3:39.55 | 240720 | 257199
14 | 57:09.25 | 4:18.42 | 257200 | 276591
15 | 61:27.67 | 3:03.55 | 276592 | 290371
16 | 64:31.47 | 3:48.20 | 290372 | 307491
17 | 68:19.67 | 0:22.40 | 307492 | 309181
18 | 68:42.32 | 0:10.45 | 309182 | 309976
19 | 68:53.02 | 0:12.23 | 309977 | 310899
20 | 69:05.25 | 1:58.70 | 310900 | 319819
21 | 71:04.20 | 0:54.17 | 319820 | 323886
22 | 71:58.37 | 0:10.10 | 323887 | 324646
23 | 72:08.47 | 1:28.73 | 324647 | 331319
Track 1
Filename C:\Documents and Settings\alessandro\Documenti\flac what cd\01. Indeep - Last Night A DJ Saved My Life.wav
Pre-gap length 0:00:02.00
Peak level 90.5 %
Track quality 100.0 %
Test CRC CD8A54EA
Copy CRC CD8A54EA
Accurately ripped (confidence 3) [32210595]
Copy OK
Track 2
Filename C:\Documents and Settings\alessandro\Documenti\flac what cd\02. Indeep - When Boys Talk.wav
Pre-gap length 0:00:01.40
Peak level 77.9 %
Track quality 100.0 %
Test CRC 93BA22D0
Copy CRC 93BA22D0
Accurately ripped (confidence 2) [F762976E]
Copy OK
Track 3
Filename C:\Documents and Settings\alessandro\Documenti\flac what cd\03. Indeep - Buffalo Bill.wav
Pre-gap length 0:00:01.38
Peak level 90.1 %
Track quality 100.0 %
Test CRC BD47940C
Copy CRC BD47940C
Accurately ripped (confidence 2) [D25DEB00]
Copy OK
Track 4
Filename C:\Documents and Settings\alessandro\Documenti\flac what cd\04. Indeep - The Night The Boy Learned How To Dance.wav
Peak level 93.8 %
Track quality 100.0 %
Test CRC 29D82B5A
Copy CRC 29D82B5A
Accurately ripped (confidence 2) [A85BC519]
Copy OK
Track 5
Filename C:\Documents and Settings\alessandro\Documenti\flac what cd\05. Indeep - The Record Keeps Spinning.wav
Pre-gap length 0:00:01.37
Peak level 67.7 %
Track quality 100.0 %
Test CRC F43C60C8
Copy CRC F43C60C8
Accurately ripped (confidence 2) [C156ACB0]
Copy OK
Track 6
Filename C:\Documents and Settings\alessandro\Documenti\flac what cd\06. Indeep - 10 Reasons Why I Can't Be Free.wav
Pre-gap length 0:00:00.37
Peak level 92.2 %
Track quality 100.0 %
Test CRC D276FB9F
Copy CRC D276FB9F
Accurately ripped (confidence 2) [C589E591]
Copy OK
Track 7
Filename C:\Documents and Settings\alessandro\Documenti\flac what cd\07. Indeep - Girls Got Soul.wav
Pre-gap length 0:00:00.37
Peak level 91.9 %
Track quality 100.0 %
Test CRC 93DB1C5A
Copy CRC 93DB1C5A
Accurately ripped (confidence 2) [152AD82F]
Copy OK
Track 8
Filename C:\Documents and Settings\alessandro\Documenti\flac what cd\08. Indeep - If You Want It.wav
Pre-gap length 0:00:00.40
Peak level 78.1 %
Track quality 99.9 %
Test CRC 5B0A6B18
Copy CRC 5B0A6B18
Accurately ripped (confidence 2) [17F399A4]
Copy OK
Track 9
Filename C:\Documents and Settings\alessandro\Documenti\flac what cd\09. Indeep - You Got To Rock It.wav
Pre-gap length 0:00:00.38
Peak level 69.4 %
Track quality 100.0 %
Test CRC EBEF03F9
Copy CRC EBEF03F9
Accurately ripped (confidence 2) [72F0EDD8]
Copy OK
Track 10
Filename C:\Documents and Settings\alessandro\Documenti\flac what cd\10. Indeep - I Got My Rights.wav
Peak level 76.6 %
Track quality 99.9 %
Test CRC CC8E4E60
Copy CRC CC8E4E60
Accurately ripped (confidence 2) [D42DEEEB]
Copy OK
Track 11
Filename C:\Documents and Settings\alessandro\Documenti\flac what cd\11. Indeep - Pajama Party Time.wav
Pre-gap length 0:00:00.42
Peak level 63.5 %
Track quality 100.0 %
Test CRC 31A4B337
Copy CRC 31A4B337
Accurately ripped (confidence 2) [318B0D06]
Copy OK
Track 12
Filename C:\Documents and Settings\alessandro\Documenti\flac what cd\12. Indeep - Love Is Like A Gun.wav
Pre-gap length 0:00:00.03
Peak level 74.0 %
Track quality 99.9 %
Test CRC 9E994BDC
Copy CRC 9E994BDC
Accurately ripped (confidence 2) [A3E1027A]
Copy OK
Track 13
Filename C:\Documents and Settings\alessandro\Documenti\flac what cd\13. Indeep - Slow Down.wav
Pre-gap length 0:00:01.35
Peak level 85.2 %
Track quality 100.0 %
Test CRC 8A123A87
Copy CRC 8A123A87
Accurately ripped (confidence 2) [93536AF6]
Copy OK
Track 14
Filename C:\Documents and Settings\alessandro\Documenti\flac what cd\14. Indeep - Lipstick Politics.wav
Pre-gap length 0:00:01.40
Peak level 100.0 %
Track quality 100.0 %
Test CRC FDE96B69
Copy CRC FDE96B69
Accurately ripped (confidence 2) [9A66B154]
Copy OK
Track 15
Filename C:\Documents and Settings\alessandro\Documenti\flac what cd\15. Indeep - There It Is.wav
Pre-gap length 0:00:01.42
Peak level 84.3 %
Track quality 100.0 %
Test CRC 3203CEED
Copy CRC 3203CEED
Accurately ripped (confidence 2) [29886449]
Copy OK
Track 16
Filename C:\Documents and Settings\alessandro\Documenti\flac what cd\16. Indeep - The Rapper.wav
Pre-gap length 0:00:01.40
Peak level 82.7 %
Track quality 100.0 %
Test CRC 79D20CC9
Copy CRC 79D20CC9
Accurately ripped (confidence 2) [B796B2F0]
Copy OK
Track 17
Filename C:\Documents and Settings\alessandro\Documenti\flac what cd\17. Indeep - Telephone Ringing.wav
Pre-gap length 0:00:00.40
Peak level 9.5 %
Track quality 100.0 %
Test CRC D0330327
Copy CRC D0330327
Accurately ripped (confidence 2) [F491B2AA]
Copy OK
Track 18
Filename C:\Documents and Settings\alessandro\Documenti\flac what cd\18. Indeep - Screeching Tires.wav
Pre-gap length 0:00:02.27
Peak level 18.7 %
Track quality 98.9 %
Test CRC E1322F57
Copy CRC E1322F57
Accurately ripped (confidence 2) [5FF960A8]
Copy OK
Track 19
Filename C:\Documents and Settings\alessandro\Documenti\flac what cd\19. Indeep - Flushing Toilet.wav
Pre-gap length 0:00:02.00
Peak level 33.3 %
Track quality 99.1 %
Test CRC BE02C731
Copy CRC BE02C731
Accurately ripped (confidence 2) [7B568691]
Copy OK
Track 20
Filename C:\Documents and Settings\alessandro\Documenti\flac what cd\20. Indeep - When Boys Talk (Scratch Version).wav
Peak level 67.3 %
Track quality 100.0 %
Test CRC 8D545276
Copy CRC 8D545276
Accurately ripped (confidence 2) [E88AFC51]
Copy OK
Track 21
Filename C:\Documents and Settings\alessandro\Documenti\flac what cd\21. Indeep - Buffalo Bill (Percussion).wav
Pre-gap length 0:00:01.60
Peak level 46.4 %
Track quality 100.0 %
Test CRC 27071590
Copy CRC 27071590
Accurately ripped (confidence 2) [C2AF7FA7]
Copy OK
Track 22
Filename C:\Documents and Settings\alessandro\Documenti\flac what cd\22. Indeep - Dog Barks & Screams With Echo.wav
Peak level 56.1 %
Track quality 100.0 %
Test CRC F1A84364
Copy CRC F1A84364
Accurately ripped (confidence 2) [D0506F8A]
Copy OK
Track 23
Filename C:\Documents and Settings\alessandro\Documenti\flac what cd\23. Indeep - The Record Keeps Spinning (Bonus Beats).wav
Peak level 58.4 %
Track quality 100.0 %
Test CRC 671E0FC7
Copy CRC 671E0FC7
Accurately ripped (confidence 2) [7CD95B31]
Copy OK
All tracks accurately ripped
No errors occurred
End of status report
 REM GENRE Disco
REM DATE 1991
REM DISCID 48114117
REM COMMENT "ExactAudioCopy v0.99pb5"
PERFORMER "Indeep"
TITLE "Collection"
FILE "01. Indeep - Last Night A DJ Saved My Life.wav" WAVE
TRACK 01 AUDIO
TITLE "Last Night A DJ Saved My Life"
PERFORMER "Indeep"
INDEX 01 00:00:00
TRACK 02 AUDIO
TITLE "When Boys Talk"
PERFORMER "Indeep"
INDEX 00 05:39:67
FILE "02. Indeep - When Boys Talk.wav" WAVE
INDEX 01 00:00:00
TRACK 03 AUDIO
TITLE "Buffalo Bill"
PERFORMER "Indeep"
INDEX 00 05:54:30
FILE "03. Indeep - Buffalo Bill.wav" WAVE
INDEX 01 00:00:00
FILE "04. Indeep - The Night The Boy Learned How To Dance.wav" WAVE
TRACK 04 AUDIO
TITLE "The Night The Boy Learned How To Dance"
PERFORMER "Indeep"
INDEX 01 00:00:00
TRACK 05 AUDIO
TITLE "The Record Keeps Spinning"
PERFORMER "Indeep"
INDEX 00 05:18:63
FILE "05. Indeep - The Record Keeps Spinning.wav" WAVE
INDEX 01 00:00:00
TRACK 06 AUDIO
TITLE "10 Reasons Why I Can't Be Free"
PERFORMER "Indeep"
INDEX 00 05:23:63
FILE "06. Indeep - 10 Reasons Why I Can't Be Free.wav" WAVE
INDEX 01 00:00:00
TRACK 07 AUDIO
TITLE "Girls Got Soul"
PERFORMER "Indeep"
INDEX 00 05:06:43
FILE "07. Indeep - Girls Got Soul.wav" WAVE
INDEX 01 00:00:00
TRACK 08 AUDIO
TITLE "If You Want It"
PERFORMER "Indeep"
INDEX 00 03:15:58
FILE "08. Indeep - If You Want It.wav" WAVE
INDEX 01 00:00:00
TRACK 09 AUDIO
TITLE "You Got To Rock It"
PERFORMER "Indeep"
INDEX 00 03:38:47
FILE "09. Indeep - You Got To Rock It.wav" WAVE
INDEX 01 00:00:00
FILE "10. Indeep - I Got My Rights.wav" WAVE
TRACK 10 AUDIO
TITLE "I Got My Rights"
PERFORMER "Indeep"
INDEX 01 00:00:00
TRACK 11 AUDIO
TITLE "Pajama Party Time"
PERFORMER "Indeep"
INDEX 00 03:36:45
FILE "11. Indeep - Pajama Party Time.wav" WAVE
INDEX 01 00:00:00
TRACK 12 AUDIO
TITLE "Love Is Like A Gun"
PERFORMER "Indeep"
INDEX 00 03:31:25
FILE "12. Indeep - Love Is Like A Gun.wav" WAVE
INDEX 01 00:00:00
TRACK 13 AUDIO
TITLE "Slow Down"
PERFORMER "Indeep"
INDEX 00 02:52:40
FILE "13. Indeep - Slow Down.wav" WAVE
INDEX 01 00:00:00
TRACK 14 AUDIO
TITLE "Lipstick Politics"
PERFORMER "Indeep"
INDEX 00 03:38:15
FILE "14. Indeep - Lipstick Politics.wav" WAVE
INDEX 01 00:00:00
TRACK 15 AUDIO
TITLE "There It Is"
PERFORMER "Indeep"
INDEX 00 04:17:00
FILE "15. Indeep - There It Is.wav" WAVE
INDEX 01 00:00:00
TRACK 16 AUDIO
TITLE "The Rapper"
PERFORMER "Indeep"
INDEX 00 03:02:15
FILE "16. Indeep - The Rapper.wav" WAVE
INDEX 01 00:00:00
TRACK 17 AUDIO
TITLE "Telephone Ringing"
PERFORMER "Indeep"
INDEX 00 03:47:55
FILE "17. Indeep - Telephone Ringing.wav" WAVE
INDEX 01 00:00:00
TRACK 18 AUDIO
TITLE "Screeching Tires"
PERFORMER "Indeep"
INDEX 00 00:20:13
FILE "18. Indeep - Screeching Tires.wav" WAVE
INDEX 01 00:00:00
TRACK 19 AUDIO
TITLE "Flushing Toilet"
PERFORMER "Indeep"
INDEX 00 00:08:45
FILE "19. Indeep - Flushing Toilet.wav" WAVE
INDEX 01 00:00:00
FILE "20. Indeep - When Boys Talk (Scratch Version).wav" WAVE
TRACK 20 AUDIO
TITLE "When Boys Talk (Scratch Version)"
PERFORMER "Indeep"
INDEX 01 00:00:00
TRACK 21 AUDIO
TITLE "Buffalo Bill (Percussion)"
PERFORMER "Indeep"
INDEX 00 01:57:10
FILE "21. Indeep - Buffalo Bill (Percussion).wav" WAVE
INDEX 01 00:00:00
FILE "22. Indeep - Dog Barks & Screams With Echo.wav" WAVE
TRACK 22 AUDIO
TITLE "Dog Barks & Screams With Echo"
PERFORMER "Indeep"
INDEX 01 00:00:00
FILE "23. Indeep - The Record Keeps Spinning (Bonus Beats).wav" WAVE
TRACK 23 AUDIO
TITLE "The Record Keeps Spinning (Bonus Beats)"
PERFORMER "Indeep"
INDEX 01 00:00:00

[415.5 MB] Скачать / Download