(Funk / Soul / Disco) Kid Creole & The Coconuts - I Wake Up Screaming - 2011, FLAC (tracks+.cue), lossless - Скачать

Жанр: Funk / Soul / Disco
Год издания диска: 2011
Издатель (лейбл): Strut Records
Номер по каталогу: Strut055CD
Страна: US
Аудиокодек: FLAC (*.flac)
Тип рипа: tracks+.cue
Битрейт аудио: lossless
Продолжительность: 55:26
Источник (релизер): artmuss
Наличие сканов в содержимом раздачи: нет
Треклист:
01. Stony and Cory
02. I Wake Up Screaming (In the Tropics)
03. Somebody's Got to Lose
04. I Do Believe
05. Long Live the King
06. Verily Verily Verily
07. Tudor-Jones
08. Attitude
09. This is My Life
10. We're Rockin' Out Tonight
11. Love Remains
12. Blow Me Up
13. Just Because I Love You
http://kidcreole.com/
http://www.myspace.com/therealkidcreoleandthecoconuts

скачать, трек, torrent, бесплатно, download, высокое качество, mp3, lossless, альбом, cd, поп-музыка, альбом, песни, поп, музыка, композиции, дискография, pop, pop-music, soundtrack, торрент

 Exact Audio Copy V1.0 beta 2 from 29. April 2011
EAC extraction logfile from 4. November 2011, 15:43
Kid Creole & The Coconuts / I Wake Up Screaming
Used drive : ATAPI DVD A DH16AASH Adapter: 1 ID: 1
Read mode : Secure
Utilize accurate stream : Yes
Defeat audio cache : Yes
Make use of C2 pointers : No
Read offset correction : 6
Overread into Lead-In and Lead-Out : No
Fill up missing offset samples with silence : Yes
Delete leading and trailing silent blocks : No
Null samples used in CRC calculations : Yes
Used interface : Native Win32 interface for Win NT & 2000
Gap handling : Appended to previous track
Used output format : User Defined Encoder
Selected bitrate : 1024 kBit/s
Quality : High
Add ID3 tag : No
Command line compressor : C:\Program Files (x86)\FLAC\flac.exe
Additional command line options : -8 -V -T "ARTIST=%artist%" -T "TITLE=%title%" -T "ALBUM=%albumtitle%" -T "DATE=%year%" -T "TRACKNUMBER=%tracknr%" -T "GENRE=%genre%" -T "PERFORMER=%albuminterpret%" -T "COMPOSER=%composer%" %haslyrics%--tag-from-file=LYRICS
TOC of the extracted CD
Track | Start | Length | Start sector | End sector
---------------------------------------------------------
1 | 0:00.00 | 4:10.39 | 0 | 18788
2 | 4:10.39 | 3:37.13 | 18789 | 35076
3 | 7:47.52 | 3:08.72 | 35077 | 49248
4 | 10:56.49 | 4:22.04 | 49249 | 68902
5 | 15:18.53 | 5:16.35 | 68903 | 92637
6 | 20:35.13 | 4:43.46 | 92638 | 113908
7 | 25:18.59 | 6:35.49 | 113909 | 143582
8 | 31:54.33 | 3:31.20 | 143583 | 159427
9 | 35:25.53 | 4:02.70 | 159428 | 177647
10 | 39:28.48 | 3:33.41 | 177648 | 193663
11 | 43:02.14 | 3:52.40 | 193664 | 211103
12 | 46:54.54 | 4:20.38 | 211104 | 230641
13 | 51:15.17 | 4:10.47 | 230642 | 249438
Track 1
Filename F:\Converted Flac\01 Stony and Cory.wav
Pre-gap length 0:00:02.00
Peak level 81.3 %
Extraction speed 3.1 X
Track quality 100.0 %
Test CRC D2452807
Copy CRC D2452807
Track not present in AccurateRip database
Copy OK
Track 2
Filename F:\Converted Flac\02 I Wake Up Screaming (In the Tropics).wav
Pre-gap length 0:00:02.00
Peak level 100.0 %
Extraction speed 3.4 X
Track quality 100.0 %
Test CRC 17B68F18
Copy CRC 17B68F18
Track not present in AccurateRip database
Copy OK
Track 3
Filename F:\Converted Flac\03 Somebody's Got to Lose.wav
Pre-gap length 0:00:02.00
Peak level 100.0 %
Extraction speed 3.4 X
Track quality 100.0 %
Test CRC 6D2B13E6
Copy CRC 6D2B13E6
Track not present in AccurateRip database
Copy OK
Track 4
Filename F:\Converted Flac\04 I Do Believe.wav
Pre-gap length 0:00:02.00
Peak level 96.7 %
Extraction speed 3.9 X
Track quality 100.0 %
Test CRC A09FE148
Copy CRC A09FE148
Track not present in AccurateRip database
Copy OK
Track 5
Filename F:\Converted Flac\05 Long Live the King.wav
Pre-gap length 0:00:02.00
Peak level 96.7 %
Extraction speed 4.3 X
Track quality 100.0 %
Test CRC 56C138D1
Copy CRC 56C138D1
Track not present in AccurateRip database
Copy OK
Track 6
Filename F:\Converted Flac\06 Verily Verily Verily.wav
Pre-gap length 0:00:02.00
Peak level 96.7 %
Extraction speed 4.5 X
Track quality 100.0 %
Test CRC D6A170AB
Copy CRC D6A170AB
Track not present in AccurateRip database
Copy OK
Track 7
Filename F:\Converted Flac\07 Tudor-Jones.wav
Pre-gap length 0:00:02.00
Peak level 93.4 %
Extraction speed 5.0 X
Track quality 100.0 %
Test CRC F5F16505
Copy CRC F5F16505
Track not present in AccurateRip database
Copy OK
Track 8
Filename F:\Converted Flac\08 Attitude.wav
Pre-gap length 0:00:02.00
Peak level 96.7 %
Extraction speed 4.9 X
Track quality 100.0 %
Test CRC DF552739
Copy CRC DF552739
Track not present in AccurateRip database
Copy OK
Track 9
Filename F:\Converted Flac\09 This is My Life.wav
Pre-gap length 0:00:02.00
Peak level 100.0 %
Extraction speed 5.0 X
Track quality 100.0 %
Test CRC 8D5B66A3
Copy CRC 8D5B66A3
Track not present in AccurateRip database
Copy OK
Track 10
Filename F:\Converted Flac\10 We're Rockin' Out Tonight.wav
Pre-gap length 0:00:02.00
Peak level 96.6 %
Extraction speed 5.2 X
Track quality 100.0 %
Test CRC AE4C7B0A
Copy CRC AE4C7B0A
Track not present in AccurateRip database
Copy OK
Track 11
Filename F:\Converted Flac\11 Love Remains.wav
Pre-gap length 0:00:02.00
Peak level 96.6 %
Extraction speed 5.3 X
Track quality 100.0 %
Test CRC D5CA27AA
Copy CRC D5CA27AA
Track not present in AccurateRip database
Copy OK
Track 12
Filename F:\Converted Flac\12 Blow Me Up.wav
Pre-gap length 0:00:02.00
Peak level 88.1 %
Extraction speed 5.6 X
Track quality 100.0 %
Test CRC 361298BA
Copy CRC 361298BA
Track not present in AccurateRip database
Copy OK
Track 13
Filename F:\Converted Flac\13 Just Because I Love You.wav
Pre-gap length 0:00:02.00
Peak level 86.1 %
Extraction speed 5.7 X
Track quality 100.0 %
Test CRC 5439F40D
Copy CRC 5439F40D
Track not present in AccurateRip database
Copy OK
None of the tracks are present in the AccurateRip database
No errors occurred
End of status report
==== Log checksum DE160280378469F2F25311397624208A409C70B05DA832ECDB4596BAD116DA40 ====
 REM GENRE Funk
REM DATE 2011
REM DISCID AF0CFD0D
REM COMMENT "ExactAudioCopy v1.0b2"
PERFORMER "Kid Creole & The Coconuts"
TITLE "I Wake Up Screaming"
FILE "01 Stony and Cory.wav" WAVE
TRACK 01 AUDIO
TITLE "Stony and Cory"
PERFORMER "Kid Creole & The Coconuts"
INDEX 01 00:00:00
TRACK 02 AUDIO
TITLE "I Wake Up Screaming (In the Tropics)"
PERFORMER "Kid Creole & The Coconuts"
INDEX 00 04:08:39
FILE "02 I Wake Up Screaming (In the Tropics).wav" WAVE
INDEX 01 00:00:00
TRACK 03 AUDIO
TITLE "Somebody's Got to Lose"
PERFORMER "Kid Creole & The Coconuts"
INDEX 00 03:35:13
FILE "03 Somebody's Got to Lose.wav" WAVE
INDEX 01 00:00:00
TRACK 04 AUDIO
TITLE "I Do Believe"
PERFORMER "Kid Creole & The Coconuts"
INDEX 00 03:06:72
FILE "04 I Do Believe.wav" WAVE
INDEX 01 00:00:00
TRACK 05 AUDIO
TITLE "Long Live the King"
PERFORMER "Kid Creole & The Coconuts"
INDEX 00 04:20:04
FILE "05 Long Live the King.wav" WAVE
INDEX 01 00:00:00
TRACK 06 AUDIO
TITLE "Verily Verily Verily"
PERFORMER "Kid Creole & The Coconuts"
INDEX 00 05:14:35
FILE "06 Verily Verily Verily.wav" WAVE
INDEX 01 00:00:00
TRACK 07 AUDIO
TITLE "Tudor-Jones"
PERFORMER "Kid Creole & The Coconuts"
INDEX 00 04:41:46
FILE "07 Tudor-Jones.wav" WAVE
INDEX 01 00:00:00
TRACK 08 AUDIO
TITLE "Attitude"
PERFORMER "Kid Creole & The Coconuts"
INDEX 00 06:33:49
FILE "08 Attitude.wav" WAVE
INDEX 01 00:00:00
TRACK 09 AUDIO
TITLE "This is My Life"
PERFORMER "Kid Creole & The Coconuts"
INDEX 00 03:29:20
FILE "09 This is My Life.wav" WAVE
INDEX 01 00:00:00
TRACK 10 AUDIO
TITLE "We're Rockin' Out Tonight"
PERFORMER "Kid Creole & The Coconuts"
INDEX 00 04:00:70
FILE "10 We're Rockin' Out Tonight.wav" WAVE
INDEX 01 00:00:00
TRACK 11 AUDIO
TITLE "Love Remains"
PERFORMER "Kid Creole & The Coconuts"
INDEX 00 03:31:41
FILE "11 Love Remains.wav" WAVE
INDEX 01 00:00:00
TRACK 12 AUDIO
TITLE "Blow Me Up"
PERFORMER "Kid Creole & The Coconuts"
INDEX 00 03:50:40
FILE "12 Blow Me Up.wav" WAVE
INDEX 01 00:00:00
TRACK 13 AUDIO
TITLE "Just Because I Love You"
PERFORMER "Kid Creole & The Coconuts"
INDEX 00 04:18:38
FILE "13 Just Because I Love You.wav" WAVE
INDEX 01 00:00:00
Kid Creole and Coconuts — американская группа , созданная и возглавляемая Августом Дарнеллом (August Darnell). Его музыка включает в себя разнообразие стилей и влияний:Латинской Америки , Южной Америки, Карибского бассейна. Coconuts это трио вокалисток,состав которого менялся на протяжении лет.
Вашему вниманию представлен новый альбом группы.

[379 MB] Скачать / Download