(Funk, Soul, Pop, Disco) Eruption - The Best Of Eruption - 2017 (Remastered), FLAC (image+.cue), lossless - Скачать

Жанр: Funk, Soul, Pop, Disco
Носитель: CD
Страна-производитель диска (релиза): EU
Год издания: 2017
Издатель (лейбл): Big Break Records
Номер по каталогу: CDBBRX0365
Аудиокодек: FLAC (*.flac)
Тип рипа: image+.cue
Битрейт аудио: lossless
Продолжительность: 01:16:40
Источник (релизер): brookman
Наличие сканов в содержимом раздачи: да
Треклист:
01. I Can't Stand The Rain (3:09)
02. Go Johnny Go (Keep On Walking, John B.) (3:30)
03. Leave A Light (I'll Keep A Light In My Window) (4:21)
04. Movin' (4:27)
05. Party, Party (3:02)
06. Computer Love (4:34)
07. Valley Of The Dolls (4:36)
08. One Way Ticket (3:37)
09. Runaway (4:25)
10. Hey There Lonely Girl (3:26)
11. Let Me In The Rain (3:56)
12. The Way We Were (4:24)
13. Wayward Love (3:56)
14. You (You Are My Soul) (3:37)
Bonus Tracks
15. Good, Good Feelin' (3:29)
16. Up And Away (3:09)
17. Let Me Take You Back In Time (3:13)
18. I Can't Stand The Rain (12'' Long Version) (6:34)
19. One Way Ticket (12'' Long Version) (5:07)

Раздаю до первых 5-ти скачавших, на раздачи не возвращаюсь...

lossless, музыка, soundtrack, поп, альбом, поп-музыка, композиции, torrent, альбом, торрент, скачать, трек, download, pop-music, pop, бесплатно, дискография, песни, mp3, cd, высокое качество

 Exact Audio Copy V1.0 beta 3 from 29. August 2011
EAC extraction logfile from 21. June 2018, 18:03
Eruption / The Best Of Eruption (Expanded)
Used drive : PIONEER BD-RW BDR-TD03 Adapter: 0 ID: 1
Read mode : Secure
Utilize accurate stream : Yes
Defeat audio cache : Yes
Make use of C2 pointers : No
Read offset correction : 667
Overread into Lead-In and Lead-Out : No
Fill up missing offset samples with silence : Yes
Delete leading and trailing silent blocks : No
Null samples used in CRC calculations : Yes
Used interface : Native Win32 interface for Win NT & 2000
Used output format : User Defined Encoder
Selected bitrate : 768 kBit/s
Quality : High
Add ID3 tag : No
Command line compressor : C:\Program Files (x86)\Exact Audio Copy\FLAC\FLAC.EXE
Additional command line options : -6 -V -T "ARTIST=%artist%" -T "TITLE=%title%" -T "ALBUM=%albumtitle%" -T "DATE=%year%" -T "TRACKNUMBER=%tracknr%" -T "GENRE=%genre%" -T "COMMENT=%comment%" -T "BAND=%albuminterpret%" -T "ALBUMARTIST=%albuminterpret%" -T "COMPOSER=%composer%" %haslyrics%--tag-from-file=LYRICS="%lyricsfile%"%haslyrics% -T "DISCNUMBER=%cdnumber%" -T "TOTALDISCS=%totalcds%" -T "TOTALTRACKS=%numtracks%" %hascover%--picture="%coverfile%"%hascover% %source% -o %dest%
TOC of the extracted CD
Track | Start | Length | Start sector | End sector
---------------------------------------------------------
1 | 0:00.00 | 3:09.03 | 0 | 14177
2 | 3:09.03 | 3:30.50 | 14178 | 29977
3 | 6:39.53 | 4:21.45 | 29978 | 49597
4 | 11:01.23 | 4:27.04 | 49598 | 69626
5 | 15:28.27 | 3:02.23 | 69627 | 83299
6 | 18:30.50 | 4:34.73 | 83300 | 103922
7 | 23:05.48 | 4:36.12 | 103923 | 124634
8 | 27:41.60 | 3:37.55 | 124635 | 140964
9 | 31:19.40 | 4:25.70 | 140965 | 160909
10 | 35:45.35 | 3:26.21 | 160910 | 176380
11 | 39:11.56 | 3:56.54 | 176381 | 194134
12 | 43:08.35 | 4:24.16 | 194135 | 213950
13 | 47:32.51 | 3:56.15 | 213951 | 231665
14 | 51:28.66 | 3:37.00 | 231666 | 247940
15 | 55:05.66 | 3:29.17 | 247941 | 263632
16 | 58:35.08 | 3:09.71 | 263633 | 277878
17 | 61:45.04 | 3:13.22 | 277879 | 292375
18 | 64:58.26 | 6:34.20 | 292376 | 321945
19 | 71:32.46 | 5:07.03 | 321946 | 344973
Range status and errors
Selected range
Filename C:\Users\Deris\Desktop\kpnemo.eu\Erupbes\Eruption - The Best Of Eruption (Expanded).wav
Peak level 95.5 %
Extraction speed 4.9 X
Range quality 99.9 %
Test CRC C89F865C
Copy CRC C89F865C
Copy OK
No errors occurred
AccurateRip summary
Track 1 accurately ripped (confidence 7) [F121B03B] (AR v2)
Track 2 accurately ripped (confidence 7) [BFF42DEF] (AR v2)
Track 3 accurately ripped (confidence 7) [09C09A9F] (AR v2)
Track 4 accurately ripped (confidence 7) [E1936840] (AR v2)
Track 5 accurately ripped (confidence 7) [09611DAB] (AR v2)
Track 6 accurately ripped (confidence 7) [A3BDCA4B] (AR v2)
Track 7 accurately ripped (confidence 7) [147A117D] (AR v2)
Track 8 accurately ripped (confidence 7) [A941F6ED] (AR v2)
Track 9 accurately ripped (confidence 7) [C1F190FA] (AR v2)
Track 10 accurately ripped (confidence 7) [7A311077] (AR v2)
Track 11 accurately ripped (confidence 7) [002A974D] (AR v2)
Track 12 accurately ripped (confidence 7) [9B1ED721] (AR v2)
Track 13 accurately ripped (confidence 7) [482F7BCF] (AR v2)
Track 14 accurately ripped (confidence 7) [EF90F0E4] (AR v2)
Track 15 accurately ripped (confidence 7) [F40C038F] (AR v2)
Track 16 accurately ripped (confidence 7) [078624CF] (AR v2)
Track 17 accurately ripped (confidence 7) [DF993951] (AR v2)
Track 18 accurately ripped (confidence 7) [F9BF168D] (AR v2)
Track 19 accurately ripped (confidence 7) [804B8C6C] (AR v2)
All tracks accurately ripped
End of status report
---- CUETools DB Plugin V2.1.3
[CTDB TOCID: AVTb7QYnGQ_wTBCiUWoENwORdbs-] found, Submit result: already submitted
[72329c3d] (13/13) Accurately ripped
==== Log checksum 07DCD5E9783E7C736AC88F73DD22F9548320001A5C99EB6D85E3DD64431BBC46 ====
 REM GENRE Pop
REM DATE 1981
REM DISCID FE11F713
REM COMMENT "ExactAudioCopy v1.0b3"
PERFORMER "Eruption"
TITLE "The Best Of Eruption (Expanded)"
FILE "Eruption - The Best Of Eruption (Expanded).flac" WAVE
TRACK 01 AUDIO
TITLE "I can't stand the rain (feat. Precious Wilson)"
PERFORMER "Eruption"
INDEX 01 00:00:00
TRACK 02 AUDIO
TITLE "Go Johnnie go (keep on walking, John B.)"
PERFORMER "Eruption"
INDEX 00 03:07:20
INDEX 01 03:09:03
TRACK 03 AUDIO
TITLE "Leave a light"
PERFORMER "Eruption"
INDEX 00 06:38:02
INDEX 01 06:39:53
TRACK 04 AUDIO
TITLE "Movin'"
PERFORMER "Eruption"
INDEX 00 10:59:20
INDEX 01 11:01:23
TRACK 05 AUDIO
TITLE "Party, party"
PERFORMER "Eruption"
INDEX 00 15:26:51
INDEX 01 15:28:27
TRACK 06 AUDIO
TITLE "Computer love"
PERFORMER "Eruption"
INDEX 00 18:28:67
INDEX 01 18:30:50
TRACK 07 AUDIO
TITLE "Valley of the dolls"
PERFORMER "Eruption"
INDEX 00 23:04:06
INDEX 01 23:05:48
TRACK 08 AUDIO
TITLE "One way ticket"
PERFORMER "Eruption"
INDEX 00 27:39:62
INDEX 01 27:41:60
TRACK 09 AUDIO
TITLE "Runaway"
PERFORMER "Eruption"
INDEX 00 31:18:07
INDEX 01 31:19:40
TRACK 10 AUDIO
TITLE "Hey there lonely girl"
PERFORMER "Eruption"
INDEX 00 35:43:49
INDEX 01 35:45:35
TRACK 11 AUDIO
TITLE "Let me in the rain"
PERFORMER "Eruption"
INDEX 00 39:10:11
INDEX 01 39:11:56
TRACK 12 AUDIO
TITLE "The way we were"
PERFORMER "Eruption"
INDEX 00 43:06:72
INDEX 01 43:08:35
TRACK 13 AUDIO
TITLE "Wayward love"
PERFORMER "Eruption"
INDEX 00 47:31:11
INDEX 01 47:32:51
TRACK 14 AUDIO
TITLE "You (you are my soul)"
PERFORMER "Eruption"
INDEX 00 51:27:10
INDEX 01 51:28:66
TRACK 15 AUDIO
TITLE "Good good feelin'"
PERFORMER "Eruption"
INDEX 00 55:03:72
INDEX 01 55:05:66
TRACK 16 AUDIO
TITLE "Up and away"
PERFORMER "Eruption"
INDEX 00 58:33:09
INDEX 01 58:35:08
TRACK 17 AUDIO
TITLE "Let me take you back in time"
PERFORMER "Eruption"
INDEX 00 61:43:24
INDEX 01 61:45:04
TRACK 18 AUDIO
TITLE "I can't stand the rain (feat. Precious Wilson) (12'' Long Version)"
PERFORMER "Eruption"
INDEX 00 64:56:26
INDEX 01 64:58:26
TRACK 19 AUDIO
TITLE "One way ticket (12'' Long Version)"
PERFORMER "Eruption"
INDEX 00 71:30:53
INDEX 01 71:32:46
 foobar2000 1.3.13 / Замер динамического диапазона (DR) 1.1.1
Дата отчёта: 2018-06-21 20:21:27
--------------------------------------------------------------------------------
Анализ: Eruption / The Best Of Eruption (Expanded)
--------------------------------------------------------------------------------
DR Пики RMS Продолжительность трека
--------------------------------------------------------------------------------
DR11 -0.40 дБ -12.20 дБ 3:09 01-I can't stand the rain (feat. Precious Wilson)
DR11 -0.40 дБ -12.61 дБ 3:31 02-Go Johnnie go (keep on walking, John B.)
DR11 -0.40 дБ -12.47 дБ 4:22 03-Leave a light
DR11 -0.40 дБ -12.61 дБ 4:27 04-Movin'
DR12 -0.40 дБ -12.85 дБ 3:02 05-Party, party
DR10 -0.40 дБ -12.11 дБ 4:35 06-Computer love
DR10 -0.40 дБ -12.70 дБ 4:36 07-Valley of the dolls
DR10 -0.40 дБ -11.48 дБ 3:38 08-One way ticket
DR11 -0.40 дБ -12.58 дБ 4:26 09-Runaway
DR12 -0.40 дБ -13.09 дБ 3:26 10-Hey there lonely girl
DR11 -0.40 дБ -12.78 дБ 3:57 11-Let me in the rain
DR10 -0.40 дБ -12.47 дБ 4:24 12-The way we were
DR11 -0.40 дБ -12.46 дБ 3:56 13-Wayward love
DR12 -0.40 дБ -12.76 дБ 3:37 14-You (you are my soul)
DR13 -0.40 дБ -14.02 дБ 3:29 15-Good good feelin'
DR11 -0.40 дБ -12.90 дБ 3:10 16-Up and away
DR11 -0.40 дБ -12.56 дБ 3:13 17-Let me take you back in time
DR10 -0.40 дБ -11.45 дБ 6:34 18-I can't stand the rain (feat. Precious Wilson) (12'' Long Version)
DR10 -0.40 дБ -11.44 дБ 5:07 19-One way ticket (12'' Long Version)
--------------------------------------------------------------------------------
Количество треков: 19
Реальные значения DR: DR11
Частота: 44100 Гц
Каналов: 2
Разрядность: 16
Битрейт: 937 кбит/с
Кодек: FLAC
================================================================================

[713.2 MB] Скачать / Download