(Funk, Soul) Stephanie Mills - The Best Of - 1995, FLAC (tracks+.cue), lossless - Скачать

Stephanie Mills - The Best Of

Жанр: Funk, Soul
Год выпуска диска: 1995
Производитель диска: PolyGram
Аудио кодек: FLAC
Тип рипа: tracks+.cue
Битрейт аудио: lossless
Продолжительность: 00:76:48


1. Stephanie Mills - Sweet Sensation (12' Version) (6:26)
2. Stephanie Mills - Put Your Body In It (12' Version) (6:02)
3. Stephanie Mills - Starlight (3:36)
4. Stephanie Mills - Still Mine (5:34)
5. Stephanie Mills - Two Hearts (4:40)
6. Stephanie Mills - How Come U Don't Call Me Anymore (4:12)
7. Stephanie Mills - Deeper Inside Your Love (3:57)
8. Stephanie Mills - The Medicine Song (4:55)
9. Stephanie Mills - You Can Get Over (5:00)
10. Stephanie Mills - Never Knew Love Like This Before (5:27)
11. Stephanie Mills - Keep Away Girls (4:53)
12. Stephanie Mills - You And I (4:49)
13. Stephanie Mills - Feel The Fire (4:58)
14. Stephanie Mills - You Can't Run From My Love (4:16)
15. Stephanie Mills - What Cha Gonna Do With My Lovin' (12' Version) (8:03)

Собственноручный рип с оригинального диска от !

mp3, soundtrack, cd, альбом, трек, lossless, torrent, торрент, альбом, дискография, pop-music, песни, download, поп-музыка, скачать, pop, бесплатно, высокое качество, поп, музыка, композиции

 Exact Audio Copy V0.99 prebeta 5 from 4. May 2009
EAC extraction logfile from 7. March 2010, 2:04
Stephanie Mills / The Best Of Stephanie Mills
Used drive : ASUS CB-5216A Adapter: 0 ID: 1
Read mode : Secure
Utilize accurate stream : Yes
Defeat audio cache : Yes
Make use of C2 pointers : No
Read offset correction : 6
Overread into Lead-In and Lead-Out : No
Fill up missing offset samples with silence : Yes
Delete leading and trailing silent blocks : No
Null samples used in CRC calculations : Yes
Used interface : Native Win32 interface for Win NT & 2000
Gap handling : Appended to previous track
Used output format : User Defined Encoder
Selected bitrate : 320 kBit/s
Quality : High
Add ID3 tag : No
Command line compressor : C:\Program Files\FLAC\flac.exe
Additional command line options : -5 -V -T "ARTIST=%a" -T "TITLE=%t" -T "ALBUM=%g" -T "DATE=%y" -T "TRACKNUMBER=%n" -T "GENRE=%m" -T "COMMENT=Ripped By andygrakoff aka yetiisyou" %s
TOC of the extracted CD
Track | Start | Length | Start sector | End sector
---------------------------------------------------------
1 | 0:00.32 | 6:26.03 | 32 | 28984
2 | 6:26.35 | 6:02.27 | 28985 | 56161
3 | 12:28.62 | 3:36.03 | 56162 | 72364
4 | 16:04.65 | 5:34.32 | 72365 | 97446
5 | 21:39.22 | 4:40.30 | 97447 | 118476
6 | 26:19.52 | 4:12.18 | 118477 | 137394
7 | 30:31.70 | 3:57.52 | 137395 | 155221
8 | 34:29.47 | 4:55.15 | 155222 | 177361
9 | 39:24.62 | 5:00.45 | 177362 | 199906
10 | 44:25.32 | 5:27.70 | 199907 | 224501
11 | 49:53.27 | 4:53.03 | 224502 | 246479
12 | 54:46.30 | 4:49.32 | 246480 | 268186
13 | 59:35.62 | 4:58.13 | 268187 | 290549
14 | 64:34.00 | 4:16.55 | 290550 | 309804
15 | 68:50.55 | 8:03.27 | 309805 | 346056
Track 1
Filename E:\!Rips\FUNK @ SOUL\Stephanie Mills - The Best Of (526 720-2)\01 – Sweet Sensation (12' Version).wav
Pre-gap length 0:00:02.42
Peak level 100.0 %
Track quality 100.0 %
Test CRC 923DD57C
Copy CRC 923DD57C
Accurately ripped (confidence 1) [6D3AA606]
Copy OK
Track 2
Filename E:\!Rips\FUNK @ SOUL\Stephanie Mills - The Best Of (526 720-2)\02 – Put Your Body In It (12' Version).wav
Pre-gap length 0:00:02.26
Peak level 100.0 %
Track quality 100.0 %
Test CRC C2EF75CA
Copy CRC C2EF75CA
Accurately ripped (confidence 1) [255013A4]
Copy OK
Track 3
Filename E:\!Rips\FUNK @ SOUL\Stephanie Mills - The Best Of (526 720-2)\03 – Starlight.wav
Pre-gap length 0:00:02.26
Peak level 93.3 %
Track quality 100.0 %
Test CRC 8A79EEA6
Copy CRC 8A79EEA6
Accurately ripped (confidence 1) [3367281E]
Copy OK
Track 4
Filename E:\!Rips\FUNK @ SOUL\Stephanie Mills - The Best Of (526 720-2)\04 – Still Mine.wav
Pre-gap length 0:00:02.77
Peak level 100.0 %
Track quality 100.0 %
Test CRC EA52B26D
Copy CRC EA52B26D
Accurately ripped (confidence 1) [51F4A317]
Copy OK
Track 5
Filename E:\!Rips\FUNK @ SOUL\Stephanie Mills - The Best Of (526 720-2)\05 – Two Hearts.wav
Pre-gap length 0:00:02.26
Peak level 100.0 %
Track quality 100.0 %
Test CRC 1892FAFF
Copy CRC 1892FAFF
Accurately ripped (confidence 1) [4909D950]
Copy OK
Track 6
Filename E:\!Rips\FUNK @ SOUL\Stephanie Mills - The Best Of (526 720-2)\06 – How Come U Don't Call Me Anymore.wav
Pre-gap length 0:00:03.09
Peak level 97.7 %
Track quality 100.0 %
Test CRC 5541B74E
Copy CRC 5541B74E
Accurately ripped (confidence 1) [B0E3D22A]
Copy OK
Track 7
Filename E:\!Rips\FUNK @ SOUL\Stephanie Mills - The Best Of (526 720-2)\07 – Deeper Inside Your Love.wav
Pre-gap length 0:00:02.77
Peak level 100.0 %
Track quality 100.0 %
Test CRC A5C12243
Copy CRC A5C12243
Accurately ripped (confidence 1) [4D22AE8F]
Copy OK
Track 8
Filename E:\!Rips\FUNK @ SOUL\Stephanie Mills - The Best Of (526 720-2)\08 – The Medicine Song.wav
Pre-gap length 0:00:02.04
Peak level 95.2 %
Track quality 99.9 %
Test CRC 6601866D
Copy CRC 6601866D
Accurately ripped (confidence 1) [994BE8B4]
Copy OK
Track 9
Filename E:\!Rips\FUNK @ SOUL\Stephanie Mills - The Best Of (526 720-2)\09 – You Can Get Over.wav
Pre-gap length 0:00:02.60
Peak level 100.0 %
Track quality 100.0 %
Test CRC 05D1FDE1
Copy CRC 05D1FDE1
Accurately ripped (confidence 1) [ECE370E0]
Copy OK
Track 10
Filename E:\!Rips\FUNK @ SOUL\Stephanie Mills - The Best Of (526 720-2)\10 – Never Knew Love Like This Before.wav
Pre-gap length 0:00:03.09
Peak level 95.0 %
Track quality 100.0 %
Test CRC 9BD16257
Copy CRC 9BD16257
Accurately ripped (confidence 1) [C7DACEE3]
Copy OK
Track 11
Filename E:\!Rips\FUNK @ SOUL\Stephanie Mills - The Best Of (526 720-2)\11 – Keep Away Girls.wav
Pre-gap length 0:00:02.76
Peak level 89.6 %
Track quality 100.0 %
Test CRC 34F2F6D8
Copy CRC 34F2F6D8
Accurately ripped (confidence 1) [DB70D6B0]
Copy OK
Track 12
Filename E:\!Rips\FUNK @ SOUL\Stephanie Mills - The Best Of (526 720-2)\12 – You And I.wav
Pre-gap length 0:00:03.26
Peak level 100.0 %
Track quality 100.0 %
Test CRC 8578EF68
Copy CRC 8578EF68
Accurately ripped (confidence 1) [CCB2DC0C]
Copy OK
Track 13
Filename E:\!Rips\FUNK @ SOUL\Stephanie Mills - The Best Of (526 720-2)\13 – Feel The Fire.wav
Pre-gap length 0:00:02.76
Peak level 97.4 %
Track quality 99.9 %
Test CRC AD8753CF
Copy CRC AD8753CF
Accurately ripped (confidence 1) [F21E76C2]
Copy OK
Track 14
Filename E:\!Rips\FUNK @ SOUL\Stephanie Mills - The Best Of (526 720-2)\14 – You Can't Run From My Love.wav
Pre-gap length 0:00:02.00
Peak level 99.4 %
Track quality 100.0 %
Test CRC B362E474
Copy CRC B362E474
Accurately ripped (confidence 1) [04A2470F]
Copy OK
Track 15
Filename E:\!Rips\FUNK @ SOUL\Stephanie Mills - The Best Of (526 720-2)\15 – What Cha Gonna Do With My Lovin' (12' Version).wav
Pre-gap length 0:00:03.20
Peak level 96.4 %
Track quality 100.0 %
Test CRC F53F8BF9
Copy CRC F53F8BF9
Cannot be verified as accurate (confidence 1) [35D05CEB], AccurateRip returned [FEE5707E]
Copy OK
14 track(s) accurately ripped
1 track(s) could not be verified as accurate
Some tracks could not be verified as accurate
No errors occurred
End of status report
 REM DATE 1995
REM DISCID EF12060F
REM COMMENT "ExactAudioCopy v0.99pb5"
PERFORMER "Stephanie Mills"
TITLE "The Best Of Stephanie Mills"
FILE "01 – Sweet Sensation (12' Version).wav" WAVE
TRACK 01 AUDIO
TITLE "Sweet Sensation (12' Version)"
PERFORMER "Stephanie Mills"
PREGAP 00:00:32
INDEX 01 00:00:00
TRACK 02 AUDIO
TITLE "Put Your Body In It (12' Version)"
PERFORMER "Stephanie Mills"
INDEX 00 06:23:58
FILE "02 – Put Your Body In It (12' Version).wav" WAVE
INDEX 01 00:00:00
TRACK 03 AUDIO
TITLE "Starlight"
PERFORMER "Stephanie Mills"
INDEX 00 06:00:07
FILE "03 – Starlight.wav" WAVE
INDEX 01 00:00:00
TRACK 04 AUDIO
TITLE "Still Mine"
PERFORMER "Stephanie Mills"
INDEX 00 03:33:20
FILE "04 – Still Mine.wav" WAVE
INDEX 01 00:00:00
TRACK 05 AUDIO
TITLE "Two Hearts"
PERFORMER "Stephanie Mills"
INDEX 00 05:32:12
FILE "05 – Two Hearts.wav" WAVE
INDEX 01 00:00:00
TRACK 06 AUDIO
TITLE "How Come U Don't Call Me Anymore"
PERFORMER "Stephanie Mills"
INDEX 00 04:37:23
FILE "06 – How Come U Don't Call Me Anymore.wav" WAVE
INDEX 01 00:00:00
TRACK 07 AUDIO
TITLE "Deeper Inside Your Love"
PERFORMER "Stephanie Mills"
INDEX 00 04:09:35
FILE "07 – Deeper Inside Your Love.wav" WAVE
INDEX 01 00:00:00
TRACK 08 AUDIO
TITLE "The Medicine Song"
PERFORMER "Stephanie Mills"
INDEX 00 03:55:49
FILE "08 – The Medicine Song.wav" WAVE
INDEX 01 00:00:00
TRACK 09 AUDIO
TITLE "You Can Get Over"
PERFORMER "Stephanie Mills"
INDEX 00 04:52:45
FILE "09 – You Can Get Over.wav" WAVE
INDEX 01 00:00:00
TRACK 10 AUDIO
TITLE "Never Knew Love Like This Before"
PERFORMER "Stephanie Mills"
INDEX 00 04:57:38
FILE "10 – Never Knew Love Like This Before.wav" WAVE
INDEX 01 00:00:00
TRACK 11 AUDIO
TITLE "Keep Away Girls"
PERFORMER "Stephanie Mills"
INDEX 00 05:25:13
FILE "11 – Keep Away Girls.wav" WAVE
INDEX 01 00:00:00
TRACK 12 AUDIO
TITLE "You And I"
PERFORMER "Stephanie Mills"
INDEX 00 04:49:58
FILE "12 – You And I.wav" WAVE
INDEX 01 00:00:00
TRACK 13 AUDIO
TITLE "Feel The Fire"
PERFORMER "Stephanie Mills"
INDEX 00 04:46:50
FILE "13 – Feel The Fire.wav" WAVE
INDEX 01 00:00:00
TRACK 14 AUDIO
TITLE "You Can't Run From My Love"
PERFORMER "Stephanie Mills"
INDEX 00 04:56:13
FILE "14 – You Can't Run From My Love.wav" WAVE
INDEX 01 00:00:00
TRACK 15 AUDIO
TITLE "What Cha Gonna Do With My Lovin' (12' Version)"
PERFORMER "Stephanie Mills"
INDEX 00 04:13:40
FILE "15 – What Cha Gonna Do With My Lovin' (12' Version).wav" WAVE
INDEX 01 00:00:00

[497.7 MB] Скачать / Download