(Funk) VA - Best Of Funk - 2008 (2CD), FLAC (image+.cue), lossless - Скачать

Жанр: Funk
Год выпуска диска: 2008
Производитель диска: Wagram Music S.A.
Аудио кодек: FLAC
Тип рипа: image+.cue
Битрейт аудио: lossless
Продолжительность: 152 мин
Трэклист:Доп. информация:

песни, torrent, поп, download, cd, трек, скачать, pop, бесплатно, музыка, альбом, lossless, pop-music, mp3, soundtrack, дискография, торрент, высокое качество, композиции, поп-музыка, альбом

 01. The Whispers / And The Beat Goes On [0:03:04.73]
02. Shalamar / A Night To Remenber [0:04:48.07]
03. Indeep / Last Night A DJ Saved My Life [0:04:41.19]
04. Stretch / Why Did You Do It? [0:03:52.51]
05. Chemise / She Cant Love You [0:02:58.16]
06. Fat Larrys Band / Act Like You Know [0:02:45.13]
07. Boule Noire / Aimer Damour [0:03:07.41]
08. Unlimited Touch / I Hear Music In The Streets [0:03:51.33]
09. Odyssey / Going Back To My Roots [0:04:01.41]
10. Edwin Birdsong / Cola Battle Baby [0:05:11.25]
11. Traks / Long Train Runnin [0:03:40.33]
12. D Train / Keep On [0:04:01.22]
13. Jazzy Dee / Get On Up [0:04:15.00]
14. Unique / What I Got Is What You Need [0:04:01.63]
15. Atlantis / Keep On Movin And Groovin [0:03:21.07]
16. Lakeside / Fantastic Voyage [0:04:02.36]
17. Skyy / Call Me [0:06:22.03]
18. David Christie / Saddle Up [0:02:54.20]
19. The Strikers / Body Music [0:02:59.30]
20. Captain Sensible / Wot [0:03:07.11]
 01. Imagination / Just An Illusion [0:03:16.66]
02. Delegation / Darlin [0:04:26.38]
03. Positive Force / We Got The Funk [0:04:21.25]
04. Jocelyn Brown / Somebody Elses Guy [0:03:43.73]
05. Cymande / Brother On The Slide [0:04:01.57]
06. Charades / Gimme The Funk [0:03:02.08]
07. New Jersy Connection / Love Dont Come Easy [0:06:12.64]
08. Carl Douglas / Kung Fu Fighting [0:03:12.33]
09. Pino Dangio / Ma Quale Idea [0:03:08.62]
10. Shalamar / Make That Move [0:03:10.70]
11. Midnight Star / Midas Touch [0:04:28.14]
12. Toney Lee / Reach Up [0:03:29.72]
13. Grandmaster Flash / The Message [0:03:06.52]
14. Sugarhill Gang / Rappers Delight [0:02:59.35]
15. Teddy Pendergrass / You Cant Hide From Yourself [0:04:04.29]
16. France Joli / Gonna Get Over You [0:03:51.38]
17. Gil Scott-Heron / The Battle [0:03:05.23]
18. Lyn Collins / Think (About It) [0:02:43.27]
19. Barry White / Ive Got The Whole World To Hold [0:02:59.56]
20. Incredible Bongo Band / Apache [0:04:51.73]
 Exact Audio Copy V0.99 prebeta 5 from 4. May 2009
Отчёт EAC об извлечении, выполненном 15. мая 2010, 16:27
Various / Best Of Funk
Дисковод: PIONEER DVD-RW DVR-112D Adapter: 0 ID: 0
Режим чтения : Достоверность
Использование точного потока : Да
Отключение кэша аудио : Да
Использование указателей C2 : Нет
Коррекция смещения при чтении : 48
Способность читать области Lead-in и Lead-out : Нет
Заполнение пропущенных сэмплов тишиной : Да
Удаление блоков с тишиной в начале и конце : Нет
При вычислениях CRC использовались нулевые сэмплы : Да
Интерфейс : Встроенный Win32-интерфейс для Win NT/2000
Выходной формат : Внутренние WAV-операции
Формат сэмплов : 44.100 Гц; 16 бит; стерео
TOC извлечённого CD
Трек | Старт | Длительность | Начальный сектор | Конечный сектор
---------------------------------------------------------------------
1 | 0:00.00 | 3:04.73 | 0 | 13872
2 | 3:04.73 | 4:48.07 | 13873 | 35479
3 | 7:53.05 | 4:41.19 | 35480 | 56573
4 | 12:34.24 | 3:52.51 | 56574 | 74024
5 | 16:27.00 | 2:58.16 | 74025 | 87390
6 | 19:25.16 | 2:45.13 | 87391 | 99778
7 | 22:10.29 | 3:07.41 | 99779 | 113844
8 | 25:17.70 | 3:51.33 | 113845 | 131202
9 | 29:09.28 | 4:01.41 | 131203 | 149318
10 | 33:10.69 | 5:11.25 | 149319 | 172668
11 | 38:22.19 | 3:40.33 | 172669 | 189201
12 | 42:02.52 | 4:01.22 | 189202 | 207298
13 | 46:03.74 | 4:15.00 | 207299 | 226423
14 | 50:18.74 | 4:01.63 | 226424 | 244561
15 | 54:20.62 | 3:21.07 | 244562 | 259643
16 | 57:41.69 | 4:02.36 | 259644 | 277829
17 | 61:44.30 | 6:22.03 | 277830 | 306482
18 | 68:06.33 | 2:54.20 | 306483 | 319552
19 | 71:00.53 | 2:59.30 | 319553 | 333007
20 | 74:00.08 | 3:07.11 | 333008 | 347043
Характеристики диапазона извлечения и сообщения об ошибках
Выбранный диапазон
Имя файла E:\Best Of Funk\cd1 - Best Of Funk.wav
Пиковый уровень 100.0 %
Качество диапазона 99.9 %
CRC теста 301E5359
CRC копии 34E18112
Копирование... OK
Ошибок не произошло
AccurateRip: сводка
Трек 1 точное извлечение (доверие 1) [B1EB6F72]
Трек 2 точное извлечение (доверие 1) [86246722]
Трек 3 точное извлечение (доверие 1) [3017BA28]
Трек 4 точное извлечение (доверие 1) [96F27AB0]
Трек 5 точное извлечение (доверие 1) [2FD82C59]
Трек 6 точное извлечение (доверие 1) [E4984B22]
Трек 7 точное извлечение (доверие 1) [6A39242E]
Трек 8 точное извлечение (доверие 1) [26FC6138]
Трек 9 точное извлечение (доверие 1) [E0A85005]
Трек 10 точное извлечение (доверие 1) [112D659C]
Трек 11 точное извлечение (доверие 1) [BE7D668A]
Трек 12 точное извлечение (доверие 1) [DE849478]
Трек 13 точное извлечение (доверие 1) [65C55D46]
Трек 14 точное извлечение (доверие 1) [1E34A6C5]
Трек 15 точное извлечение (доверие 1) [EFDEB096]
Трек 16 точное извлечение (доверие 1) [3176273C]
Трек 17 точное извлечение (доверие 1) [FF91E89C]
Трек 18 точное извлечение (доверие 1) [ADC0FC3C]
Трек 19 точное извлечение (доверие 1) [0F5DAB88]
Трек 20 точное извлечение (доверие 1) [758F701A]
Все треки извлечены точно
Конец отчёта
 Exact Audio Copy V0.99 prebeta 5 from 4. May 2009
Отчёт EAC об извлечении, выполненном 15. мая 2010, 15:24
Various / Best Of Funk
Дисковод: PIONEER DVD-RW DVR-112D Adapter: 0 ID: 0
Режим чтения : Достоверность
Использование точного потока : Да
Отключение кэша аудио : Да
Использование указателей C2 : Нет
Коррекция смещения при чтении : 48
Способность читать области Lead-in и Lead-out : Нет
Заполнение пропущенных сэмплов тишиной : Да
Удаление блоков с тишиной в начале и конце : Нет
При вычислениях CRC использовались нулевые сэмплы : Да
Интерфейс : Встроенный Win32-интерфейс для Win NT/2000
Выходной формат : Внутренние WAV-операции
Формат сэмплов : 44.100 Гц; 16 бит; стерео
TOC извлечённого CD
Трек | Старт | Длительность | Начальный сектор | Конечный сектор
---------------------------------------------------------------------
1 | 0:00.00 | 3:16.66 | 0 | 14765
2 | 3:16.66 | 4:26.38 | 14766 | 34753
3 | 7:43.29 | 4:21.25 | 34754 | 54353
4 | 12:04.54 | 3:43.73 | 54354 | 71151
5 | 15:48.52 | 4:01.57 | 71152 | 89283
6 | 19:50.34 | 3:02.08 | 89284 | 102941
7 | 22:52.42 | 6:12.64 | 102942 | 130905
8 | 29:05.31 | 3:12.33 | 130906 | 145338
9 | 32:17.64 | 3:08.62 | 145339 | 159500
10 | 35:26.51 | 3:10.70 | 159501 | 173820
11 | 38:37.46 | 4:28.14 | 173821 | 193934
12 | 43:05.60 | 3:29.72 | 193935 | 209681
13 | 46:35.57 | 3:06.52 | 209682 | 223683
14 | 49:42.34 | 2:59.35 | 223684 | 237143
15 | 52:41.69 | 4:04.29 | 237144 | 255472
16 | 56:46.23 | 3:51.38 | 255473 | 272835
17 | 60:37.61 | 3:05.23 | 272836 | 286733
18 | 63:43.09 | 2:43.27 | 286734 | 298985
19 | 66:26.36 | 2:59.56 | 298986 | 312466
20 | 69:26.17 | 4:51.73 | 312467 | 334364
Характеристики диапазона извлечения и сообщения об ошибках
Выбранный диапазон
Имя файла E:\Best Of Funk\cd2 - Best Of Funk.wav
Пиковый уровень 100.0 %
Качество диапазона 99.9 %
CRC теста 23866635
CRC копии 23866635
Копирование... OK
Ошибок не произошло
AccurateRip: сводка
Трек 1 точное извлечение (доверие 1) [C1C8F07F]
Трек 2 точное извлечение (доверие 1) [DF100179]
Трек 3 точное извлечение (доверие 1) [DFA84489]
Трек 4 точное извлечение (доверие 1) [B42C2561]
Трек 5 точное извлечение (доверие 1) [839205B2]
Трек 6 точное извлечение (доверие 1) [5884B79D]
Трек 7 точное извлечение (доверие 1) [B28B2C29]
Трек 8 точное извлечение (доверие 1) [484D1802]
Трек 9 точное извлечение (доверие 1) [043A02FB]
Трек 10 точное извлечение (доверие 1) [F18C6843]
Трек 11 точное извлечение (доверие 1) [B76FDC87]
Трек 12 точное извлечение (доверие 1) [6B2AAEA9]
Трек 13 точное извлечение (доверие 1) [B446C883]
Трек 14 точное извлечение (доверие 1) [6CE73237]
Трек 15 точное извлечение (доверие 1) [00015AE6]
Трек 16 точное извлечение (доверие 1) [2C1E69C9]
Трек 17 точное извлечение (доверие 1) [444E0967]
Трек 18 точное извлечение (доверие 1) [862CF861]
Трек 19 точное извлечение (доверие 1) [B7B4EBD1]
Трек 20 точное извлечение (доверие 1) [CA4240B0]
Все треки извлечены точно
Конец отчёта

[1.06 GB] Скачать / Download