George Michael: Live in London - Скачать

Страна: England
Жанр: Pop, Rock
Продолжительность: 02:13:24+00:18:58+00:42:09
Год выпуска: 2017

Описание: Live in London is a live concert recording of George Michael's final two concerts in London's Earls Court on 24 and 25 August 2008 as part of his 25 Live tour. This is the first live DVD of George Michael's career. It was released on DVD (two discs release) and Blu-ray (one BD with DTS-HD Master Audio and Dolby Digital 5.1 multichannel sound) formats on 7 December 2009 in the UK, Europe and Australia, and on 8 December 2009 in the USA and Canada.
The DVD had subtitles for spoken portions of the DVD in several languages. The highly anticipated shows on the DVD marked the end of George Michael's triumphant 25 Live Tour and were the last chance to catch Michael performing on a stage of this magnitude in London.

Доп. информация: ИсходникBlu-ray(спасибо), иDVD9+DVD5(спасибо).
Сделано по заявке
Отдельная благодарность, за его поддержку и неоценимую помощь при создании данного релиза.

Меню : статическое, озвученное, создано на основе исходного.
Полученный результат проверен на работоспособность на софтовом плеере Media Player Classic Home Cinema, записан на болванку с помощью ImgBurn и проверен на бытовом плеере.


Disk one
Разбивка на главы по трекам: есть
Качество: DVD9
Формат: DVD video
Видео кодек: MPEG2
Аудио кодек: PCM, DTS
Видео: PAL 16:9 (720x576р) VBR Auto Letterboxed ~5506 kbps, 25 fps
Аудио: English (LinearPCM, 2 ch) / 48 kHz / 1536 kbps
Аудио2: English (DTS, 6 ch) / 48 kHz / 755 kbps
Disk two (bonus tracks)
Разбивка на главы по трекам: есть
Качество: DVD5
Формат: DVD video
Видео кодек: MPEG2
Аудио кодек: PCM, DTS
Видео: PAL 16:9 (720x576р) VBR Auto Letterboxed ~6016 kbps, 25 fps
Аудио: English (LinearPCM, 2 ch) / 48 kHz / 1536 kbps
Аудио2: English (DTS, 6 ch) / 48 kHz / 755 kbps

дискография, трек, download, бесплатно, lossless, cd, альбом, высокое качество, музыка, альбом, soundtrack, песни, torrent, поп-музыка, pop-music, скачать, торрент, композиции, mp3, поп, pop

Disk one
1. Waiting (Reprise)
2. Fast love
3. I’m Your Man
4. Flawless (Go To The City)
5. Father Figure
6. You Have Been Loved
7. An Easier Affair
8. Everything She Wants
9. One More Try
10. A Different Corner
11. Too Funky
12. Shoot The Dog
13. John And Elvis Are Dead
14. Faith
15. Spinning The Wheel
16. Feeling Good
17. Roxanne
18. My Mother Had A Brother
19. Amazing
20. Fantasy
21. Outside
22. Careless Whisper
23. Freedom ’90
Disk two (bonus tracks)
“I’d Know Him A Mile Off!” Documentary
1. Precious Box
2. Jesus To A Child
3. First Time Ever
1. Waiting (Reprise)
2. Fast love
3. I’m Your Man
4. Flawless (Go To The City)
5. Father Figure
6. You Have Been Loved
7. An Easier Affair
8. Everything She Wants
9. One More Try
10. A Different Corner
11. Too Funky
12. Shoot The Dog
13. John And Elvis Are Dead
14. Faith
15. Spinning The Wheel
16. Feeling Good
17. Roxanne
18. My Mother Had A Brother
19. Amazing
20. Fantasy
21. Outside
22. Careless Whisper
23. Freedom ’90
“I’d Know Him A Mile Off!” Documentary
1. Precious Box
2. Jesus To A Child
3. First Time Ever
Поскольку качество перекодированного из BD видео заметно уступало качеству официального DVD, было принято решение оставить оригинальное DVD видео и только поменять аудио.
Для уменьшения пиковых значениях битрейта видео, пришлось пропустить видео через кодировщик.

Значение реального битрейта оставлено исходным.
Демуксинг
eac3to
HdBrStreamExtractor
PgcDemux
Обработка видео
Rhozet Carbon Coder
Обработка аудио
Audacity
DTS-HD Master Audio Suite Encoder
Создание меню, Редактирование, Авторинг и проверка
Muxman
MPEG Video Wizard DVD
DVD-lab PRO
DvdReMakePro
Официальное издание DVD9
Аудио
DVD9+DVD5
Аудио: English (Dolby AC3, 2 ch) 256 Kbps
Аудио2: English (Dolby AC3, 6 ch) 448 Kbps
DVD9+DVD5 (Custom)
Аудио: English (LinearPCM, 2 ch) 1536 Kbps
Аудио2: English (DTS, 6 ch) 755 Kbps
DVD9+DVD5
Аудио: English (Dolby AC3, 2 ch) 256 Kbps
Аудио2: English (Dolby AC3, 6 ch) 448 Kbps
DVD9+DVD5 (Custom)
Аудио: English (LinearPCM, 2 ch) 1536 Kbps
Аудио2: English (DTS, 6 ch) 755 Kbps
 Title: Mux
Size: 7.42 Gb ( 7 777 744,00 KBytes ) - DVD-9
Enabled regions: 1, 2, 3, 4, 5, 6, 7, 8
VTS_01 :
Play Length: 02:13:24
Video: PAL 16:9 (720x576) VBR, Auto Letterboxed
Audio:
English (LinearPCM, 2 ch)
English (DTS, 6 ch)
* Menus Information *
VIDEO_TS Menu
Video:
PAL 16:9 (720x576) VBR
Auto Letterboxed
Audio:
Not specified (Dolby AC3, 2 ch)
English Language Unit :
Title Menu
VTS_01 Menu
Video:
PAL 16:9 (720x576) VBR
Auto Letterboxed
Audio:
Not specified (Dolby AC3, 2 ch)
English Language Unit :
Root Menu
 Общее
Полное имя : M:\George Michael Live in London\Disk One\VIDEO_TS\VIDEO_TS.BUP
Формат : DVD Video
Профиль формата : Menu
Размер файла : 12,0 Кбайт
Режим общего битрейта : Переменный
Видео
Идентификатор : 224 (0xE0)
Формат : MPEG Video
Версия формата : Version 2
Вид битрейта : Переменный
Ширина : 720 пикселей
Высота : 576 пикселей
Соотношение сторон : 16:9
Частота кадров : 25,000 кадров/сек
Стандарт вещания : PAL
Метод сжатия : С потерями
Аудио
Формат : AC-3
Формат/Информация : Audio Coding 3
Каналы : 2 канала
Частота : 48,0 КГц
Метод сжатия : С потерями
Текст
Формат : RLE
Формат/Информация : Run-length encoding
Битовая глубина : 2 бит
Общее
Полное имя : M:\George Michael Live in London\Disk One\VIDEO_TS\VIDEO_TS.IFO
Формат : DVD Video
Профиль формата : Menu
Размер файла : 12,0 Кбайт
Режим общего битрейта : Переменный
Видео
Идентификатор : 224 (0xE0)
Формат : MPEG Video
Версия формата : Version 2
Вид битрейта : Переменный
Ширина : 720 пикселей
Высота : 576 пикселей
Соотношение сторон : 16:9
Частота кадров : 25,000 кадров/сек
Стандарт вещания : PAL
Метод сжатия : С потерями
Аудио
Формат : AC-3
Формат/Информация : Audio Coding 3
Каналы : 2 канала
Частота : 48,0 КГц
Метод сжатия : С потерями
Текст
Формат : RLE
Формат/Информация : Run-length encoding
Битовая глубина : 2 бит
Общее
Полное имя : M:\George Michael Live in London\Disk One\VIDEO_TS\VIDEO_TS.VOB
Формат : MPEG-PS
Размер файла : 8,18 Мбайт
Продолжительность : 33 с. 40 мс.
Режим общего битрейта : Переменный
Общий поток : 2077 Кбит/сек
Видео
Идентификатор : 224 (0xE0)
Формат : MPEG Video
Версия формата : Version 2
Профиль формата : [email protected]
Параметр BVOP формата : Да
Параметр матрицы формата : По умолчанию
Параметр GOP формата : M=3, N=12
Продолжительность : 33 с. 40 мс.
Вид битрейта : Переменный
Битрейт : 1844 Кбит/сек
Максимальный битрейт : 3593 Кбит/сек
Ширина : 720 пикселей
Высота : 576 пикселей
Соотношение сторон : 16:9
Частота кадров : 25,000 кадров/сек
Стандарт вещания : PAL
Цветовое пространство : YUV
Субдискретизация насыщенности : 4:2:0
Битовая глубина : 8 бит
Тип развёртки : Прогрессивная
Метод сжатия : С потерями
Бит/(Пиксели*Кадры) : 0.178
Временной код первого кадра : 00:00:00:00
Оригинал временного кода : Group of pictures header
GOP, открыто/закрыто : Закрыто
Размер потока : 7,26 Мбайт (89%)
Основные цвета : BT.601 PAL
Характеристики трансфера : BT.470 System B, BT.470 System G
Коэффициенты матрицы : BT.601
Аудио
Идентификатор : 189 (0xBD)-128 (0x80)
Формат : AC-3
Формат/Информация : Audio Coding 3
Расширение режима : CM (complete main)
Параметр Endianness формата : Big
Режим смешивания : DVD-Video
Продолжительность : 32 с. 864 мс.
Вид битрейта : Постоянный
Битрейт : 192 Кбит/сек
Каналы : 2 канала
Расположение каналов : Front: L R
Частота : 48,0 КГц
Частота кадров : 31,250 кадров/сек (1536 spf)
Битовая глубина : 16 бит
Метод сжатия : С потерями
Размер потока : 770 Кбайт (9%)
Текст #1
Идентификатор : 189 (0xBD)-32 (0x20)
Формат : RLE
Формат/Информация : Run-length encoding
Режим смешивания : DVD-Video
Текст #2
Идентификатор : 189 (0xBD)-34 (0x22)
Формат : RLE
Формат/Информация : Run-length encoding
Режим смешивания : DVD-Video
Меню
Общее
Полное имя : M:\George Michael Live in London\Disk One\VIDEO_TS\VTS_01_0.BUP
Формат : DVD Video
Профиль формата : Program
Размер файла : 76,0 Кбайт
Продолжительность : 2 ч. 13 м.
Режим общего битрейта : Переменный
Общий поток : 78 бит/сек
Видео
Идентификатор : 224 (0xE0)
Формат : MPEG Video
Версия формата : Version 2
Продолжительность : 2 ч. 13 м.
Вид битрейта : Переменный
Ширина : 720 пикселей
Высота : 576 пикселей
Соотношение сторон : 16:9
Частота кадров : 25,000 кадров/сек
Стандарт вещания : PAL
Метод сжатия : С потерями
Аудио #1
Идентификатор : 0 (0x0)
Формат : PCM
Продолжительность : 2 ч. 13 м.
Каналы : 2 канала
Частота : 48,0 КГц
Язык : English
Аудио #2
Идентификатор : 137 (0x89)
Формат : DTS
Формат/Информация : Digital Theater Systems
Продолжительность : 2 ч. 13 м.
Каналы : 6 каналов
Частота : 48,0 КГц
Метод сжатия : С потерями
Язык : English
Меню
Продолжительность : 2 ч. 13 м.
00:00:00.000 : Chapter 1
00:01:41.720 : Chapter 2
00:04:29.040 : Chapter 3
00:10:07.000 : Chapter 4
00:16:13.880 : Chapter 5
00:21:25.480 : Chapter 6
00:27:37.440 : Chapter 7
00:33:14.680 : Chapter 8
00:38:07.160 : Chapter 9
00:45:03.120 : Chapter 10
00:50:13.160 : Chapter 11
00:54:20.960 : Chapter 12
00:58:47.480 : Chapter 13
01:01:52.520 : Chapter 14
01:06:09.360 : Chapter 15
01:09:31.920 : Chapter 16
01:19:44.200 : Chapter 17
01:23:44.760 : Chapter 18
01:28:21.360 : Chapter 19
01:35:26.600 : Chapter 20
01:41:40.480 : Chapter 21
01:47:04.200 : Chapter 22
01:52:56.440 : Chapter 23
02:00:33.520 : Chapter 24
02:09:19.520 : Chapter 25
02:13:23.120 : Chapter 26
List (Audio) : 0 / 1
Общее
Полное имя : M:\George Michael Live in London\Disk One\VIDEO_TS\VTS_01_0.IFO
Формат : DVD Video
Профиль формата : Program
Размер файла : 76,0 Кбайт
Продолжительность : 2 ч. 13 м.
Режим общего битрейта : Переменный
Общий поток : 78 бит/сек
Видео
Идентификатор : 224 (0xE0)
Формат : MPEG Video
Версия формата : Version 2
Продолжительность : 2 ч. 13 м.
Вид битрейта : Переменный
Ширина : 720 пикселей
Высота : 576 пикселей
Соотношение сторон : 16:9
Частота кадров : 25,000 кадров/сек
Стандарт вещания : PAL
Метод сжатия : С потерями
Аудио #1
Идентификатор : 0 (0x0)
Формат : PCM
Продолжительность : 2 ч. 13 м.
Каналы : 2 канала
Частота : 48,0 КГц
Язык : English
Аудио #2
Идентификатор : 137 (0x89)
Формат : DTS
Формат/Информация : Digital Theater Systems
Продолжительность : 2 ч. 13 м.
Каналы : 6 каналов
Частота : 48,0 КГц
Метод сжатия : С потерями
Язык : English
Меню
Продолжительность : 2 ч. 13 м.
00:00:00.000 : Chapter 1
00:01:41.720 : Chapter 2
00:04:29.040 : Chapter 3
00:10:07.000 : Chapter 4
00:16:13.880 : Chapter 5
00:21:25.480 : Chapter 6
00:27:37.440 : Chapter 7
00:33:14.680 : Chapter 8
00:38:07.160 : Chapter 9
00:45:03.120 : Chapter 10
00:50:13.160 : Chapter 11
00:54:20.960 : Chapter 12
00:58:47.480 : Chapter 13
01:01:52.520 : Chapter 14
01:06:09.360 : Chapter 15
01:09:31.920 : Chapter 16
01:19:44.200 : Chapter 17
01:23:44.760 : Chapter 18
01:28:21.360 : Chapter 19
01:35:26.600 : Chapter 20
01:41:40.480 : Chapter 21
01:47:04.200 : Chapter 22
01:52:56.440 : Chapter 23
02:00:33.520 : Chapter 24
02:09:19.520 : Chapter 25
02:13:23.120 : Chapter 26
List (Audio) : 0 / 1
Общее
Полное имя : M:\George Michael Live in London\Disk One\VIDEO_TS\VTS_01_0.VOB
Формат : MPEG-PS
Размер файла : 6,84 Мбайт
Продолжительность : 1 м. 0 с.
Режим общего битрейта : Переменный
Общий поток : 955 Кбит/сек
Видео
Идентификатор : 224 (0xE0)
Формат : MPEG Video
Версия формата : Version 2
Профиль формата : [email protected]
Параметр BVOP формата : Нет
Параметр матрицы формата : По умолчанию
Продолжительность : 40 мс.
Вид битрейта : Переменный
Битрейт : 744 Кбит/сек
Максимальный битрейт : 9000 Кбит/сек
Ширина : 720 пикселей
Высота : 576 пикселей
Соотношение сторон : 16:9
Частота кадров : 25,000 кадров/сек
Стандарт вещания : PAL
Цветовое пространство : YUV
Субдискретизация насыщенности : 4:2:0
Битовая глубина : 8 бит
Тип развёртки : Прогрессивная
Порядок развёртки : Верхнее поле первое
Метод сжатия : С потерями
Бит/(Пиксели*Кадры) : 0.072
Размер потока : 3,63 Кбайт (0%)
Основные цвета : BT.601 PAL
Характеристики трансфера : BT.470 System B, BT.470 System G
Коэффициенты матрицы : BT.601
Аудио
Идентификатор : 189 (0xBD)-128 (0x80)
Формат : AC-3
Формат/Информация : Audio Coding 3
Расширение режима : CM (complete main)
Параметр Endianness формата : Big
Режим смешивания : DVD-Video
Продолжительность : 1 м. 0 с.
Вид битрейта : Постоянный
Битрейт : 192 Кбит/сек
Каналы : 2 канала
Расположение каналов : Front: L R
Частота : 48,0 КГц
Частота кадров : 31,250 кадров/сек (1536 spf)
Битовая глубина : 16 бит
Метод сжатия : С потерями
Размер потока : 1,38 Мбайт (20%)
Текст #1
Идентификатор : 189 (0xBD)-32 (0x20)
Формат : RLE
Формат/Информация : Run-length encoding
Режим смешивания : DVD-Video
Продолжительность : 192 мс.
Текст #2
Идентификатор : 189 (0xBD)-34 (0x22)
Формат : RLE
Формат/Информация : Run-length encoding
Режим смешивания : DVD-Video
Продолжительность : 192 мс.
Меню
Продолжительность : 192 мс.
Общее
Полное имя : M:\George Michael Live in London\Disk One\VIDEO_TS\VTS_01_1.VOB
Формат : MPEG-PS
Размер файла : 1024 Мбайт
Продолжительность : 16 м. 40 с.
Режим общего битрейта : Переменный
Общий поток : 8585 Кбит/сек
Видео
Идентификатор : 224 (0xE0)
Формат : MPEG Video
Версия формата : Version 2
Профиль формата : [email protected]
Параметр BVOP формата : Да
Параметр матрицы формата : Выборочная
Параметр GOP формата : M=3, N=15
Структура изображения : Frame
Продолжительность : 16 м. 40 с.
Вид битрейта : Переменный
Битрейт : 6124 Кбит/сек
Максимальный битрейт : 7500 Кбит/сек
Ширина : 720 пикселей
Высота : 576 пикселей
Соотношение сторон : 16:9
Частота кадров : 25,000 кадров/сек
Стандарт вещания : PAL
Цветовое пространство : YUV
Субдискретизация насыщенности : 4:2:0
Битовая глубина : 8 бит
Тип развёртки : Чересстрочная
Порядок развёртки : Верхнее поле первое
Метод сжатия : С потерями
Бит/(Пиксели*Кадры) : 0.591
Временной код первого кадра : 09:59:59:00
Оригинал временного кода : Group of pictures header
Размер потока : 730 Мбайт (71%)
Аудио #1
Идентификатор : 189 (0xBD)-137 (0x89)
Формат : DTS
Формат/Информация : Digital Theater Systems
Режим : 16
Параметр Endianness формата : Big
Режим смешивания : DVD-Video
Продолжительность : 16 м. 40 с.
Вид битрейта : Постоянный
Битрейт : 755 Кбит/сек
Каналы : 6 каналов
Расположение каналов : Front: L C R, Side: L R, LFE
Частота : 48,0 КГц
Частота кадров : 93,750 кадра/сек (512 spf)
Битовая глубина : 24 бит
Метод сжатия : С потерями
Размер потока : 90,0 Мбайт (9%)
Аудио #2
Идентификатор : 189 (0xBD)-160 (0xA0)
Формат : PCM
Параметр Endianness формата : Big
Параметр Sign формата : Signed
Режим смешивания : DVD-Video
Продолжительность : 16 м. 40 с.
Вид битрейта : Постоянный
Битрейт : 1536 Кбит/сек
Каналы : 2 канала
Частота : 48,0 КГц
Битовая глубина : 16 бит
Размер потока : 183 Мбайт (18%)
Меню
Продолжительность : 16 м. 40 с.
Общее
Полное имя : M:\George Michael Live in London\Disk One\VIDEO_TS\VTS_01_2.VOB
Формат : MPEG-PS
Размер файла : 1024 Мбайт
Продолжительность : 18 м. 45 с.
Режим общего битрейта : Переменный
Общий поток : 7630 Кбит/сек
Видео
Идентификатор : 224 (0xE0)
Формат : MPEG Video
Версия формата : Version 2
Профиль формата : [email protected]
Параметр BVOP формата : Да
Параметр матрицы формата : Выборочная
Параметр GOP формата : M=3, N=15
Структура изображения : Frame
Продолжительность : 18 м. 45 с.
Вид битрейта : Переменный
Битрейт : 5188 Кбит/сек
Максимальный битрейт : 7500 Кбит/сек
Ширина : 720 пикселей
Высота : 576 пикселей
Соотношение сторон : 16:9
Частота кадров : 25,000 кадров/сек
Стандарт вещания : PAL
Цветовое пространство : YUV
Субдискретизация насыщенности : 4:2:0
Битовая глубина : 8 бит
Тип развёртки : Чересстрочная
Порядок развёртки : Верхнее поле первое
Метод сжатия : С потерями
Бит/(Пиксели*Кадры) : 0.500
Временной код первого кадра : 10:16:39:22
Оригинал временного кода : Group of pictures header
GOP, открыто/закрыто : Открыто
Размер потока : 696 Мбайт (68%)
Аудио #1
Идентификатор : 189 (0xBD)-137 (0x89)
Формат : DTS
Формат/Информация : Digital Theater Systems
Режим : 16
Параметр Endianness формата : Big
Режим смешивания : DVD-Video
Продолжительность : 18 м. 45 с.
Вид битрейта : Постоянный
Битрейт : 755 Кбит/сек
Каналы : 6 каналов
Расположение каналов : Front: L C R, Side: L R, LFE
Частота : 48,0 КГц
Частота кадров : 93,750 кадра/сек (512 spf)
Битовая глубина : 24 бит
Метод сжатия : С потерями
Задержка видео : -683 мс.
Размер потока : 101 Мбайт (10%)
Аудио #2
Идентификатор : 189 (0xBD)-160 (0xA0)
Формат : PCM
Параметр Endianness формата : Big
Параметр Sign формата : Signed
Режим смешивания : DVD-Video
Продолжительность : 18 м. 45 с.
Вид битрейта : Постоянный
Битрейт : 1536 Кбит/сек
Каналы : 2 канала
Частота : 48,0 КГц
Битовая глубина : 16 бит
Задержка видео : -693 мс.
Размер потока : 206 Мбайт (20%)
Меню
Продолжительность : 18 м. 45 с.
Общее
Полное имя : M:\George Michael Live in London\Disk One\VIDEO_TS\VTS_01_3.VOB
Формат : MPEG-PS
Размер файла : 1024 Мбайт
Продолжительность : 18 м. 5 с.
Режим общего битрейта : Переменный
Общий поток : 7916 Кбит/сек
Видео
Идентификатор : 224 (0xE0)
Формат : MPEG Video
Версия формата : Version 2
Профиль формата : [email protected]
Параметр BVOP формата : Да
Параметр матрицы формата : Выборочная
Параметр GOP формата : Variable
Структура изображения : Frame
Продолжительность : 18 м. 5 с.
Вид битрейта : Переменный
Битрейт : 5468 Кбит/сек
Максимальный битрейт : 7500 Кбит/сек
Ширина : 720 пикселей
Высота : 576 пикселей
Соотношение сторон : 16:9
Частота кадров : 25,000 кадров/сек
Стандарт вещания : PAL
Цветовое пространство : YUV
Субдискретизация насыщенности : 4:2:0
Битовая глубина : 8 бит
Тип развёртки : Чересстрочная
Порядок развёртки : Верхнее поле первое
Метод сжатия : С потерями
Бит/(Пиксели*Кадры) : 0.527
Временной код первого кадра : 10:35:25:14
Оригинал временного кода : Group of pictures header
Размер потока : 707 Мбайт (69%)
Аудио #1
Идентификатор : 189 (0xBD)-137 (0x89)
Формат : DTS
Формат/Информация : Digital Theater Systems
Режим : 16
Параметр Endianness формата : Big
Режим смешивания : DVD-Video
Продолжительность : 18 м. 5 с.
Вид битрейта : Постоянный
Битрейт : 755 Кбит/сек
Каналы : 6 каналов
Расположение каналов : Front: L C R, Side: L R, LFE
Частота : 48,0 КГц
Частота кадров : 93,750 кадра/сек (512 spf)
Битовая глубина : 24 бит
Метод сжатия : С потерями
Задержка видео : -560 мс.
Размер потока : 97,6 Мбайт (10%)
Аудио #2
Идентификатор : 189 (0xBD)-160 (0xA0)
Формат : PCM
Параметр Endianness формата : Big
Параметр Sign формата : Signed
Режим смешивания : DVD-Video
Продолжительность : 18 м. 5 с.
Вид битрейта : Постоянный
Битрейт : 1536 Кбит/сек
Каналы : 2 канала
Частота : 48,0 КГц
Битовая глубина : 16 бит
Задержка видео : -575 мс.
Размер потока : 199 Мбайт (19%)
Меню
Продолжительность : 18 м. 5 с.
Общее
Полное имя : M:\George Michael Live in London\Disk One\VIDEO_TS\VTS_01_4.VOB
Формат : MPEG-PS
Размер файла : 1024 Мбайт
Продолжительность : 16 м. 37 с.
Режим общего битрейта : Переменный
Общий поток : 8607 Кбит/сек
Видео
Идентификатор : 224 (0xE0)
Формат : MPEG Video
Версия формата : Version 2
Профиль формата : [email protected]
Параметр BVOP формата : Да
Параметр матрицы формата : Выборочная
Параметр GOP формата : M=3, N=15
Структура изображения : Frame
Продолжительность : 16 м. 37 с.
Вид битрейта : Переменный
Битрейт : 6146 Кбит/сек
Максимальный битрейт : 7500 Кбит/сек
Ширина : 720 пикселей
Высота : 576 пикселей
Соотношение сторон : 16:9
Частота кадров : 25,000 кадров/сек
Стандарт вещания : PAL
Цветовое пространство : YUV
Субдискретизация насыщенности : 4:2:0
Битовая глубина : 8 бит
Тип развёртки : Чересстрочная
Порядок развёртки : Верхнее поле первое
Метод сжатия : С потерями
Бит/(Пиксели*Кадры) : 0.593
Временной код первого кадра : 10:53:30:19
Оригинал временного кода : Group of pictures header
GOP, открыто/закрыто : Открыто
Размер потока : 731 Мбайт (71%)
Аудио #1
Идентификатор : 189 (0xBD)-137 (0x89)
Формат : DTS
Формат/Информация : Digital Theater Systems
Режим : 16
Параметр Endianness формата : Big
Режим смешивания : DVD-Video
Продолжительность : 16 м. 37 с.
Вид битрейта : Постоянный
Битрейт : 755 Кбит/сек
Каналы : 6 каналов
Расположение каналов : Front: L C R, Side: L R, LFE
Частота : 48,0 КГц
Частота кадров : 93,750 кадра/сек (512 spf)
Битовая глубина : 24 бит
Метод сжатия : С потерями
Задержка видео : -619 мс.
Размер потока : 89,8 Мбайт (9%)
Аудио #2
Идентификатор : 189 (0xBD)-160 (0xA0)
Формат : PCM
Параметр Endianness формата : Big
Параметр Sign формата : Signed
Режим смешивания : DVD-Video
Продолжительность : 16 м. 37 с.
Вид битрейта : Постоянный
Битрейт : 1536 Кбит/сек
Каналы : 2 канала
Частота : 48,0 КГц
Битовая глубина : 16 бит
Задержка видео : -628 мс.
Размер потока : 183 Мбайт (18%)
Меню
Продолжительность : 16 м. 37 с.
Общее
Полное имя : M:\George Michael Live in London\Disk One\VIDEO_TS\VTS_01_5.VOB
Формат : MPEG-PS
Размер файла : 1024 Мбайт
Продолжительность : 18 м. 46 с.
Режим общего битрейта : Переменный
Общий поток : 7627 Кбит/сек
Видео
Идентификатор : 224 (0xE0)
Формат : MPEG Video
Версия формата : Version 2
Профиль формата : [email protected]
Параметр BVOP формата : Да
Параметр матрицы формата : Выборочная
Параметр GOP формата : M=3, N=15
Структура изображения : Frame
Продолжительность : 18 м. 46 с.
Вид битрейта : Переменный
Битрейт : 5185 Кбит/сек
Максимальный битрейт : 7500 Кбит/сек
Ширина : 720 пикселей
Высота : 576 пикселей
Соотношение сторон : 16:9
Частота кадров : 25,000 кадров/сек
Стандарт вещания : PAL
Цветовое пространство : YUV
Субдискретизация насыщенности : 4:2:0
Битовая глубина : 8 бит
Тип развёртки : Чересстрочная
Порядок развёртки : Верхнее поле первое
Метод сжатия : С потерями
Бит/(Пиксели*Кадры) : 0.500
Временной код первого кадра : 11:10:08:16
Оригинал временного кода : Group of pictures header
GOP, открыто/закрыто : Открыто
Размер потока : 696 Мбайт (68%)
Аудио #1
Идентификатор : 189 (0xBD)-137 (0x89)
Формат : DTS
Формат/Информация : Digital Theater Systems
Режим : 16
Параметр Endianness формата : Big
Режим смешивания : DVD-Video
Продолжительность : 18 м. 46 с.
Вид битрейта : Постоянный
Битрейт : 755 Кбит/сек
Каналы : 6 каналов
Расположение каналов : Front: L C R, Side: L R, LFE
Частота : 48,0 КГц
Частота кадров : 93,750 кадра/сек (512 spf)
Битовая глубина : 24 бит
Метод сжатия : С потерями
Задержка видео : -526 мс.
Размер потока : 101 Мбайт (10%)
Аудио #2
Идентификатор : 189 (0xBD)-160 (0xA0)
Формат : PCM
Параметр Endianness формата : Big
Параметр Sign формата : Signed
Режим смешивания : DVD-Video
Продолжительность : 18 м. 46 с.
Вид битрейта : Постоянный
Битрейт : 1536 Кбит/сек
Каналы : 2 канала
Частота : 48,0 КГц
Битовая глубина : 16 бит
Задержка видео : -554 мс.
Размер потока : 206 Мбайт (20%)
Меню
Продолжительность : 18 м. 46 с.
Общее
Полное имя : M:\George Michael Live in London\Disk One\VIDEO_TS\VTS_01_6.VOB
Формат : MPEG-PS
Размер файла : 1024 Мбайт
Продолжительность : 18 м. 32 с.
Режим общего битрейта : Переменный
Общий поток : 7724 Кбит/сек
Видео
Идентификатор : 224 (0xE0)
Формат : MPEG Video
Версия формата : Version 2
Профиль формата : [email protected]
Параметр BVOP формата : Да
Параметр матрицы формата : Выборочная
Параметр GOP формата : Variable
Структура изображения : Frame
Продолжительность : 18 м. 31 с.
Вид битрейта : Переменный
Битрейт : 5280 Кбит/сек
Максимальный битрейт : 7500 Кбит/сек
Ширина : 720 пикселей
Высота : 576 пикселей
Соотношение сторон : 16:9
Частота кадров : 25,000 кадров/сек
Стандарт вещания : PAL
Цветовое пространство : YUV
Субдискретизация насыщенности : 4:2:0
Битовая глубина : 8 бит
Тип развёртки : Чересстрочная
Порядок развёртки : Верхнее поле первое
Метод сжатия : С потерями
Бит/(Пиксели*Кадры) : 0.509
Временной код первого кадра : 11:28:55:04
Оригинал временного кода : Group of pictures header
GOP, открыто/закрыто : Открыто
Размер потока : 700 Мбайт (68%)
Аудио #1
Идентификатор : 189 (0xBD)-137 (0x89)
Формат : DTS
Формат/Информация : Digital Theater Systems
Режим : 16
Параметр Endianness формата : Big
Режим смешивания : DVD-Video
Продолжительность : 18 м. 32 с.
Вид битрейта : Постоянный
Битрейт : 755 Кбит/сек
Каналы : 6 каналов
Расположение каналов : Front: L C R, Side: L R, LFE
Частота : 48,0 КГц
Частота кадров : 93,750 кадра/сек (512 spf)
Битовая глубина : 24 бит
Метод сжатия : С потерями
Задержка видео : -859 мс.
Размер потока : 100 Мбайт (10%)
Аудио #2
Идентификатор : 189 (0xBD)-160 (0xA0)
Формат : PCM
Параметр Endianness формата : Big
Параметр Sign формата : Signed
Режим смешивания : DVD-Video
Продолжительность : 18 м. 32 с.
Вид битрейта : Постоянный
Битрейт : 1536 Кбит/сек
Каналы : 2 канала
Частота : 48,0 КГц
Битовая глубина : 16 бит
Задержка видео : -879 мс.
Размер потока : 204 Мбайт (20%)
Меню
Продолжительность : 18 м. 32 с.
Общее
Полное имя : M:\George Michael Live in London\Disk One\VIDEO_TS\VTS_01_7.VOB
Формат : MPEG-PS
Размер файла : 1024 Мбайт
Продолжительность : 18 м. 16 с.
Режим общего битрейта : Переменный
Общий поток : 7831 Кбит/сек
Видео
Идентификатор : 224 (0xE0)
Формат : MPEG Video
Версия формата : Version 2
Профиль формата : [email protected]
Параметр BVOP формата : Да
Параметр матрицы формата : Выборочная
Параметр GOP формата : M=3, N=15
Структура изображения : Frame
Продолжительность : 18 м. 16 с.
Вид битрейта : Переменный
Битрейт : 5385 Кбит/сек
Максимальный битрейт : 7500 Кбит/сек
Ширина : 720 пикселей
Высота : 576 пикселей
Соотношение сторон : 16:9
Частота кадров : 25,000 кадров/сек
Стандарт вещания : PAL
Цветовое пространство : YUV
Субдискретизация насыщенности : 4:2:0
Битовая глубина : 8 бит
Тип развёртки : Чересстрочная
Порядок развёртки : Верхнее поле первое
Метод сжатия : С потерями
Бит/(Пиксели*Кадры) : 0.519
Временной код первого кадра : 11:47:27:01
Оригинал временного кода : Group of pictures header
Размер потока : 704 Мбайт (69%)
Аудио #1
Идентификатор : 189 (0xBD)-137 (0x89)
Формат : DTS
Формат/Информация : Digital Theater Systems
Режим : 16
Параметр Endianness формата : Big
Режим смешивания : DVD-Video
Продолжительность : 18 м. 16 с.
Вид битрейта : Постоянный
Битрейт : 755 Кбит/сек
Каналы : 6 каналов
Расположение каналов : Front: L C R, Side: L R, LFE
Частота : 48,0 КГц
Частота кадров : 93,750 кадра/сек (512 spf)
Битовая глубина : 24 бит
Метод сжатия : С потерями
Задержка видео : -574 мс.
Размер потока : 98,7 Мбайт (10%)
Аудио #2
Идентификатор : 189 (0xBD)-160 (0xA0)
Формат : PCM
Параметр Endianness формата : Big
Параметр Sign формата : Signed
Режим смешивания : DVD-Video
Продолжительность : 18 м. 16 с.
Вид битрейта : Постоянный
Битрейт : 1536 Кбит/сек
Каналы : 2 канала
Частота : 48,0 КГц
Битовая глубина : 16 бит
Задержка видео : -592 мс.
Размер потока : 201 Мбайт (20%)
Меню
Продолжительность : 18 м. 16 с.
Общее
Полное имя : M:\George Michael Live in London\Disk One\VIDEO_TS\VTS_01_8.VOB
Формат : MPEG-PS
Размер файла : 412 Мбайт
Продолжительность : 7 м. 39 с.
Режим общего битрейта : Переменный
Общий поток : 7522 Кбит/сек
Видео
Идентификатор : 224 (0xE0)
Формат : MPEG Video
Версия формата : Version 2
Профиль формата : [email protected]
Параметр BVOP формата : Да
Параметр матрицы формата : Выборочная
Параметр GOP формата : Variable
Структура изображения : Frame
Продолжительность : 7 м. 39 с.
Вид битрейта : Переменный
Битрейт : 5082 Кбит/сек
Максимальный битрейт : 7500 Кбит/сек
Ширина : 720 пикселей
Высота : 576 пикселей
Соотношение сторон : 16:9
Частота кадров : 25,000 кадров/сек
Стандарт вещания : PAL
Цветовое пространство : YUV
Субдискретизация насыщенности : 4:2:0
Битовая глубина : 8 бит
Тип развёртки : Чересстрочная
Порядок развёртки : Верхнее поле первое
Метод сжатия : С потерями
Бит/(Пиксели*Кадры) : 0.490
Временной код первого кадра : 12:05:43:17
Оригинал временного кода : Group of pictures header
Размер потока : 279 Мбайт (68%)
Аудио #1
Идентификатор : 189 (0xBD)-137 (0x89)
Формат : DTS
Формат/Информация : Digital Theater Systems
Режим : 16
Параметр Endianness формата : Big
Режим смешивания : DVD-Video
Продолжительность : 7 м. 36 с.
Вид битрейта : Постоянный
Битрейт : 755 Кбит/сек
Каналы : 6 каналов
Расположение каналов : Front: L C R, Side: L R, LFE
Частота : 48,0 КГц
Частота кадров : 93,750 кадра/сек (512 spf)
Битовая глубина : 24 бит
Метод сжатия : С потерями
Задержка видео : -440 мс.
Размер потока : 41,1 Мбайт (10%)
Аудио #2
Идентификатор : 189 (0xBD)-160 (0xA0)
Формат : PCM
Параметр Endianness формата : Big
Параметр Sign формата : Signed
Режим смешивания : DVD-Video
Продолжительность : 7 м. 36 с.
Вид битрейта : Постоянный
Битрейт : 1536 Кбит/сек
Каналы : 2 канала
Частота : 48,0 КГц
Битовая глубина : 16 бит
Задержка видео : -464 мс.
Размер потока : 83,6 Мбайт (20%)
Меню
Продолжительность : 7 м. 36 с.
 Title: DVDVolume
Size: 3.60 Gb ( 3 775 216,00 KBytes ) - DVD-5
Enabled regions: 1, 2, 3, 4, 5, 6, 7, 8
VTS_01 :
Play Length: 00:18:58+00:42:09
Video: PAL 16:9 (720x576) VBR, Auto Letterboxed
Audio:
English (LinearPCM, 2 ch)
English (DTS, 6 ch)
* Menus Information *
VIDEO_TS Menu
Video:
PAL 16:9 (720x576) VBR
Auto Letterboxed
Audio:
Not specified (Dolby AC3, 2 ch)
English Language Unit :
Title Menu
VTS_01 Menu
Video:
PAL 16:9 (720x576) VBR
Auto Letterboxed
English Language Unit :
Root Menu
 Общее
Полное имя : C:\DVDVolume\VIDEO_TS\VIDEO_TS.BUP
Формат : DVD Video
Профиль формата : Menu
Размер файла : 12,0 Кбайт
Режим общего битрейта : Переменный
Видео
Идентификатор : 224 (0xE0)
Формат : MPEG Video
Версия формата : Version 2
Вид битрейта : Переменный
Ширина : 720 пикселей
Высота : 576 пикселей
Соотношение сторон : 16:9
Частота кадров : 25,000 кадров/сек
Стандарт вещания : PAL
Метод сжатия : С потерями
Аудио
Формат : AC-3
Формат/Информация : Audio Coding 3
Каналы : 2 канала
Частота : 48,0 КГц
Метод сжатия : С потерями
Текст
Формат : RLE
Формат/Информация : Run-length encoding
Битовая глубина : 2 бит
Общее
Полное имя : C:\DVDVolume\VIDEO_TS\VIDEO_TS.IFO
Формат : DVD Video
Профиль формата : Menu
Размер файла : 12,0 Кбайт
Режим общего битрейта : Переменный
Видео
Идентификатор : 224 (0xE0)
Формат : MPEG Video
Версия формата : Version 2
Вид битрейта : Переменный
Ширина : 720 пикселей
Высота : 576 пикселей
Соотношение сторон : 16:9
Частота кадров : 25,000 кадров/сек
Стандарт вещания : PAL
Метод сжатия : С потерями
Аудио
Формат : AC-3
Формат/Информация : Audio Coding 3
Каналы : 2 канала
Частота : 48,0 КГц
Метод сжатия : С потерями
Текст
Формат : RLE
Формат/Информация : Run-length encoding
Битовая глубина : 2 бит
Общее
Полное имя : C:\DVDVolume\VIDEO_TS\VIDEO_TS.VOB
Формат : MPEG-PS
Размер файла : 8,18 Мбайт
Продолжительность : 33 с. 40 мс.
Режим общего битрейта : Переменный
Общий поток : 2078 Кбит/сек
Видео
Идентификатор : 224 (0xE0)
Формат : MPEG Video
Версия формата : Version 2
Профиль формата : [email protected]
Параметр BVOP формата : Да
Параметр матрицы формата : По умолчанию
Параметр GOP формата : M=3, N=12
Продолжительность : 33 с. 40 мс.
Вид битрейта : Переменный
Битрейт : 1844 Кбит/сек
Максимальный битрейт : 3593 Кбит/сек
Ширина : 720 пикселей
Высота : 576 пикселей
Соотношение сторон : 16:9
Частота кадров : 25,000 кадров/сек
Стандарт вещания : PAL
Цветовое пространство : YUV
Субдискретизация насыщенности : 4:2:0
Битовая глубина : 8 бит
Тип развёртки : Прогрессивная
Метод сжатия : С потерями
Бит/(Пиксели*Кадры) : 0.178
Временной код первого кадра : 00:00:00:00
Оригинал временного кода : Group of pictures header
GOP, открыто/закрыто : Закрыто
Размер потока : 7,26 Мбайт (89%)
Основные цвета : BT.601 PAL
Характеристики трансфера : BT.470 System B, BT.470 System G
Коэффициенты матрицы : BT.601
Аудио
Идентификатор : 189 (0xBD)-128 (0x80)
Формат : AC-3
Формат/Информация : Audio Coding 3
Расширение режима : CM (complete main)
Параметр Endianness формата : Big
Режим смешивания : DVD-Video
Продолжительность : 32 с. 864 мс.
Вид битрейта : Постоянный
Битрейт : 192 Кбит/сек
Каналы : 2 канала
Расположение каналов : Front: L R
Частота : 48,0 КГц
Частота кадров : 31,250 кадров/сек (1536 spf)
Битовая глубина : 16 бит
Метод сжатия : С потерями
Размер потока : 770 Кбайт (9%)
Текст #1
Идентификатор : 189 (0xBD)-32 (0x20)
Формат : RLE
Формат/Информация : Run-length encoding
Режим смешивания : DVD-Video
Текст #2
Идентификатор : 189 (0xBD)-33 (0x21)
Формат : RLE
Формат/Информация : Run-length encoding
Режим смешивания : DVD-Video
Текст #3
Идентификатор : 189 (0xBD)-34 (0x22)
Формат : RLE
Формат/Информация : Run-length encoding
Режим смешивания : DVD-Video
Меню
Общее
Полное имя : C:\DVDVolume\VIDEO_TS\VTS_01_0.BUP
Формат : DVD Video
Профиль формата : Program
Размер файла : 52,0 Кбайт
Продолжительность : 42 м. 9 с.
Режим общего битрейта : Переменный
Общий поток : 168 бит/сек
Видео
Идентификатор : 224 (0xE0)
Формат : MPEG Video
Версия формата : Version 2
Продолжительность : 42 м. 9 с.
Вид битрейта : Переменный
Ширина : 720 пикселей
Высота : 576 пикселей
Соотношение сторон : 16:9
Частота кадров : 25,000 кадров/сек
Стандарт вещания : PAL
Метод сжатия : С потерями
Аудио #1
Идентификатор : 0 (0x0)
Формат : PCM
Продолжительность : 42 м. 9 с.
Каналы : 2 канала
Частота : 48,0 КГц
Язык : English
Аудио #2
Идентификатор : 137 (0x89)
Формат : DTS
Формат/Информация : Digital Theater Systems
Продолжительность : 42 м. 9 с.
Каналы : 6 каналов
Частота : 48,0 КГц
Метод сжатия : С потерями
Язык : English
Меню #1
Продолжительность : 18 м. 58 с.
00:00:00.000 : Chapter 1
00:06:58.280 : Chapter 2
00:13:46.440 : Chapter 3
00:18:57.240 : Chapter 4
List (Audio) : 0 / 1
Меню #2
Продолжительность : 42 м. 9 с.
00:00:00.000 : Chapter 1
List (Audio) : 0
Меню #3
Общее
Полное имя : C:\DVDVolume\VIDEO_TS\VTS_01_0.IFO
Формат : DVD Video
Профиль формата : Program
Размер файла : 52,0 Кбайт
Продолжительность : 42 м. 9 с.
Режим общего битрейта : Переменный
Общий поток : 168 бит/сек
Видео
Идентификатор : 224 (0xE0)
Формат : MPEG Video
Версия формата : Version 2
Продолжительность : 42 м. 9 с.
Вид битрейта : Переменный
Ширина : 720 пикселей
Высота : 576 пикселей
Соотношение сторон : 16:9
Частота кадров : 25,000 кадров/сек
Стандарт вещания : PAL
Метод сжатия : С потерями
Аудио #1
Идентификатор : 0 (0x0)
Формат : PCM
Продолжительность : 42 м. 9 с.
Каналы : 2 канала
Частота : 48,0 КГц
Язык : English
Аудио #2
Идентификатор : 137 (0x89)
Формат : DTS
Формат/Информация : Digital Theater Systems
Продолжительность : 42 м. 9 с.
Каналы : 6 каналов
Частота : 48,0 КГц
Метод сжатия : С потерями
Язык : English
Меню #1
Продолжительность : 18 м. 58 с.
00:00:00.000 : Chapter 1
00:06:58.280 : Chapter 2
00:13:46.440 : Chapter 3
00:18:57.240 : Chapter 4
List (Audio) : 0 / 1
Меню #2
Продолжительность : 42 м. 9 с.
00:00:00.000 : Chapter 1
List (Audio) : 0
Меню #3
Общее
Полное имя : C:\DVDVolume\VIDEO_TS\VTS_01_0.VOB
Формат : MPEG-PS
Размер файла : 220 Кбайт
Продолжительность : 40 мс.
Режим общего битрейта : Переменный
Общий поток : 45,1 Мбит/сек
Видео
Идентификатор : 224 (0xE0)
Формат : MPEG Video
Версия формата : Version 2
Профиль формата : [email protected]
Параметр BVOP формата : Нет
Параметр матрицы формата : По умолчанию
Продолжительность : 40 мс.
Вид битрейта : Переменный
Максимальный битрейт : 9000 Кбит/сек
Ширина : 720 пикселей
Высота : 576 пикселей
Соотношение сторон : 16:9
Частота кадров : 25,000 кадров/сек
Стандарт вещания : PAL
Цветовое пространство : YUV
Субдискретизация насыщенности : 4:2:0
Битовая глубина : 8 бит
Тип развёртки : Прогрессивная
Порядок развёртки : Верхнее поле первое
Метод сжатия : С потерями
Основные цвета : BT.601 PAL
Характеристики трансфера : BT.470 System B, BT.470 System G
Коэффициенты матрицы : BT.601
Текст #1
Идентификатор : 189 (0xBD)-32 (0x20)
Формат : RLE
Формат/Информация : Run-length encoding
Режим смешивания : DVD-Video
Текст #2
Идентификатор : 189 (0xBD)-33 (0x21)
Формат : RLE
Формат/Информация : Run-length encoding
Режим смешивания : DVD-Video
Текст #3
Идентификатор : 189 (0xBD)-34 (0x22)
Формат : RLE
Формат/Информация : Run-length encoding
Режим смешивания : DVD-Video
Меню
Общее
Полное имя : C:\DVDVolume\VIDEO_TS\VTS_01_1.VOB
Формат : MPEG-PS
Размер файла : 1000 Мбайт
Продолжительность : 16 м. 22 с.
Режим общего битрейта : Переменный
Общий поток : 8541 Кбит/сек
Видео
Идентификатор : 224 (0xE0)
Формат : MPEG Video
Версия формата : Version 2
Профиль формата : [email protected]
Параметр BVOP формата : Да
Параметр матрицы формата : Выборочная
Параметр GOP формата : M=3, N=15
Структура изображения : Frame
Продолжительность : 16 м. 22 с.
Вид битрейта : Переменный
Битрейт : 6081 Кбит/сек
Максимальный битрейт : 7500 Кбит/сек
Ширина : 720 пикселей
Высота : 576 пикселей
Соотношение сторон : 16:9
Частота кадров : 25,000 кадров/сек
Стандарт вещания : PAL
Цветовое пространство : YUV
Субдискретизация насыщенности : 4:2:0
Битовая глубина : 8 бит
Тип развёртки : Чересстрочная
Порядок развёртки : Верхнее поле первое
Метод сжатия : С потерями
Бит/(Пиксели*Кадры) : 0.586
Временной код первого кадра : 01:00:00:00
Оригинал временного кода : Group of pictures header
GOP, открыто/закрыто : Открыто
GOP, открыто/закрыто на первом кадре : Закрыто
Размер потока : 712 Мбайт (71%)
Аудио #1
Идентификатор : 189 (0xBD)-137 (0x89)
Формат : DTS
Формат/Информация : Digital Theater Systems
Режим : 16
Параметр Endianness формата : Big
Режим смешивания : DVD-Video
Продолжительность : 16 м. 22 с.
Вид битрейта : Постоянный
Битрейт : 755 Кбит/сек
Каналы : 6 каналов
Расположение каналов : Front: L C R, Side: L R, LFE
Частота : 48,0 КГц
Частота кадров : 93,750 кадра/сек (512 spf)
Битовая глубина : 24 бит
Метод сжатия : С потерями
Размер потока : 88,3 Мбайт (9%)
Аудио #2
Идентификатор : 189 (0xBD)-160 (0xA0)
Формат : PCM
Параметр Endianness формата : Big
Параметр Sign формата : Signed
Режим смешивания : DVD-Video
Продолжительность : 16 м. 22 с.
Вид битрейта : Постоянный
Битрейт : 1536 Кбит/сек
Каналы : 2 канала
Частота : 48,0 КГц
Битовая глубина : 16 бит
Размер потока : 180 Мбайт (18%)
Меню
Продолжительность : 16 м. 22 с.
Общее
Полное имя : C:\DVDVolume\VIDEO_TS\VTS_01_2.VOB
Формат : MPEG-PS
Размер файла : 1000 Мбайт
Продолжительность : 8 ч. 57 м.
Режим общего битрейта : Переменный
Общий поток : 260 Кбит/сек
Видео
Идентификатор : 224 (0xE0)
Формат : MPEG Video
Версия формата : Version 2
Профиль формата : [email protected]
Параметр BVOP формата : Да
Параметр матрицы формата : Выборочная
Параметр GOP формата : Variable
Структура изображения : Frame
Продолжительность : 8 ч. 57 м.
Вид битрейта : Переменный
Максимальный битрейт : 7500 Кбит/сек
Ширина : 720 пикселей
Высота : 576 пикселей
Соотношение сторон : 16:9
Частота кадров : 25,000 кадров/сек
Стандарт вещания : PAL
Цветовое пространство : YUV
Субдискретизация насыщенности : 4:2:0
Битовая глубина : 8 бит
Тип развёртки : Чересстрочная
Порядок развёртки : Верхнее поле первое
Метод сжатия : С потерями
Временной код первого кадра : 01:16:22:11
Оригинал временного кода : Group of pictures header
GOP, открыто/закрыто : Открыто
Аудио #1
Идентификатор : 189 (0xBD)-137 (0x89)
Формат : DTS
Формат/Информация : Digital Theater Systems
Режим : 16
Параметр Endianness формата : Big
Режим смешивания : DVD-Video
Продолжительность : 8 ч. 57 м.
Вид битрейта : Постоянный
Битрейт : 755 Кбит/сек
Каналы : 6 каналов
Расположение каналов : Front: L C R, Side: L R, LFE
Частота : 48,0 КГц
Частота кадров : 93,750 кадра/сек (512 spf)
Битовая глубина : 24 бит
Метод сжатия : С потерями
Задержка видео : -312 мс.
Размер потока : 2,83 Гбайт
Аудио #2
Идентификатор : 189 (0xBD)-160 (0xA0)
Формат : PCM
Параметр Endianness формата : Big
Параметр Sign формата : Signed
Режим смешивания : DVD-Video
Продолжительность : 8 ч. 57 м.
Вид битрейта : Постоянный
Битрейт : 1536 Кбит/сек
Каналы : 2 канала
Частота : 48,0 КГц
Битовая глубина : 16 бит
Задержка видео : -325 мс.
Размер потока : 5,77 Гбайт
Меню
Общее
Полное имя : C:\DVDVolume\VIDEO_TS\VTS_01_3.VOB
Формат : MPEG-PS
Размер файла : 1000 Мбайт
Продолжительность : 16 м. 22 с.
Режим общего битрейта : Переменный
Общий поток : 8533 Кбит/сек
Видео
Идентификатор : 224 (0xE0)
Формат : MPEG Video
Версия формата : Version 2
Профиль формата : [email protected]
Параметр BVOP формата : Да
Параметр матрицы формата : Выборочная
Параметр GOP формата : M=3, N=12
Структура изображения : Frame
Продолжительность : 16 м. 22 с.
Вид битрейта : Переменный
Битрейт : 6827 Кбит/сек
Максимальный битрейт : 9800 Кбит/сек
Ширина : 720 пикселей
Высота : 576 пикселей
Соотношение сторон : 16:9
Частота кадров : 25,000 кадров/сек
Стандарт вещания : PAL
Цветовое пространство : YUV
Субдискретизация насыщенности : 4:2:0
Битовая глубина : 8 бит
Тип развёртки : Чересстрочная
Порядок развёртки : Нижнее поле первое
Метод сжатия : С потерями
Бит/(Пиксели*Кадры) : 0.658
Временной код первого кадра : 10:14:05:01
Оригинал временного кода : Group of pictures header
GOP, открыто/закрыто : Открыто
Размер потока : 800 Мбайт (80%)
Аудио
Идентификатор : 189 (0xBD)-160 (0xA0)
Формат : PCM
Параметр Endianness формата : Big
Параметр Sign формата : Signed
Режим смешивания : DVD-Video
Продолжительность : 16 м. 22 с.
Вид битрейта : Постоянный
Битрейт : 1536 Кбит/сек
Каналы : 2 канала
Частота : 48,0 КГц
Битовая глубина : 16 бит
Задержка видео : -333 мс.
Размер потока : 180 Мбайт (18%)
Меню
Продолжительность : 16 м. 22 с.
Общее
Полное имя : C:\DVDVolume\VIDEO_TS\VTS_01_4.VOB
Формат : MPEG-PS
Размер файла : 678 Мбайт
Продолжительность : 11 м. 40 с.
Режим общего битрейта : Переменный
Общий поток : 8120 Кбит/сек
Видео
Идентификатор : 224 (0xE0)
Формат : MPEG Video
Версия формата : Version 2
Профиль формата : [email protected]
Параметр BVOP формата : Да
Параметр матрицы формата : Выборочная
Параметр GOP формата : Variable
Структура изображения : Frame
Продолжительность : 11 м. 40 с.
Вид битрейта : Переменный
Битрейт : 6422 Кбит/сек
Максимальный битрейт : 9800 Кбит/сек
Ширина : 720 пикселей
Высота : 576 пикселей
Соотношение сторон : 16:9
Частота кадров : 25,000 кадров/сек
Стандарт вещания : PAL
Цветовое пространство : YUV
Субдискретизация насыщенности : 4:2:0
Битовая глубина : 8 бит
Тип развёртки : Чересстрочная
Порядок развёртки : Нижнее поле первое
Метод сжатия : С потерями
Бит/(Пиксели*Кадры) : 0.619
Временной код первого кадра : 10:30:28:01
Оригинал временного кода : Group of pictures header
GOP, открыто/закрыто : Открыто
Размер потока : 536 Мбайт (79%)
Аудио
Идентификатор : 189 (0xBD)-160 (0xA0)
Формат : PCM
Параметр Endianness формата : Big
Параметр Sign формата : Signed
Режим смешивания : DVD-Video
Продолжительность : 11 м. 37 с.
Вид битрейта : Постоянный
Битрейт : 1536 Кбит/сек
Каналы : 2 канала
Частота : 48,0 КГц
Битовая глубина : 16 бит
Задержка видео : -343 мс.
Размер потока : 128 Мбайт (19%)
Меню
Продолжительность : 11 м. 37 с.

[11.02 GB] Скачать / Download