Helene Segara - En Concert A l'Olympia - Скачать

Год выпуска: 2001
Жанр: Pop.
Продолжительность: 109 минут.
Описание:
Концерт Helene Segara 24 октября 2000 года в Олимпии.
Качество: DVD 9
Формат: DVD Video
Видео кодек: MPEG2
Аудио кодек: AC-3.
Видео: PAL Video 720x576 (4:3) 25.00fps 8000kbps
Аудио: AC3 48000Hz 6ch 448kbps
Буду всем премного благодарен за Ваше "Спасибо"
Приятного Вам просмотра!

композиции, скачать, музыка, pop, cd, lossless, soundtrack, альбом, песни, torrent, поп, бесплатно, дискография, download, высокое качество, поп-музыка, торрент, mp3, pop-music, альбом, трек

1. Mes rêves disaient la vérité
2. Les vallées d'Irlande
3. Mrs Jones
4. Les larmes
5. Conga
6. Je vous aime adieu
7. Parlez-moi de nous
8. Loin du froid de décembre (Thème principal du film Anastasia)
9. Elle, tu l'aimes
10. Upside Down
11. Auprès de ceux que j'aimais
12. Vivre (Thème principal de la comédie musicale "Notre Dame de Paris")
13. Vivo Per Lei (en duo avec Bruno Pelletier)
14. Au nom d'une femme
15. Il y a trop de gens qui t'aiment
16. Ave Maria Païen (extrait de la comédie musicale "Notre Dame de Paris")
17. Il y a trop de gens qui t'aiment (reprise en coeur avec le public)
Bonus:
- Remise du disque de diamant
- Les coulisses
- Album photos
- Biographie
- Spot pub TV





Video
ID : 224 (0xE0)
Format : MPEG Video
Format version : Version 2
Format profile : [email protected]
Format settings, Matrix : Default
Duration : 16mn 39s
Bit rate mode : Constant
Bit rate : 7 804 Kbps
Nominal bit rate : 8 000 Kbps
Width : 720 pixels
Height : 576 pixels
Display aspect ratio : 4:3
Frame rate : 25.000 fps
Standard : PAL
Colorimetry : 4:2:0
Scan type : Interlaced
Scan order : Top Field First
Bits/(Pixel*Frame) : 0.753
Stream size : 930 MiB (91%)
Audio
ID : 128 (0x80)
Format : AC-3
Format/Info : Audio Coding 3
Duration : 16mn 39s
Bit rate mode : Constant
Bit rate : 448 Kbps
Channel(s) : 6 channels
Channel positions : Front: L C R, Surround: L R, LFE
Sampling rate : 48.0 KHz
Stream size : 53.4 MiB (5%)
Text
ID : 32 (0x20)
Format : RLE
Format/Info : Run-length encoding
















[6.92 GB] Скачать / Download