(Hi-NRG/Dance/EuroHouse) VA - Maharaja Night DJ Selection Vol. 1 - 1992, FLAC (tracks+.cue), lossless - Скачать

Жанр: Electronic
Стиль: Hi-NRG/Dance/EuroHouse
Год выпуска: 1992
Производитель: Japan
Битрейт аудио: lossless
Аудио кодек: FLAC (*.flac)
Тип рипа: tracks+.cue
Источник: genseks (Собственный рип)
Продолжительность: 00:01:10:29

Дополнительная информация: с измененными тэгами и индексной картой (*.cue), оригинальный лог (*.log) файл от программыEACизменениямне подвергался.

торрент, альбом, музыка, скачать, поп-музыка, дискография, soundtrack, песни, lossless, композиции, высокое качество, torrent, поп, pop-music, download, бесплатно, альбом, трек, pop, mp3, cd

01. Rodgers, Contini & Sinclaire - Hot Fire (Friday Night Version) (5:58)
02. King & Queen - King And Queen (Front Line-Maharaja Mix) (6:31)
03. Macho Gang - Shake Shake (Maharaja Mix) (7:10)
04. Nrg Boys - Heart & Body (Maharaja Mix) (6:07)
05. Victoria - For You (Extended Mix) (7:03)
06. Key West - Anymore (Assault Version) (5:48)
07. Etno - You Got To Fly (Extended Mix) (5:29)
08. Oliver Adams - Free The World (Club Mix) (6:04)
09. Synergy - Fax Me (Orion Edit) (4:05)
10. L.A.Style - James Brown Is Dead (Remix Rap 12'' Mix) (5:30)
11. Simone - My Family Depends On Me (Club Vocal Mix) (6:36)
12. Yta Farrow - Come Back To Me (4:08)

*.log
 Exact Audio Copy V1.0 beta 3 from 29. August 2011
Отчёт EAC об извлечении, выполненном 3. июня 2013, 20:03
Разные исполнители / Maharaja Night DJ Selection Vol 1
Дисковод: TSSTcorpCDDVDW SH-S223L Adapter: 3 ID: 0
Режим чтения : Достоверность
Использование точного потока : Да
Отключение кэша аудио : Да
Использование указателей C2 : Нет
Коррекция смещения при чтении : 6
Способность читать области Lead-in и Lead-out : Нет
Заполнение пропущенных сэмплов тишиной : Да
Удаление блоков с тишиной в начале и конце : Нет
При вычислениях CRC использовались нулевые сэмплы : Да
Интерфейс : Встроенный Win32-интерфейс для Win NT/2000
Обработка зазоров : Добавлено к предыдущему треку
Выходной формат : Пользовательский кодировщик
Выбранный битрейт : 768 kBit/s
Качество : Высокий
Добавление ID3-тега : Нет
Утилита сжатия : C:\Program Files (x86)\Exact Audio Copy\FLAC\FLAC.EXE
Дополнительные параметры : -8 -V -T "ARTIST=%artist%" -T "TITLE=%title%" -T "ALBUM=%albumtitle%" -T "DATE=%year%" -T "TRACKNUMBER=%tracknr%" -T "GENRE=%genre%" -T "COMMENT=%comment%" -T "BAND=%albuminterpret%" -T "ALBUMARTIST=%albuminterpret%" -T "COMPOSER=%composer%" %haslyrics%--tag-from-file=LYRICS="%lyricsfile%"%haslyrics% -T "DISCNUMBER=%cdnumber%" -T "TOTALDISCS=%totalcds%" -T "TOTALTRACKS=%numtracks%" %hascover%--picture="%coverfile%"%hascover% %source% -o %dest%
TOC извлечённого CD
Трек | Старт | Длительность | Начальный сектор | Конечный сектор
---------------------------------------------------------------------
1 | 0:00.00 | 5:58.25 | 0 | 26874
2 | 5:58.25 | 6:31.00 | 26875 | 56199
3 | 12:29.25 | 7:10.00 | 56200 | 88449
4 | 19:39.25 | 6:06.70 | 88450 | 115969
5 | 25:46.20 | 7:03.05 | 115970 | 147699
6 | 32:49.25 | 5:48.10 | 147700 | 173809
7 | 38:37.35 | 5:28.60 | 173810 | 198469
8 | 44:06.20 | 6:03.52 | 198470 | 225746
9 | 50:09.72 | 4:05.25 | 225747 | 244146
10 | 54:15.22 | 5:29.53 | 244147 | 268874
11 | 59:45.00 | 6:36.32 | 268875 | 298606
12 | 66:21.32 | 4:07.68 | 298607 | 317199
Трек 1
Имя файла D:\МУЗЫКА\ane118\01. Rodgers, Contini & Sinclaire - Hot Fire (Friday Night Version).wav
Длина предзазора 0:00:02.00
Пиковый уровень 86.8 %
Скорость извлечения 2.2 X
Качество трека 100.0 %
CRC теста 8FB6E840
CRC копии 8FB6E840
Копирование... OK
Трек 2
Имя файла D:\МУЗЫКА\ane118\02. King & Queen - King And Queen (Front Line-Maharaja Mix).wav
Длина предзазора 0:00:02.33
Пиковый уровень 92.0 %
Скорость извлечения 2.2 X
Качество трека 100.0 %
CRC теста B229C132
CRC копии B229C132
Копирование... OK
Трек 3
Имя файла D:\МУЗЫКА\ane118\03. Macho Gang - Shake Shake (Maharaja Mix).wav
Длина предзазора 0:00:02.50
Пиковый уровень 86.7 %
Скорость извлечения 2.2 X
Качество трека 100.0 %
CRC теста 781EACBF
CRC копии 781EACBF
Копирование... OK
Трек 4
Имя файла D:\МУЗЫКА\ane118\04. Nrg Boys - Heart & Body (Maharaja Mix).wav
Длина предзазора 0:00:02.13
Пиковый уровень 92.3 %
Скорость извлечения 2.2 X
Качество трека 100.0 %
CRC теста EB5A8D58
CRC копии EB5A8D58
Копирование... OK
Трек 5
Имя файла D:\МУЗЫКА\ane118\05. Victoria - For You (Extended Mix).wav
Длина предзазора 0:00:02.70
Пиковый уровень 100.0 %
Скорость извлечения 2.2 X
Качество трека 100.0 %
CRC теста 92DB8FB1
CRC копии 92DB8FB1
Копирование... OK
Трек 6
Имя файла D:\МУЗЫКА\ane118\06. Key West - Anymore (Assault Version).wav
Длина предзазора 0:00:03.00
Пиковый уровень 81.9 %
Скорость извлечения 2.2 X
Качество трека 100.0 %
CRC теста EDFA0141
CRC копии EDFA0141
Копирование... OK
Трек 7
Имя файла D:\МУЗЫКА\ane118\07. Etno - You Got To Fly (Extended Mix).wav
Длина предзазора 0:00:02.60
Пиковый уровень 89.1 %
Скорость извлечения 2.2 X
Качество трека 100.0 %
CRC теста FEEF989B
CRC копии FEEF989B
Копирование... OK
Трек 8
Имя файла D:\МУЗЫКА\ane118\08. Oliver Adams - Free The World (Club Mix).wav
Длина предзазора 0:00:02.33
Пиковый уровень 92.8 %
Скорость извлечения 2.1 X
Качество трека 100.0 %
CRC теста 8BE67756
CRC копии 8BE67756
Копирование... OK
Трек 9
Имя файла D:\МУЗЫКА\ane118\09. Synergy - Fax Me (Orion Edit).wav
Длина предзазора 0:00:01.35
Пиковый уровень 74.4 %
Скорость извлечения 1.8 X
Качество трека 99.9 %
CRC теста C354962C
CRC копии C354962C
Копирование... OK
Трек 10
Имя файла D:\МУЗЫКА\ane118\10. L.A.Style - James Brown Is Dead (Remix Rap 12'' Mix).wav
Длина предзазора 0:00:02.45
Пиковый уровень 81.8 %
Скорость извлечения 2.1 X
Качество трека 100.0 %
CRC теста DACF867B
CRC копии DACF867B
Копирование... OK
Трек 11
Имя файла D:\МУЗЫКА\ane118\11. Simone - My Family Depends On Me (Club Vocal Mix).wav
Длина предзазора 0:00:01.50
Пиковый уровень 100.0 %
Скорость извлечения 2.0 X
Качество трека 99.9 %
CRC теста ABA2219C
CRC копии ABA2219C
Копирование... OK
Трек 12
Имя файла D:\МУЗЫКА\ane118\12. Yta Farrow - Come Back To Me.wav
Длина предзазора 0:00:02.25
Пиковый уровень 83.3 %
Скорость извлечения 2.0 X
Качество трека 100.0 %
CRC теста AA548AD7
CRC копии AA548AD7
Копирование... OK
Ошибок не произошло
Конец отчёта
==== Контрольная сумма отчёта A229AD2F2BC1A0EF0E4E9686B48444BC3CAB9C53F2F8BA09514B29ED81874DF0 ====
*.cue
 REM GENRE Dance
REM DATE 1992
REM DISCID AE10850C
REM COMMENT "ExactAudioCopy v1.0b3"
PERFORMER "Various Artists"
TITLE "Maharaja Night DJ Selection Vol 1"
FILE "01. Rodgers, Contini & Sinclaire - Hot Fire (Friday Night Version).wav" WAVE
TRACK 01 AUDIO
TITLE "Hot Fire (Friday Night Version)"
PERFORMER "Rodgers, Contini & Sinclaire"
INDEX 01 00:00:00
TRACK 02 AUDIO
TITLE "King And Queen (Front Line-Maharaja Mix)"
PERFORMER "King & Queen"
INDEX 00 05:55:67
FILE "02. King & Queen - King And Queen (Front Line-Maharaja Mix).wav" WAVE
INDEX 01 00:00:00
TRACK 03 AUDIO
TITLE "Shake Shake (Maharaja Mix)"
PERFORMER "Macho Gang"
INDEX 00 06:28:25
FILE "03. Macho Gang - Shake Shake (Maharaja Mix).wav" WAVE
INDEX 01 00:00:00
TRACK 04 AUDIO
TITLE "Heart & Body (Maharaja Mix)"
PERFORMER "Nrg Boys"
INDEX 00 07:07:62
FILE "04. Nrg Boys - Heart & Body (Maharaja Mix).wav" WAVE
INDEX 01 00:00:00
TRACK 05 AUDIO
TITLE "For You (Extended Mix)"
PERFORMER "Victoria"
INDEX 00 06:04:00
FILE "05. Victoria - For You (Extended Mix).wav" WAVE
INDEX 01 00:00:00
TRACK 06 AUDIO
TITLE "Anymore (Assault Version)"
PERFORMER "Key West"
INDEX 00 07:00:05
FILE "06. Key West - Anymore (Assault Version).wav" WAVE
INDEX 01 00:00:00
TRACK 07 AUDIO
TITLE "You Got To Fly (Extended Mix)"
PERFORMER "Etno"
INDEX 00 05:45:25
FILE "07. Etno - You Got To Fly (Extended Mix).wav" WAVE
INDEX 01 00:00:00
TRACK 08 AUDIO
TITLE "Free The World (Club Mix)"
PERFORMER "Oliver Adams"
INDEX 00 05:26:27
FILE "08. Oliver Adams - Free The World (Club Mix).wav" WAVE
INDEX 01 00:00:00
TRACK 09 AUDIO
TITLE "Fax Me (Orion Edit)"
PERFORMER "Synergy"
INDEX 00 06:02:17
FILE "09. Synergy - Fax Me (Orion Edit).wav" WAVE
INDEX 01 00:00:00
TRACK 10 AUDIO
TITLE "James Brown Is Dead (Remix Rap 12'' Mix)"
PERFORMER "L.A.Style"
INDEX 00 04:02:55
FILE "10. L.A.Style - James Brown Is Dead (Remix Rap 12'' Mix).wav" WAVE
INDEX 01 00:00:00
TRACK 11 AUDIO
TITLE "My Family Depends On Me (Club Vocal Mix)"
PERFORMER "Simone"
INDEX 00 05:28:03
FILE "11. Simone - My Family Depends On Me (Club Vocal Mix).wav" WAVE
INDEX 01 00:00:00
TRACK 12 AUDIO
TITLE "Come Back To Me"
PERFORMER "Yta Farrow"
INDEX 00 06:34:07
FILE "12. Yta Farrow - Come Back To Me.wav" WAVE
INDEX 01 00:00:00
*.auCDtect
 -----------------------
DON'T MODIFY THIS FILE
-----------------------
PERFORMER: auCDtect Task Manager, ver. 1.5.1RC6 build 1.5.1.7
Copyright (c) 2008-2010 y-soft. All rights reserved
http://y-soft.org
ANALYZER: auCDtect: CD records authenticity detector, version 0.8.2
Copyright (c) 2004 Oleg Berngardt. All rights reserved.
Copyright (c) 2004 Alexander Djourik. All rights reserved.
FILE: 01. Rodgers, Contini & Sinclaire - Hot Fire (Friday Night Version).flac
Size: 45271778 Hash: 083CC02F26D6DD6B474708B4CE256A10 Accuracy: -m0
Conclusion: CDDA 100%
Signature: 82540D0827083FC0843B80042588BE741991C523
FILE: 02. King & Queen - King And Queen (Front Line-Maharaja Mix).flac
Size: 45353986 Hash: 02CA7FC646287F8C9DFE7BB25274031F Accuracy: -m0
Conclusion: CDDA 100%
Signature: 0CB9F3513E9343FE82461D809FC40A913957064F
FILE: 03. Macho Gang - Shake Shake (Maharaja Mix).flac
Size: 54147439 Hash: D866E9ED4CBF389F856AE6E102518B78 Accuracy: -m0
Conclusion: CDDA 100%
Signature: 7FD6CDE7AA4381C87E2743AE18C23C2B3950C581
FILE: 04. Nrg Boys - Heart & Body (Maharaja Mix).flac
Size: 44759756 Hash: CDD1C80B8D7031BCAC5FC8A87617A69B Accuracy: -m0
Conclusion: CDDA 99%
Signature: 91775F87040E26EE532E2199725709B991053B35
FILE: 05. Victoria - For You (Extended Mix).flac
Size: 48267575 Hash: 7925AEDD2C750A75C9683F635C83DA0F Accuracy: -m0
Conclusion: CDDA 100%
Signature: 884EB79C24B3D7300234C537B4708B2BE36BDA7C
FILE: 06. Key West - Anymore (Assault Version).flac
Size: 39462568 Hash: EFC88B3502D7C80B3F96B342981182C0 Accuracy: -m0
Conclusion: CDDA 100%
Signature: 7352A93742B5C01339EB4CA5B76AA125AF512579
FILE: 07. Etno - You Got To Fly (Extended Mix).flac
Size: 40995155 Hash: 13379664565945282B7463BB238758D5 Accuracy: -m0
Conclusion: CDDA 100%
Signature: A035F7536058E38AE1B09FE683EB29BA9005DF31
FILE: 08. Oliver Adams - Free The World (Club Mix).flac
Size: 42975712 Hash: E17155EC3F31929FE18FABF88DABCFD7 Accuracy: -m0
Conclusion: CDDA 99%
Signature: 601C22CE68E9002A6F2C36EA6045803E14C851DC
FILE: 09. Synergy - Fax Me (Orion Edit).flac
Size: 31410608 Hash: 90137D08F80D74D3C27F231640B9786D Accuracy: -m0
Conclusion: CDDA 100%
Signature: 653F0B150E650AA67D36FDC4649EA3439926CF95
FILE: 10. L.A.Style - James Brown Is Dead (Remix Rap 12'' Mix).flac
Size: 41933785 Hash: 407C268AC1316586D758FC65816F4325 Accuracy: -m0
Conclusion: CDDA 100%
Signature: 2E7C42E66B1FC5EF68CCD06A9EE68C469BD8C882
FILE: 11. Simone - My Family Depends On Me (Club Vocal Mix).flac
Size: 42024733 Hash: 141EBF03E1EEDA85C5630789880C321C Accuracy: -m0
Conclusion: CDDA 100%
Signature: 0F2C2940DC33D569358186558CF9E83B9920E5C6
FILE: 12. Yta Farrow - Come Back To Me.flac
Size: 28686822 Hash: C999E2DBDC21A4D07A8298CB3F7CAA0D Accuracy: -m0
Conclusion: CDDA 100%
Signature: 318D22E7A4F2128DA2B8DBF58BBE5428D8832023
*.accurip
 [CUETools log; Date: 09.06.2013 18:48:44; Version: 2.1.4]
[CTDB TOCID: PqMpvtha4D._7kR9BBBitwySd18-] disk not present in database.
[AccurateRip ID: 0020fd83-0130efcd-ae10850c] disk not present in database.
Track Peak [ CRC32 ] [W/O NULL] [ LOG ]
-- 100,0 [DBE932BA] [0021559E]
01 86,8 [8FB6E840] [9BEA5683] CRC32
02 92,0 [B229C132] [E54B6030] CRC32
03 86,7 [781EACBF] [9668E5B8] CRC32
04 92,3 [EB5A8D58] [D35EC0F0] CRC32
05 100,0 [92DB8FB1] [61D296E5] CRC32
06 81,9 [EDFA0141] [E7656835] CRC32
07 89,1 [FEEF989B] [8E92F35B] CRC32
08 92,8 [8BE67756] [6DAFBD14] CRC32
09 74,4 [C354962C] [B5B4F9E1] CRC32
10 81,8 [DACF867B] [067BB78F] CRC32
11 100,0 [ABA2219C] [5639536D] CRC32
12 83,3 [AA548AD7] [CBDF26C9] CRC32
 Exact Audio Copy V1.0 beta 3 from 29. August 2011
Отчёт EAC об извлечении, выполненном 3. июня 2013, 20:03
Разные исполнители / Maharaja Night DJ Selection Vol 1
Дисковод: TSSTcorpCDDVDW SH-S223L Adapter: 3 ID: 0
Режим чтения : Достоверность
Использование точного потока : Да
Отключение кэша аудио : Да
Использование указателей C2 : Нет
Коррекция смещения при чтении : 6
Способность читать области Lead-in и Lead-out : Нет
Заполнение пропущенных сэмплов тишиной : Да
Удаление блоков с тишиной в начале и конце : Нет
При вычислениях CRC использовались нулевые сэмплы : Да
Интерфейс : Встроенный Win32-интерфейс для Win NT/2000
Обработка зазоров : Добавлено к предыдущему треку
Выходной формат : Пользовательский кодировщик
Выбранный битрейт : 768 kBit/s
Качество : Высокий
Добавление ID3-тега : Нет
Утилита сжатия : C:\Program Files (x86)\Exact Audio Copy\FLAC\FLAC.EXE
Дополнительные параметры : -8 -V -T "ARTIST=%artist%" -T "TITLE=%title%" -T "ALBUM=%albumtitle%" -T "DATE=%year%" -T "TRACKNUMBER=%tracknr%" -T "GENRE=%genre%" -T "COMMENT=%comment%" -T "BAND=%albuminterpret%" -T "ALBUMARTIST=%albuminterpret%" -T "COMPOSER=%composer%" %haslyrics%--tag-from-file=LYRICS="%lyricsfile%"%haslyrics% -T "DISCNUMBER=%cdnumber%" -T "TOTALDISCS=%totalcds%" -T "TOTALTRACKS=%numtracks%" %hascover%--picture="%coverfile%"%hascover% %source% -o %dest%
TOC извлечённого CD
Трек | Старт | Длительность | Начальный сектор | Конечный сектор
---------------------------------------------------------------------
1 | 0:00.00 | 5:58.25 | 0 | 26874
2 | 5:58.25 | 6:31.00 | 26875 | 56199
3 | 12:29.25 | 7:10.00 | 56200 | 88449
4 | 19:39.25 | 6:06.70 | 88450 | 115969
5 | 25:46.20 | 7:03.05 | 115970 | 147699
6 | 32:49.25 | 5:48.10 | 147700 | 173809
7 | 38:37.35 | 5:28.60 | 173810 | 198469
8 | 44:06.20 | 6:03.52 | 198470 | 225746
9 | 50:09.72 | 4:05.25 | 225747 | 244146
10 | 54:15.22 | 5:29.53 | 244147 | 268874
11 | 59:45.00 | 6:36.32 | 268875 | 298606
12 | 66:21.32 | 4:07.68 | 298607 | 317199
Трек 1
Имя файла D:\МУЗЫКА\ane118\01. Rodgers, Contini & Sinclaire - Hot Fire (Friday Night Version).wav
Длина предзазора 0:00:02.00
Пиковый уровень 86.8 %
Скорость извлечения 2.2 X
Качество трека 100.0 %
CRC теста 8FB6E840
CRC копии 8FB6E840
Копирование... OK
Трек 2
Имя файла D:\МУЗЫКА\ane118\02. King & Queen - King And Queen (Front Line-Maharaja Mix).wav
Длина предзазора 0:00:02.33
Пиковый уровень 92.0 %
Скорость извлечения 2.2 X
Качество трека 100.0 %
CRC теста B229C132
CRC копии B229C132
Копирование... OK
Трек 3
Имя файла D:\МУЗЫКА\ane118\03. Macho Gang - Shake Shake (Maharaja Mix).wav
Длина предзазора 0:00:02.50
Пиковый уровень 86.7 %
Скорость извлечения 2.2 X
Качество трека 100.0 %
CRC теста 781EACBF
CRC копии 781EACBF
Копирование... OK
Трек 4
Имя файла D:\МУЗЫКА\ane118\04. Nrg Boys - Heart & Body (Maharaja Mix).wav
Длина предзазора 0:00:02.13
Пиковый уровень 92.3 %
Скорость извлечения 2.2 X
Качество трека 100.0 %
CRC теста EB5A8D58
CRC копии EB5A8D58
Копирование... OK
Трек 5
Имя файла D:\МУЗЫКА\ane118\05. Victoria - For You (Extended Mix).wav
Длина предзазора 0:00:02.70
Пиковый уровень 100.0 %
Скорость извлечения 2.2 X
Качество трека 100.0 %
CRC теста 92DB8FB1
CRC копии 92DB8FB1
Копирование... OK
Трек 6
Имя файла D:\МУЗЫКА\ane118\06. Key West - Anymore (Assault Version).wav
Длина предзазора 0:00:03.00
Пиковый уровень 81.9 %
Скорость извлечения 2.2 X
Качество трека 100.0 %
CRC теста EDFA0141
CRC копии EDFA0141
Копирование... OK
Трек 7
Имя файла D:\МУЗЫКА\ane118\07. Etno - You Got To Fly (Extended Mix).wav
Длина предзазора 0:00:02.60
Пиковый уровень 89.1 %
Скорость извлечения 2.2 X
Качество трека 100.0 %
CRC теста FEEF989B
CRC копии FEEF989B
Копирование... OK
Трек 8
Имя файла D:\МУЗЫКА\ane118\08. Oliver Adams - Free The World (Club Mix).wav
Длина предзазора 0:00:02.33
Пиковый уровень 92.8 %
Скорость извлечения 2.1 X
Качество трека 100.0 %
CRC теста 8BE67756
CRC копии 8BE67756
Копирование... OK
Трек 9
Имя файла D:\МУЗЫКА\ane118\09. Synergy - Fax Me (Orion Edit).wav
Длина предзазора 0:00:01.35
Пиковый уровень 74.4 %
Скорость извлечения 1.8 X
Качество трека 99.9 %
CRC теста C354962C
CRC копии C354962C
Копирование... OK
Трек 10
Имя файла D:\МУЗЫКА\ane118\10. L.A.Style - James Brown Is Dead (Remix Rap 12'' Mix).wav
Длина предзазора 0:00:02.45
Пиковый уровень 81.8 %
Скорость извлечения 2.1 X
Качество трека 100.0 %
CRC теста DACF867B
CRC копии DACF867B
Копирование... OK
Трек 11
Имя файла D:\МУЗЫКА\ane118\11. Simone - My Family Depends On Me (Club Vocal Mix).wav
Длина предзазора 0:00:01.50
Пиковый уровень 100.0 %
Скорость извлечения 2.0 X
Качество трека 99.9 %
CRC теста ABA2219C
CRC копии ABA2219C
Копирование... OK
Трек 12
Имя файла D:\МУЗЫКА\ane118\12. Yta Farrow - Come Back To Me.wav
Длина предзазора 0:00:02.25
Пиковый уровень 83.3 %
Скорость извлечения 2.0 X
Качество трека 100.0 %
CRC теста AA548AD7
CRC копии AA548AD7
Копирование... OK
Ошибок не произошло
Конец отчёта
==== Контрольная сумма отчёта A229AD2F2BC1A0EF0E4E9686B48444BC3CAB9C53F2F8BA09514B29ED81874DF0 ====
 REM GENRE Dance
REM DATE 1992
REM DISCID AE10850C
REM COMMENT "ExactAudioCopy v1.0b3"
PERFORMER "Various Artists"
TITLE "Maharaja Night DJ Selection Vol 1"
FILE "01. Rodgers, Contini & Sinclaire - Hot Fire (Friday Night Version).wav" WAVE
TRACK 01 AUDIO
TITLE "Hot Fire (Friday Night Version)"
PERFORMER "Rodgers, Contini & Sinclaire"
INDEX 01 00:00:00
TRACK 02 AUDIO
TITLE "King And Queen (Front Line-Maharaja Mix)"
PERFORMER "King & Queen"
INDEX 00 05:55:67
FILE "02. King & Queen - King And Queen (Front Line-Maharaja Mix).wav" WAVE
INDEX 01 00:00:00
TRACK 03 AUDIO
TITLE "Shake Shake (Maharaja Mix)"
PERFORMER "Macho Gang"
INDEX 00 06:28:25
FILE "03. Macho Gang - Shake Shake (Maharaja Mix).wav" WAVE
INDEX 01 00:00:00
TRACK 04 AUDIO
TITLE "Heart & Body (Maharaja Mix)"
PERFORMER "Nrg Boys"
INDEX 00 07:07:62
FILE "04. Nrg Boys - Heart & Body (Maharaja Mix).wav" WAVE
INDEX 01 00:00:00
TRACK 05 AUDIO
TITLE "For You (Extended Mix)"
PERFORMER "Victoria"
INDEX 00 06:04:00
FILE "05. Victoria - For You (Extended Mix).wav" WAVE
INDEX 01 00:00:00
TRACK 06 AUDIO
TITLE "Anymore (Assault Version)"
PERFORMER "Key West"
INDEX 00 07:00:05
FILE "06. Key West - Anymore (Assault Version).wav" WAVE
INDEX 01 00:00:00
TRACK 07 AUDIO
TITLE "You Got To Fly (Extended Mix)"
PERFORMER "Etno"
INDEX 00 05:45:25
FILE "07. Etno - You Got To Fly (Extended Mix).wav" WAVE
INDEX 01 00:00:00
TRACK 08 AUDIO
TITLE "Free The World (Club Mix)"
PERFORMER "Oliver Adams"
INDEX 00 05:26:27
FILE "08. Oliver Adams - Free The World (Club Mix).wav" WAVE
INDEX 01 00:00:00
TRACK 09 AUDIO
TITLE "Fax Me (Orion Edit)"
PERFORMER "Synergy"
INDEX 00 06:02:17
FILE "09. Synergy - Fax Me (Orion Edit).wav" WAVE
INDEX 01 00:00:00
TRACK 10 AUDIO
TITLE "James Brown Is Dead (Remix Rap 12'' Mix)"
PERFORMER "L.A.Style"
INDEX 00 04:02:55
FILE "10. L.A.Style - James Brown Is Dead (Remix Rap 12'' Mix).wav" WAVE
INDEX 01 00:00:00
TRACK 11 AUDIO
TITLE "My Family Depends On Me (Club Vocal Mix)"
PERFORMER "Simone"
INDEX 00 05:28:03
FILE "11. Simone - My Family Depends On Me (Club Vocal Mix).wav" WAVE
INDEX 01 00:00:00
TRACK 12 AUDIO
TITLE "Come Back To Me"
PERFORMER "Yta Farrow"
INDEX 00 06:34:07
FILE "12. Yta Farrow - Come Back To Me.wav" WAVE
INDEX 01 00:00:00
 -----------------------
DON'T MODIFY THIS FILE
-----------------------
PERFORMER: auCDtect Task Manager, ver. 1.5.1RC6 build 1.5.1.7
Copyright (c) 2008-2010 y-soft. All rights reserved
http://y-soft.org
ANALYZER: auCDtect: CD records authenticity detector, version 0.8.2
Copyright (c) 2004 Oleg Berngardt. All rights reserved.
Copyright (c) 2004 Alexander Djourik. All rights reserved.
FILE: 01. Rodgers, Contini & Sinclaire - Hot Fire (Friday Night Version).flac
Size: 45271778 Hash: 083CC02F26D6DD6B474708B4CE256A10 Accuracy: -m0
Conclusion: CDDA 100%
Signature: 82540D0827083FC0843B80042588BE741991C523
FILE: 02. King & Queen - King And Queen (Front Line-Maharaja Mix).flac
Size: 45353986 Hash: 02CA7FC646287F8C9DFE7BB25274031F Accuracy: -m0
Conclusion: CDDA 100%
Signature: 0CB9F3513E9343FE82461D809FC40A913957064F
FILE: 03. Macho Gang - Shake Shake (Maharaja Mix).flac
Size: 54147439 Hash: D866E9ED4CBF389F856AE6E102518B78 Accuracy: -m0
Conclusion: CDDA 100%
Signature: 7FD6CDE7AA4381C87E2743AE18C23C2B3950C581
FILE: 04. Nrg Boys - Heart & Body (Maharaja Mix).flac
Size: 44759756 Hash: CDD1C80B8D7031BCAC5FC8A87617A69B Accuracy: -m0
Conclusion: CDDA 99%
Signature: 91775F87040E26EE532E2199725709B991053B35
FILE: 05. Victoria - For You (Extended Mix).flac
Size: 48267575 Hash: 7925AEDD2C750A75C9683F635C83DA0F Accuracy: -m0
Conclusion: CDDA 100%
Signature: 884EB79C24B3D7300234C537B4708B2BE36BDA7C
FILE: 06. Key West - Anymore (Assault Version).flac
Size: 39462568 Hash: EFC88B3502D7C80B3F96B342981182C0 Accuracy: -m0
Conclusion: CDDA 100%
Signature: 7352A93742B5C01339EB4CA5B76AA125AF512579
FILE: 07. Etno - You Got To Fly (Extended Mix).flac
Size: 40995155 Hash: 13379664565945282B7463BB238758D5 Accuracy: -m0
Conclusion: CDDA 100%
Signature: A035F7536058E38AE1B09FE683EB29BA9005DF31
FILE: 08. Oliver Adams - Free The World (Club Mix).flac
Size: 42975712 Hash: E17155EC3F31929FE18FABF88DABCFD7 Accuracy: -m0
Conclusion: CDDA 99%
Signature: 601C22CE68E9002A6F2C36EA6045803E14C851DC
FILE: 09. Synergy - Fax Me (Orion Edit).flac
Size: 31410608 Hash: 90137D08F80D74D3C27F231640B9786D Accuracy: -m0
Conclusion: CDDA 100%
Signature: 653F0B150E650AA67D36FDC4649EA3439926CF95
FILE: 10. L.A.Style - James Brown Is Dead (Remix Rap 12'' Mix).flac
Size: 41933785 Hash: 407C268AC1316586D758FC65816F4325 Accuracy: -m0
Conclusion: CDDA 100%
Signature: 2E7C42E66B1FC5EF68CCD06A9EE68C469BD8C882
FILE: 11. Simone - My Family Depends On Me (Club Vocal Mix).flac
Size: 42024733 Hash: 141EBF03E1EEDA85C5630789880C321C Accuracy: -m0
Conclusion: CDDA 100%
Signature: 0F2C2940DC33D569358186558CF9E83B9920E5C6
FILE: 12. Yta Farrow - Come Back To Me.flac
Size: 28686822 Hash: C999E2DBDC21A4D07A8298CB3F7CAA0D Accuracy: -m0
Conclusion: CDDA 100%
Signature: 318D22E7A4F2128DA2B8DBF58BBE5428D8832023
 [CUETools log; Date: 09.06.2013 18:48:44; Version: 2.1.4]
[CTDB TOCID: PqMpvtha4D._7kR9BBBitwySd18-] disk not present in database.
[AccurateRip ID: 0020fd83-0130efcd-ae10850c] disk not present in database.
Track Peak [ CRC32 ] [W/O NULL] [ LOG ]
-- 100,0 [DBE932BA] [0021559E]
01 86,8 [8FB6E840] [9BEA5683] CRC32
02 92,0 [B229C132] [E54B6030] CRC32
03 86,7 [781EACBF] [9668E5B8] CRC32
04 92,3 [EB5A8D58] [D35EC0F0] CRC32
05 100,0 [92DB8FB1] [61D296E5] CRC32
06 81,9 [EDFA0141] [E7656835] CRC32
07 89,1 [FEEF989B] [8E92F35B] CRC32
08 92,8 [8BE67756] [6DAFBD14] CRC32
09 74,4 [C354962C] [B5B4F9E1] CRC32
10 81,8 [DACF867B] [067BB78F] CRC32
11 100,0 [ABA2219C] [5639536D] CRC32
12 83,3 [AA548AD7] [CBDF26C9] CRC32

[518.5 MB] Скачать / Download