(Hi-NRG / Italo Disco) Radiorama - The World Of Radiorama (Original Release) - 1999, APE (image+.cue), lossless - Скачать

Жанр: Hi-NRG / Italo Disco
Год выпуска диска: 1999
Производитель диска: Italy - Label: S.A.I.F.A.M.
Аудио кодек: APE
Тип рипа: image+.cue
Битрейт аудио: lossless
Продолжительность: 72:05
Трэклист:
1 Beautiful Man (Factory Team Mix) (5:40)
2 'Cause The Night (Factory Team Mix) (6:05)
3 Let Me Be (Original Mix) (4:32)
4 Ninna Ninna Oh (Acoustic Mix) (3:26)
5 Di-Da-Di (The Ultimate Factory Mix) (7:00)
6 Give Me The Night (Factory Team Mix) (5:44)
7 Like An Angel (Guitar Version) (5:49)
8 Truly Eyes (3:10)
9 Yeti 2000 (4:00)
10 Aliens 2000 (Extended Mix) (5:30)
11 Touch Me Now (Factory Team Edit) (5:10)
12 Little Bird (Factory Team Mix) (5:21)
13 My Fantasy (5:02)
14 Ninna Ninna Oh (7'' Edit) (3:40)Доп. Информация:
***Обложки (300dpi) внутри***
Оригинальный итальянский релиз.
Radiorama - Golden Hits -pop-music.pro/link/51722231
Radiorama - Yesterday Today Tomorrow / Fifth (Remastered) -

высокое качество, cd, дискография, скачать, альбом, download, музыка, pop-music, поп, поп-музыка, композиции, песни, soundtrack, бесплатно, torrent, альбом, торрент, трек, mp3, pop, lossless

 Exact Audio Copy V0.99 prebeta 4 from 23. January 2008
Отчёт EAC об извлечении, выполненном 11. апреля 2009, 19:42
Radiorama / The World Of Radiorama
Дисковод: PIONEER DVD-RW DVR-112 Adapter: 0 ID: 1
Режим чтения : Достоверность
Использование точного потока : Да
Отключение кэша аудио : Да
Использование указателей C2 : Нет
Коррекция смещения при чтении : 48
Способность читать области Lead-in и Lead-out : Нет
Заполнение пропущенных сэмплов тишиной : Да
Удаление блоков с тишиной в начале и конце : Нет
При вычислениях CRC использовались нулевые сэмплы : Да
Интерфейс : Установленный внешний ASPI-интерфейс
Выходной формат : Внутренние WAV-операции
Формат сэмплов : 44.100 Гц; 16 бит; стерео
TOC извлечённого CD
Трек | Старт | Длительность | Начальный сектор | Конечный сектор
---------------------------------------------------------------------
1 | 0:00.00 | 5:45.17 | 0 | 25891
2 | 5:45.17 | 6:09.14 | 25892 | 53580
3 | 11:54.31 | 4:36.41 | 53581 | 74321
4 | 16:30.72 | 3:34.52 | 74322 | 90423
5 | 20:05.49 | 7:00.25 | 90424 | 121948
6 | 27:05.74 | 5:47.56 | 121949 | 148029
7 | 32:53.55 | 5:52.32 | 148030 | 174461
8 | 38:46.12 | 3:45.51 | 174462 | 191387
9 | 42:31.63 | 4:44.58 | 191388 | 212745
10 | 47:16.46 | 5:35.55 | 212746 | 237925
11 | 52:52.26 | 5:33.43 | 237926 | 262943
12 | 58:25.69 | 5:22.05 | 262944 | 287098
13 | 63:47.74 | 5:12.30 | 287099 | 310528
14 | 69:00.29 | 3:04.52 | 310529 | 324380
Характеристики диапазона извлечения и сообщения об ошибках
Выбранный диапазон
Имя файла K:\Torrents (for Upload)\Radiorama\Radiorama 1999 - The World Of Radiorama\Radiorama - The World Of Radiorama.wav
Пиковый уровень 100.0 %
Качество диапазона 100.0 %
CRC копии 75F9C704
Копирование... OK
Ошибок не произошло
AccurateRip: сводка
Трек 1 нет в базе данных
Трек 2 нет в базе данных
Трек 3 нет в базе данных
Трек 4 нет в базе данных
Трек 5 нет в базе данных
Трек 6 нет в базе данных
Трек 7 нет в базе данных
Трек 8 нет в базе данных
Трек 9 нет в базе данных
Трек 10 нет в базе данных
Трек 11 нет в базе данных
Трек 12 нет в базе данных
Трек 13 нет в базе данных
Трек 14 нет в базе данных
Ни одного трека нет в базе AccurateRip
Конец отчёта

[506 MB] Скачать / Download