(Hi-NRG, Italo-Disco) VA - Best Of Time / Italo Hi-NRG Volume 1 - 1993, FLAC (image+.cue), lossless - Скачать

Жанр: Hi NRG, Italo-Disco
Страна-производитель диска: UK
Год издания диска: 1993
Издатель (лейбл): Loading Bay Records
Номер по каталогу: LBAYCD 601
Аудиокодек: FLAC (*.flac)
Тип рипа: image+.cue
Битрейт аудио: lossless
Продолжительность: 01:17:56
Источник (релизер): собственный рип
Наличие сканов в содержимом раздачи: да
Треклист:
1. Les Blue Belles–S.O.S. 7:00
2. Macho Gang–Shake Shake 6:25
3. Danny Keith–Lean On Me 6:28
4. Virgin–Super Catching Desire 6:00
5. Vanessa–Eternity 5:42
6. Linda Ross–Run Run 6:15
7. Anika–Precious Love 7:00
8. Les Blue Belles–Shine A Little Love 6:55
9. Gipsy & Queen–Love (Remix) 6:30
10. Sophie–Dial My Number 5:20
11. Virgin–All Your Love 6:10
12. Lisa Johnson–Love 6:30
13. Lisa Johnson–Love (Accapella) 1:20

трек, музыка, торрент, дискография, альбом, бесплатно, mp3, высокое качество, альбом, soundtrack, композиции, поп-музыка, cd, download, lossless, pop, скачать, песни, pop-music, torrent, поп

 Exact Audio Copy V0.99 prebeta 5 from 4. May 2009
Отчёт EAC об извлечении, выполненном 13. октября 2011, 20:27
Various Artist / Best Of Time Italo HI-NRG Volume 1
Дисковод: PLEXTOR DVDR PX-860A Adapter: 1 ID: 1
Режим чтения : Достоверность
Использование точного потока : Да
Отключение кэша аудио : Да
Использование указателей C2 : Нет
Коррекция смещения при чтении : 96
Способность читать области Lead-in и Lead-out : Нет
Заполнение пропущенных сэмплов тишиной : Да
Удаление блоков с тишиной в начале и конце : Нет
При вычислениях CRC использовались нулевые сэмплы : Да
Интерфейс : Встроенный Win32-интерфейс для Win NT/2000
Выходной формат : Внутренние WAV-операции
Формат сэмплов : 44.100 Гц; 16 бит; стерео
TOC извлечённого CD
Трек | Старт | Длительность | Начальный сектор | Конечный сектор
---------------------------------------------------------------------
1 | 0:00.32 | 7:05.10 | 32 | 31916
2 | 7:05.42 | 6:31.30 | 31917 | 61271
3 | 13:36.72 | 6:32.35 | 61272 | 90706
4 | 20:09.32 | 6:06.18 | 90707 | 118174
5 | 26:15.50 | 5:26.25 | 118175 | 142649
6 | 31:42.00 | 6:21.67 | 142650 | 171291
7 | 38:03.67 | 7:11.50 | 171292 | 203666
8 | 45:15.42 | 6:55.63 | 203667 | 234854
9 | 52:11.30 | 6:36.30 | 234855 | 264584
10 | 58:47.60 | 5:20.60 | 264585 | 288644
11 | 64:08.45 | 6:10.22 | 288645 | 316416
12 | 70:18.67 | 6:38.05 | 316417 | 346271
13 | 76:56.72 | 1:00.05 | 346272 | 350776
Характеристики диапазона извлечения и сообщения об ошибках
Выбранный диапазон
Имя файла C:\Best Of Time Italo HI-NRG Volume 1.wav
Пиковый уровень 97.1 %
Качество диапазона 100.0 %
CRC теста A2DF5DCA
CRC копии A2DF5DCA
Копирование... OK
Ошибок не произошло
AccurateRip: сводка
Трек 1 нет в базе данных
Трек 2 нет в базе данных
Трек 3 нет в базе данных
Трек 4 нет в базе данных
Трек 5 нет в базе данных
Трек 6 нет в базе данных
Трек 7 нет в базе данных
Трек 8 нет в базе данных
Трек 9 нет в базе данных
Трек 10 нет в базе данных
Трек 11 нет в базе данных
Трек 12 нет в базе данных
Трек 13 нет в базе данных
Ни одного трека нет в базе AccurateRip
Конец отчёта
 REM DISCID B112450D
REM COMMENT "ExactAudioCopy v0.99pb5"
PERFORMER "Various Artist"
TITLE "Best Of Time Italo / HI-NRG Volume 1"
FILE "Best Of Time Italo HI-NRG Volume 1.FLAC" WAVE
TRACK 01 AUDIO
TITLE "S.O.S."
PERFORMER "Les Blue Belles"
INDEX 00 00:00:00
INDEX 01 00:00:32
TRACK 02 AUDIO
TITLE "Shake Shake"
PERFORMER "Macho Gang"
INDEX 00 07:00:37
INDEX 01 07:05:42
TRACK 03 AUDIO
TITLE "Lean On Me"
PERFORMER "Danny Keith"
INDEX 00 13:31:40
INDEX 01 13:36:72
TRACK 04 AUDIO
TITLE "Super Catching Desire"
PERFORMER "Virgin"
INDEX 00 20:03:57
INDEX 01 20:09:32
TRACK 05 AUDIO
TITLE "Eternity"
PERFORMER "Vanessa"
INDEX 00 26:10:35
INDEX 01 26:15:50
TRACK 06 AUDIO
TITLE "Run Run"
PERFORMER "Linda Ross"
INDEX 00 31:37:15
INDEX 01 31:42:00
TRACK 07 AUDIO
TITLE "Precious Love"
PERFORMER "Anika"
INDEX 00 37:59:57
INDEX 01 38:03:67
TRACK 08 AUDIO
TITLE "Shine A Little Love"
PERFORMER "Les Blue Belles"
INDEX 00 45:11:10
INDEX 01 45:15:42
TRACK 09 AUDIO
TITLE "Love (Remix)"
PERFORMER "Gipsy & Queen"
INDEX 00 52:05:67
INDEX 01 52:11:30
TRACK 10 AUDIO
TITLE "Dial My Number"
PERFORMER "Sophie"
INDEX 00 58:41:70
INDEX 01 58:47:60
TRACK 11 AUDIO
TITLE "All Your Love"
PERFORMER "Virgin"
INDEX 00 64:02:42
INDEX 01 64:08:45
TRACK 12 AUDIO
TITLE "Love"
PERFORMER "Lisa Johnson"
INDEX 00 70:13:17
INDEX 01 70:18:67
TRACK 13 AUDIO
TITLE "Track13"
PERFORMER "Love (Accapella)"
INDEX 00 76:51:40
INDEX 01 76:56:72

[558.7 MB] Скачать / Download