(Hi NRG, Synth-pop, Disco) Ivan (Men Without Hats) - The Spell - 2000, FLAC (tracks+.cue), lossless - Скачать

Жанр: Hi NRG, Synth-pop, Disco
Страна-производитель диска: Canada
Год издания: 2000
Издатель (лейбл): Tox
Номер по каталогу: TOXCD 3021
Страна: Canada
Аудиокодек: FLAC (*.flac)
Тип рипа: tracks+.cue
Битрейт аудио: lossless
Продолжительность: 00:46:13
Источник (релизер): what.cd (owenj23)
Наличие сканов в содержимом раздачи: нет
Треклист:
01. The Spell (4:43)
02. Superbadgirls (4:14)
03. Chain Reaction (5:02)
04. Opne Your Eyes (3:53)
05. 1972 (Slippin' Away) (4:40)
06. You (4:38)
07. Forever (4:34)
08. www (4:45)
09. Somethin (3:31)
10. Fly (4:26)
11. Outro (1:43)Доп. информация: Диск был утянут с what.cd пользователем The Infinite Instant по моей просьбе, за что ему большое спасибо!

soundtrack, поп-музыка, pop, дискография, торрент, трек, download, альбом, lossless, pop-music, torrent, музыка, песни, композиции, высокое качество, mp3, скачать, бесплатно, cd, альбом, поп

 Exact Audio Copy V1.0 beta 3 from 29. August 2011
EAC extraction logfile from 22. November 2012, 9:41
Ivan / The Spell
Used drive : _NEC DVD_RW ND-3520A Adapter: 1 ID: 0
Read mode : Secure
Utilize accurate stream : Yes
Defeat audio cache : Yes
Make use of C2 pointers : No
Read offset correction : 48
Overread into Lead-In and Lead-Out : No
Fill up missing offset samples with silence : Yes
Delete leading and trailing silent blocks : No
Null samples used in CRC calculations : Yes
Used interface : Native Win32 interface for Win NT & 2000
Gap handling : Appended to previous track
Used output format : User Defined Encoder
Selected bitrate : 1024 kBit/s
Quality : High
Add ID3 tag : No
Command line compressor : C:\Program Files (x86)\Exact Audio Copy\Flac\flac.exe
Additional command line options : -8 -V -T "ARTIST=%artist%" -T "TITLE=%title%" -T "ALBUM=%albumtitle%" -T "DATE=%year%" -T "TRACKNUMBER=%tracknr%" -T "GENRE=%genre%" -T "PERFORMER=%albuminterpret%" -T "COMPOSER=%composer%" %haslyrics%--tag-from-file=LYRICS="%lyricsfile%"%haslyrics% -T "ALBUMARTIST=%albumartist%" -T "DISCNUMBER=%cdnumber%" -T "TOTALDISCS=%totalcds%" -T "TOTALTRACKS=%numtracks%" -T "COMMENT=%comment%" %source% -o %dest%
TOC of the extracted CD
Track | Start | Length | Start sector | End sector
---------------------------------------------------------
1 | 0:00.00 | 4:43.37 | 0 | 21261
2 | 4:43.37 | 4:13.73 | 21262 | 40309
3 | 8:57.35 | 5:02.45 | 40310 | 63004
4 | 14:00.05 | 3:53.60 | 63005 | 80539
5 | 17:53.65 | 4:39.65 | 80540 | 101529
6 | 22:33.55 | 4:38.62 | 101530 | 122441
7 | 27:12.42 | 4:34.23 | 122442 | 143014
8 | 31:46.65 | 4:44.72 | 143015 | 164386
9 | 36:31.62 | 3:31.48 | 164387 | 180259
10 | 40:03.35 | 4:26.37 | 180260 | 200246
11 | 44:29.72 | 1:43.58 | 200247 | 208029
Track 1
Filename A:\Audio\Rip\01 - The Spell.wav
Pre-gap length 0:00:02.00
Peak level 100.0 %
Extraction speed 3.0 X
Track quality 99.9 %
Test CRC 6AA50BD0
Copy CRC 6AA50BD0
Accurately ripped (confidence 5) [2402BEF7] (AR v1)
Copy OK
Track 2
Filename A:\Audio\Rip\02 - Superbadgirls.wav
Peak level 100.0 %
Extraction speed 3.2 X
Track quality 99.9 %
Test CRC F5EC5979
Copy CRC F5EC5979
Accurately ripped (confidence 5) [AE759714] (AR v1)
Copy OK
Track 3
Filename A:\Audio\Rip\03 - Chain Reaction.wav
Pre-gap length 0:00:00.33
Peak level 100.0 %
Extraction speed 4.3 X
Track quality 100.0 %
Test CRC 5DB9AF91
Copy CRC 5DB9AF91
Accurately ripped (confidence 5) [FEB329B7] (AR v1)
Copy OK
Track 4
Filename A:\Audio\Rip\04 - Open Your Eyes.wav
Pre-gap length 0:00:00.44
Peak level 100.0 %
Extraction speed 4.4 X
Track quality 100.0 %
Test CRC BF7C8391
Copy CRC BF7C8391
Accurately ripped (confidence 5) [3F20A08F] (AR v1)
Copy OK
Track 5
Filename A:\Audio\Rip\05 - 1972 (Slippin' Away).wav
Peak level 100.0 %
Extraction speed 4.2 X
Track quality 99.9 %
Test CRC 1AFD1748
Copy CRC 1AFD1748
Accurately ripped (confidence 5) [316D5EA2] (AR v1)
Copy OK
Track 6
Filename A:\Audio\Rip\06 - You.wav
Pre-gap length 0:00:01.93
Peak level 100.0 %
Extraction speed 5.3 X
Track quality 100.0 %
Test CRC E98B550F
Copy CRC E98B550F
Accurately ripped (confidence 5) [DD70FE29] (AR v1)
Copy OK
Track 7
Filename A:\Audio\Rip\07 - Forever.wav
Peak level 100.0 %
Extraction speed 2.4 X
Track quality 99.7 %
Test CRC 4BC02CA7
Copy CRC 4BC02CA7
Accurately ripped (confidence 5) [4C3FC4D4] (AR v1)
Copy OK
Track 8
Filename A:\Audio\Rip\08 - www.wav
Peak level 100.0 %
Extraction speed 5.7 X
Track quality 100.0 %
Test CRC E45B4479
Copy CRC E45B4479
Accurately ripped (confidence 5) [FD5E8387] (AR v1)
Copy OK
Track 9
Filename A:\Audio\Rip\09 - Somethin.wav
Peak level 100.0 %
Extraction speed 5.7 X
Track quality 100.0 %
Test CRC A6967C59
Copy CRC A6967C59
Accurately ripped (confidence 5) [FAD32ECE] (AR v1)
Copy OK
Track 10
Filename A:\Audio\Rip\10 - Fly.wav
Peak level 100.0 %
Extraction speed 5.8 X
Track quality 100.0 %
Test CRC A8A59009
Copy CRC A8A59009
Accurately ripped (confidence 5) [73E2E483] (AR v1)
Copy OK
Track 11
Filename A:\Audio\Rip\11 - Outro.wav
Peak level 100.0 %
Extraction speed 5.1 X
Track quality 100.0 %
Test CRC 48A72628
Copy CRC 48A72628
Accurately ripped (confidence 5) [6D88FEFA] (AR v1)
Copy OK
All tracks accurately ripped
No errors occurred
End of status report
---- CUETools DB Plugin V2.1.3
[CTDB TOCID: jJgdAcAkkyRk9a3_gzGFDmy0XAE-] disk not present in database, Submit result: jJgdAcAkkyRk9a3_gzGFDmy0XAE- has been uploaded
==== Log checksum B81D4C163719F34A456AEA0033F7E6C1B061FF7E52FC82FAB0214573EE60808C ====
 REM GENRE Pop
REM DATE 1999
REM DISCID 950AD50B
REM COMMENT "ExactAudioCopy v1.0b3"
CATALOG 0000000000000
PERFORMER "Ivan"
TITLE "The Spell"
FILE "01 - The Spell.wav" WAVE
TRACK 01 AUDIO
TITLE "The Spell"
PERFORMER "Ivan"
ISRC 000000000000
INDEX 01 00:00:00
FILE "02 - Superbadgirls.wav" WAVE
TRACK 02 AUDIO
TITLE "Superbadgirls"
PERFORMER "Ivan"
ISRC 000000000000
INDEX 01 00:00:00
TRACK 03 AUDIO
TITLE "Chain Reaction"
PERFORMER "Ivan"
ISRC 000000000000
INDEX 00 04:13:48
FILE "03 - Chain Reaction.wav" WAVE
INDEX 01 00:00:00
TRACK 04 AUDIO
TITLE "Open Your Eyes"
PERFORMER "Ivan"
ISRC 000000000000
INDEX 00 05:02:12
FILE "04 - Open Your Eyes.wav" WAVE
INDEX 01 00:00:00
FILE "05 - 1972 (Slippin' Away).wav" WAVE
TRACK 05 AUDIO
TITLE "1972 (Slippin' Away)"
PERFORMER "Ivan"
ISRC 000000000000
INDEX 01 00:00:00
TRACK 06 AUDIO
TITLE "You"
PERFORMER "Ivan"
ISRC 000000000000
INDEX 00 04:37:70
FILE "06 - You.wav" WAVE
INDEX 01 00:00:00
FILE "07 - Forever.wav" WAVE
TRACK 07 AUDIO
TITLE "Forever"
PERFORMER "Ivan"
ISRC 000000000000
INDEX 01 00:00:00
FILE "08 - www.wav" WAVE
TRACK 08 AUDIO
TITLE "www"
PERFORMER "Ivan"
ISRC 000000000000
INDEX 01 00:00:00
FILE "09 - Somethin.wav" WAVE
TRACK 09 AUDIO
TITLE "Somethin"
PERFORMER "Ivan"
ISRC 000000000000
INDEX 01 00:00:00
FILE "10 - Fly.wav" WAVE
TRACK 10 AUDIO
TITLE "Fly"
PERFORMER "Ivan"
ISRC 000000000000
INDEX 01 00:00:00
FILE "11 - Outro.wav" WAVE
TRACK 11 AUDIO
TITLE "Outro"
PERFORMER "Ivan"
ISRC 000000000000
INDEX 01 00:00:00
Единственный сольный альбом вокалиста "Men Without Hats" Ивана Дорощука.

[335.9 MB] Скачать / Download