(Hi NRG, Synth-pop) Man To Man Featuring Paul Zone - Man To Man - 1988, FLAC (image+.cue), lossless - Скачать

Жанр: Hi NRG, Synth-pop
Год выпуска диска: 1988
Производитель диска: Germany
Аудио кодек: FLAC
Тип рипа: image+.cue
Битрейт аудио: lossless
Продолжительность: 57'25 min

Трэклист:
01 Singin' On A Star 3:46
02 At The Gym 3:45
03 Male Stripper 5:12
04 The Loneliest Man In The World 3:59
05 Mexico 4:00
06 Energy Is Eurobeat 3:30
07 Sex Symbol 4:10
08 Try My Love 4:13
09 I Need A Man 4:14
10 New York City Beat 4:08
11 Who Knows What Evil? 8:25
12 Hard Hitting Love 7:42

Доп. информация:
Producer - Man Parrish (tracks: 1, 3 to 10) , Miki Zone (tracks: 1, 3 to 10) , Paul Zone (tracks: 1 to 10)
Written-By - Zone* (tracks: 1 to 8, 10)

CD-R

торрент, музыка, torrent, mp3, альбом, поп, альбом, pop-music, lossless, трек, песни, композиции, cd, высокое качество, download, дискография, бесплатно, pop, поп-музыка, скачать, soundtrack

 Exact Audio Copy V0.99 prebeta 5 from 4. May 2009
Отчёт EAC об извлечении, выполненном 29. апреля 2010, 14:49
MAM TO MAN / featuring Paul Zone
Дисковод: Optiarc DVD RW AD-7200S Adapter: 2 ID: 0
Режим чтения : Достоверность
Использование точного потока : Да
Отключение кэша аудио : Да
Использование указателей C2 : Нет
Коррекция смещения при чтении : 48
Способность читать области Lead-in и Lead-out : Нет
Заполнение пропущенных сэмплов тишиной : Да
Удаление блоков с тишиной в начале и конце : Нет
При вычислениях CRC использовались нулевые сэмплы : Да
Интерфейс : Встроенный Win32-интерфейс для Win NT/2000
Выходной формат : Внутренние WAV-операции
Формат сэмплов : 44.100 Гц; 16 бит; стерео
TOC извлечённого CD
Трек | Старт | Длительность | Начальный сектор | Конечный сектор
---------------------------------------------------------------------
1 | 0:00.00 | 3:46.57 | 0 | 17006
2 | 3:46.57 | 3:44.68 | 17007 | 33874
3 | 7:31.50 | 5:11.00 | 33875 | 57199
4 | 12:42.50 | 4:01.10 | 57200 | 75284
5 | 16:43.60 | 4:02.02 | 75285 | 93436
6 | 20:45.62 | 3:31.53 | 93437 | 109314
7 | 24:17.40 | 4:10.55 | 109315 | 128119
8 | 28:28.20 | 4:13.50 | 128120 | 147144
9 | 32:41.70 | 4:17.45 | 147145 | 166464
10 | 36:59.40 | 4:12.30 | 166465 | 185394
11 | 41:11.70 | 8:29.60 | 185395 | 223629
12 | 49:41.55 | 7:43.30 | 223630 | 258384
Характеристики диапазона извлечения и сообщения об ошибках
Выбранный диапазон
Имя файла D:\Music\раздача\MAM TO MAN-featuring Paul Zone\MAM TO MAN - featuring Paul Zone.wav
Пиковый уровень 100.0 %
Качество диапазона 100.0 %
CRC копии 42EFD17D
Копирование... OK
Ошибок не произошло
AccurateRip: сводка
Трек 1 нет в базе данных
Трек 2 нет в базе данных
Трек 3 нет в базе данных
Трек 4 нет в базе данных
Трек 5 нет в базе данных
Трек 6 нет в базе данных
Трек 7 нет в базе данных
Трек 8 нет в базе данных
Трек 9 нет в базе данных
Трек 10 нет в базе данных
Трек 11 нет в базе данных
Трек 12 нет в базе данных
Ни одного трека нет в базе AccurateRip
Конец отчёта

[404.4 MB] Скачать / Download