(Italo-Disco) Baltimora - Living In The Background - 2005, APE (image+.cue), lossless - Скачать

Жанр:Italo-Disco
Год выпуска диска:2005
Производитель диска:Russia (ESonCD - ESCD 20057-2)
Аудио кодек:APE
Тип рипа:image+.cue
Битрейт аудио:lossless
Продолжительность:1:01:31
Трэклист:
01. Tarzan Boy 6:12
02. Pull The Wires 4:40
03. Living In The Background 6:05
04. Woody Boogie 5:53
05. Chinese Restaurant 5:11
06. Running For Your Love 5:53

Bonus Tracks:
07. Tarzan Boy (Summer Version) 6:42
08. The Jukebox Boy 3:44
09. Up With Baltimora 2:53
10. Tarzan Boy (Remix 1993) 3:45
11. Jungle Life (Dub) 5:02
12. Tarzan Boy (Extended Remix 1993) 5:29

Доп. информация:
Абсолютно все рипы сделаны с оригинальных CD из моей коллекции !!!
Полные сканы обложек и дисков прилагаются !!!
ESonCD - Golden Disco Series !!!

композиции, поп-музыка, трек, песни, pop-music, торрент, альбом, pop, музыка, бесплатно, mp3, lossless, альбом, torrent, cd, дискография, скачать, download, высокое качество, поп, soundtrack

Материал выложен ИСКЛЮЧИТЕЛЬНО для ознакомления, так что не забудьте, пожалуйста,
удалить его с жёсткого диска после ознакомления, пойти в магазин и купить оригинальное издание !!!
Поддержим отечественного производителя !!!!!
Disc
Back
Отчет EAC
Exact Audio Copy V0.99 prebeta 5 from 4. May 2009
Отчёт EAC об извлечении, выполненном 5. сентября 2009, 12:53
Baltimora / Living In The Background
Дисковод: Optiarc DVD RW AD-5200A Adapter: 0 ID: 0
Режим чтения : Достоверность
Использование точного потока : Да
Отключение кэша аудио : Да
Использование указателей C2 : Нет
Коррекция смещения при чтении : 48
Способность читать области Lead-in и Lead-out : Нет
Заполнение пропущенных сэмплов тишиной : Да
Удаление блоков с тишиной в начале и конце : Нет
При вычислениях CRC использовались нулевые сэмплы : Да
Интерфейс : Установленный внешний ASPI-интерфейс
Выходной формат : Внутренние WAV-операции
Формат сэмплов : 44.100 Гц; 16 бит; стерео
TOC извлечённого CD
Трек | Старт | Длительность | Начальный сектор | Конечный сектор
---------------------------------------------------------------------
1 | 0:00.00 | 6:12.43 | 0 | 27942
2 | 6:12.43 | 4:40.15 | 27943 | 48957
3 | 10:52.58 | 6:05.54 | 48958 | 76386
4 | 16:58.37 | 5:53.49 | 76387 | 102910
5 | 22:52.11 | 5:11.15 | 102911 | 126250
6 | 28:03.26 | 5:51.47 | 126251 | 152622
7 | 33:54.73 | 6:42.08 | 152623 | 182780
8 | 40:37.06 | 3:44.10 | 182781 | 199590
9 | 44:21.16 | 2:53.36 | 199591 | 212601
10 | 47:14.52 | 3:45.07 | 212602 | 229483
11 | 50:59.59 | 5:02.19 | 229484 | 252152
12 | 56:02.03 | 5:29.52 | 252153 | 276879
Характеристики диапазона извлечения и сообщения об ошибках
Выбранный диапазон
Имя файла E:\Baltimora - Living In The Background\Baltimora - Living In The Background.wav
Пиковый уровень 96.6 %
Качество диапазона 99.9 %
CRC теста D3997B49
CRC копии D3997B49
Копирование... OK
Ошибок не произошло
AccurateRip: сводка
Трек 1 точное извлечение (доверие 2) [5ABF0548]
Трек 2 точное извлечение (доверие 2) [0D384200]
Трек 3 точное извлечение (доверие 2) [D1700A8A]
Трек 4 точное извлечение (доверие 2) [025C8B95]
Трек 5 точное извлечение (доверие 2) [CE1A696C]
Трек 6 точное извлечение (доверие 2) [AD09B0ED]
Трек 7 точное извлечение (доверие 2) [A115055D]
Трек 8 точное извлечение (доверие 2) [F688FE0A]
Трек 9 точное извлечение (доверие 2) [C5D414F0]
Трек 10 точное извлечение (доверие 2) [AFB8B6BB]
Трек 11 точное извлечение (доверие 2) [C227EBFC]
Трек 12 точное извлечение (доверие 2) [CEC005C5]
Все треки извлечены точно
Конец отчёта
Exact Audio Copy V0.99 prebeta 5 from 4. May 2009
Отчёт EAC об извлечении, выполненном 5. сентября 2009, 12:53
Baltimora / Living In The Background
Дисковод: Optiarc DVD RW AD-5200A Adapter: 0 ID: 0
Режим чтения : Достоверность
Использование точного потока : Да
Отключение кэша аудио : Да
Использование указателей C2 : Нет
Коррекция смещения при чтении : 48
Способность читать области Lead-in и Lead-out : Нет
Заполнение пропущенных сэмплов тишиной : Да
Удаление блоков с тишиной в начале и конце : Нет
При вычислениях CRC использовались нулевые сэмплы : Да
Интерфейс : Установленный внешний ASPI-интерфейс
Выходной формат : Внутренние WAV-операции
Формат сэмплов : 44.100 Гц; 16 бит; стерео
TOC извлечённого CD
Трек | Старт | Длительность | Начальный сектор | Конечный сектор
---------------------------------------------------------------------
1 | 0:00.00 | 6:12.43 | 0 | 27942
2 | 6:12.43 | 4:40.15 | 27943 | 48957
3 | 10:52.58 | 6:05.54 | 48958 | 76386
4 | 16:58.37 | 5:53.49 | 76387 | 102910
5 | 22:52.11 | 5:11.15 | 102911 | 126250
6 | 28:03.26 | 5:51.47 | 126251 | 152622
7 | 33:54.73 | 6:42.08 | 152623 | 182780
8 | 40:37.06 | 3:44.10 | 182781 | 199590
9 | 44:21.16 | 2:53.36 | 199591 | 212601
10 | 47:14.52 | 3:45.07 | 212602 | 229483
11 | 50:59.59 | 5:02.19 | 229484 | 252152
12 | 56:02.03 | 5:29.52 | 252153 | 276879
Характеристики диапазона извлечения и сообщения об ошибках
Выбранный диапазон
Имя файла E:\Baltimora - Living In The Background\Baltimora - Living In The Background.wav
Пиковый уровень 96.6 %
Качество диапазона 99.9 %
CRC теста D3997B49
CRC копии D3997B49
Копирование... OK
Ошибок не произошло
AccurateRip: сводка
Трек 1 точное извлечение (доверие 2) [5ABF0548]
Трек 2 точное извлечение (доверие 2) [0D384200]
Трек 3 точное извлечение (доверие 2) [D1700A8A]
Трек 4 точное извлечение (доверие 2) [025C8B95]
Трек 5 точное извлечение (доверие 2) [CE1A696C]
Трек 6 точное извлечение (доверие 2) [AD09B0ED]
Трек 7 точное извлечение (доверие 2) [A115055D]
Трек 8 точное извлечение (доверие 2) [F688FE0A]
Трек 9 точное извлечение (доверие 2) [C5D414F0]
Трек 10 точное извлечение (доверие 2) [AFB8B6BB]
Трек 11 точное извлечение (доверие 2) [C227EBFC]
Трек 12 точное извлечение (доверие 2) [CEC005C5]
Все треки извлечены точно
Конец отчёта

[436.7 MB] Скачать / Download