(Italo-Disco) Den Harrow - To Meet Me (Golden-Dance-Classics) (Maxi CD Single) - 1993, FLAC (tracks+.cue), lossless - Скачать

Жанр: Italo-Disco
Носитель: CDM
Страна-производитель диска (релиза): Germany
Год издания: 1993
Издатель (лейбл): ZYX Music
Номер по каталогу: GDC 2028-8
Аудиокодек: FLAC (*.flac)
Тип рипа: tracks+.cue
Битрейт аудио: lossless
Продолжительность: 00:18:25
Источник (релизер): own rip
Наличие сканов в содержимом раздачи: да
Треклист:
1. To Meet Me (6:12)
2. To Meet Me (Instrumental) (6:27)
3. To Meet Me (Hurricane Mix) (5:46)

pop, бесплатно, soundtrack, высокое качество, поп-музыка, lossless, скачать, торрент, pop-music, композиции, дискография, трек, cd, песни, музыка, альбом, download, torrent, поп, mp3, альбом

 Exact Audio Copy V1.0 beta 3 from 29. August 2011
EAC extraction logfile from 15. September 2016, 10:21
Den Harrow / To Meet Me
Used drive : TSSTcorpCDDVDW SN-208BB Adapter: 0 ID: 0
Read mode : Secure
Utilize accurate stream : Yes
Defeat audio cache : Yes
Make use of C2 pointers : No
Read offset correction : 6
Overread into Lead-In and Lead-Out : No
Fill up missing offset samples with silence : Yes
Delete leading and trailing silent blocks : No
Null samples used in CRC calculations : Yes
Used interface : Native Win32 interface for Win NT & 2000
Gap handling : Appended to previous track
Used output format : User Defined Encoder
Selected bitrate : 1024 kBit/s
Quality : High
Add ID3 tag : No
Command line compressor : C:\Program Files (x86)\Exact Audio Copy\Flac\flac.exe
Additional command line options : -8 -V -T "artist=%artist%" -T "title=%title%" -T "album=%albumtitle%" -T "date=%year%" -T "tracknumber=%tracknr%" -T "genre=%genre%" %source%
TOC of the extracted CD
Track | Start | Length | Start sector | End sector
---------------------------------------------------------
1 | 0:00.00 | 6:12.00 | 0 | 27899
2 | 6:12.00 | 6:27.00 | 27900 | 56924
3 | 12:39.00 | 5:46.25 | 56925 | 82899
Track 1
Filename E:\Torrent\Den Harrow - To Meet Me (Maxi CD Single)\01 To Meet Me.wav
Pre-gap length 0:00:02.00
Peak level 96.1 %
Extraction speed 1.8 X
Track quality 100.0 %
Test CRC 77DE2A97
Copy CRC 77DE2A97
Accurately ripped (confidence 2) [FCD0124F] (AR v2)
Copy OK
Track 2
Filename E:\Torrent\Den Harrow - To Meet Me (Maxi CD Single)\02 To Meet Me (Instrumental).wav
Pre-gap length 0:00:01.10
Peak level 97.3 %
Extraction speed 2.1 X
Track quality 100.0 %
Test CRC 22B24CF9
Copy CRC 22B24CF9
Accurately ripped (confidence 2) [09176029] (AR v2)
Copy OK
Track 3
Filename E:\Torrent\Den Harrow - To Meet Me (Maxi CD Single)\03 To Meet Me (Hurricane Mix).wav
Pre-gap length 0:00:00.68
Peak level 97.6 %
Extraction speed 2.3 X
Track quality 100.0 %
Test CRC 493FA32B
Copy CRC 493FA32B
Accurately ripped (confidence 2) [19B2BF6C] (AR v2)
Copy OK
All tracks accurately ripped
No errors occurred
End of status report
==== Log checksum 5798C840296CC7D929F33E3667B697F0A05D962A5B146C3B2126DFD92E1A0FE5 ====
 REM GENRE Italo-Disco
REM DATE 1986
REM DISCID 1E045103
REM COMMENT "ExactAudioCopy v1.0b3"
PERFORMER "Den Harrow"
TITLE "To Meet Me"
FILE "01 To Meet Me.wav" WAVE
TRACK 01 AUDIO
TITLE "To Meet Me"
PERFORMER "Den Harrow"
INDEX 01 00:00:00
TRACK 02 AUDIO
TITLE "To Meet Me (Instrumental)"
PERFORMER "Den Harrow"
INDEX 00 06:10:65
FILE "02 To Meet Me (Instrumental).wav" WAVE
INDEX 01 00:00:00
TRACK 03 AUDIO
TITLE "To Meet Me (Hurricane Mix)"
PERFORMER "Den Harrow"
INDEX 00 06:26:07
FILE "03 To Meet Me (Hurricane Mix).wav" WAVE
INDEX 01 00:00:00

[111 MB] Скачать / Download