(Italo-Disco) VA - Italo Disco 12 Inch Collector's Box (10CD) - 2014, FLAC (image+.cue), lossless - Скачать

Жанр: Italo-Disco
Носитель: CDM
Год выпуска диска:2014
Издатель (лейбл): ZYX Music
Каталожный номер: MAXI BOX 1
Страна-производитель диска:E.E.C.
Аудиокодек: FLAC (*.flac)
Тип рипа: image+.cue
Битрейт аудио: lossless
Продолжительность:10 ~ 02:08:06
Источник (релизер): Собственный диск
Наличие сканов в содержимом раздачи: нет

скачать, поп, pop-music, torrent, альбом, композиции, трек, торрент, альбом, download, музыка, mp3, песни, lossless, поп-музыка, pop, бесплатно, soundtrack, высокое качество, cd, дискография

Трэклист:
1. P. Lion - Happy Children (Vocal Version) 5:59
2. P. Lion - Happy Children (Instrumental) 6:35
Лог создания рипа
 Exact Audio Copy V1.0 beta 4 from 7. December 2014
Отчёт EAC об извлечении, выполненном 1. февраля 2015, 9:56
P. Lion / Happy Children
Дисковод: HL-DT-STDVDRAM GH24NSC0 Adapter: 2 ID: 0
Режим чтения : Достоверность
Использование точного потока : Да
Отключение кэша аудио : Да
Использование указателей C2 : Нет
Коррекция смещения при чтении : 6
Способность читать области Lead-in и Lead-out : Нет
Заполнение пропущенных сэмплов тишиной : Да
Удаление блоков с тишиной в начале и конце : Нет
При вычислениях CRC использовались нулевые сэмплы : Да
Интерфейс : Встроенный Win32-интерфейс для Win NT/2000
Выходной формат : Пользовательский кодировщик
Выбранный битрейт : 128 kBit/s
Качество : Высокий
Добавление ID3-тега : Нет
Утилита сжатия : C:\Program Files (x86)\Exact Audio Copy\Flac\flac.exe
Дополнительные параметры : -V -8 -T "Date=%year%" -T "Genre=%genre%" %source%
TOC извлечённого CD
Трек | Старт | Длительность | Начальный сектор | Конечный сектор
---------------------------------------------------------------------
1 | 0:00.00 | 5:59.42 | 0 | 26966
2 | 5:59.42 | 6:35.54 | 26967 | 56645
Характеристики диапазона извлечения и сообщения об ошибках
Выбранный диапазон
Имя файла M:\Italo Disco 12 Inch Collector's Box CD01.wav
Пиковый уровень 98.8 %
Скорость извлечения 4.9 X
Качество диапазона 99.9 %
CRC теста 5E784986
CRC копии 5E784986
Копирование... OK
Ошибок не произошло
AccurateRip: сводка
Трек 1 отсутствует в базе данных
Трек 2 отсутствует в базе данных
Ни одного трека нет в базе AccurateRip
Конец отчёта
==== Контрольная сумма отчёта B4A7BC7B2D90622E2E44EC2E3D0513EF5E6F4B2D18990DCB1F448A5BAED0E28D ====
Содержание индексной карты (.CUE)
 REM GENRE Dance
REM DATE 2014
REM DISCID 0C02F302
REM COMMENT "ExactAudioCopy v1.0b4"
PERFORMER "P. Lion"
TITLE "Happy Children"
FILE "Italo Disco 12 Inch Collector's Box CD01.flac" WAVE
TRACK 01 AUDIO
TITLE "Happy Children (Vocal Version)"
PERFORMER "P. Lion"
FLAGS DCP
INDEX 01 00:00:00
TRACK 02 AUDIO
TITLE "Happy Children (Instrumental)"
PERFORMER "P. Lion"
FLAGS DCP
INDEX 00 05:58:42
INDEX 01 05:59:42
 Exact Audio Copy V1.0 beta 4 from 7. December 2014
Отчёт EAC об извлечении, выполненном 1. февраля 2015, 9:56
P. Lion / Happy Children
Дисковод: HL-DT-STDVDRAM GH24NSC0 Adapter: 2 ID: 0
Режим чтения : Достоверность
Использование точного потока : Да
Отключение кэша аудио : Да
Использование указателей C2 : Нет
Коррекция смещения при чтении : 6
Способность читать области Lead-in и Lead-out : Нет
Заполнение пропущенных сэмплов тишиной : Да
Удаление блоков с тишиной в начале и конце : Нет
При вычислениях CRC использовались нулевые сэмплы : Да
Интерфейс : Встроенный Win32-интерфейс для Win NT/2000
Выходной формат : Пользовательский кодировщик
Выбранный битрейт : 128 kBit/s
Качество : Высокий
Добавление ID3-тега : Нет
Утилита сжатия : C:\Program Files (x86)\Exact Audio Copy\Flac\flac.exe
Дополнительные параметры : -V -8 -T "Date=%year%" -T "Genre=%genre%" %source%
TOC извлечённого CD
Трек | Старт | Длительность | Начальный сектор | Конечный сектор
---------------------------------------------------------------------
1 | 0:00.00 | 5:59.42 | 0 | 26966
2 | 5:59.42 | 6:35.54 | 26967 | 56645
Характеристики диапазона извлечения и сообщения об ошибках
Выбранный диапазон
Имя файла M:\Italo Disco 12 Inch Collector's Box CD01.wav
Пиковый уровень 98.8 %
Скорость извлечения 4.9 X
Качество диапазона 99.9 %
CRC теста 5E784986
CRC копии 5E784986
Копирование... OK
Ошибок не произошло
AccurateRip: сводка
Трек 1 отсутствует в базе данных
Трек 2 отсутствует в базе данных
Ни одного трека нет в базе AccurateRip
Конец отчёта
==== Контрольная сумма отчёта B4A7BC7B2D90622E2E44EC2E3D0513EF5E6F4B2D18990DCB1F448A5BAED0E28D ====
 REM GENRE Dance
REM DATE 2014
REM DISCID 0C02F302
REM COMMENT "ExactAudioCopy v1.0b4"
PERFORMER "P. Lion"
TITLE "Happy Children"
FILE "Italo Disco 12 Inch Collector's Box CD01.flac" WAVE
TRACK 01 AUDIO
TITLE "Happy Children (Vocal Version)"
PERFORMER "P. Lion"
FLAGS DCP
INDEX 01 00:00:00
TRACK 02 AUDIO
TITLE "Happy Children (Instrumental)"
PERFORMER "P. Lion"
FLAGS DCP
INDEX 00 05:58:42
INDEX 01 05:59:42
Трэклист:
1. Ken Laszlo - Tonight (Vocal) 5:48
2. Ken Laszlo - Tonight (Instrumental) 5:45
Лог создания рипа
 Exact Audio Copy V1.0 beta 4 from 7. December 2014
Отчёт EAC об извлечении, выполненном 1. февраля 2015, 10:05
Ken Laszlo / Tonight
Дисковод: HL-DT-STDVDRAM GH24NSC0 Adapter: 2 ID: 0
Режим чтения : Достоверность
Использование точного потока : Да
Отключение кэша аудио : Да
Использование указателей C2 : Нет
Коррекция смещения при чтении : 6
Способность читать области Lead-in и Lead-out : Нет
Заполнение пропущенных сэмплов тишиной : Да
Удаление блоков с тишиной в начале и конце : Нет
При вычислениях CRC использовались нулевые сэмплы : Да
Интерфейс : Встроенный Win32-интерфейс для Win NT/2000
Выходной формат : Пользовательский кодировщик
Выбранный битрейт : 128 kBit/s
Качество : Высокий
Добавление ID3-тега : Нет
Утилита сжатия : C:\Program Files (x86)\Exact Audio Copy\Flac\flac.exe
Дополнительные параметры : -V -8 -T "Date=%year%" -T "Genre=%genre%" %source%
TOC извлечённого CD
Трек | Старт | Длительность | Начальный сектор | Конечный сектор
---------------------------------------------------------------------
1 | 0:00.00 | 5:48.23 | 0 | 26122
2 | 5:48.23 | 5:45.02 | 26123 | 51999
Характеристики диапазона извлечения и сообщения об ошибках
Выбранный диапазон
Имя файла M:\Italo Disco 12 Inch Collector's Box CD02.wav
Пиковый уровень 98.8 %
Скорость извлечения 5.0 X
Качество диапазона 100.0 %
CRC теста ABCE541C
CRC копии ABCE541C
Копирование... OK
Ошибок не произошло
AccurateRip: сводка
Трек 1 отсутствует в базе данных
Трек 2 отсутствует в базе данных
Ни одного трека нет в базе AccurateRip
Конец отчёта
==== Контрольная сумма отчёта D46C2DEBB14AF826ABFF50D47A03E888BB1816E1C88AE223E2B542F1ECD48566 ====
Содержание индексной карты (.CUE)
 REM GENRE Dance
REM DATE 2014
REM DISCID 0A02B502
REM COMMENT "ExactAudioCopy v1.0b4"
PERFORMER "Ken Laszlo"
TITLE "Tonight"
FILE "Italo Disco 12 Inch Collector's Box CD02.flac" WAVE
TRACK 01 AUDIO
TITLE "Tonight (Vocal)"
PERFORMER "Ken Laszlo"
FLAGS DCP
INDEX 01 00:00:00
TRACK 02 AUDIO
TITLE "Tonight (Instrumental)"
PERFORMER "Ken Laszlo"
FLAGS DCP
INDEX 00 05:47:23
INDEX 01 05:48:23
 Exact Audio Copy V1.0 beta 4 from 7. December 2014
Отчёт EAC об извлечении, выполненном 1. февраля 2015, 10:05
Ken Laszlo / Tonight
Дисковод: HL-DT-STDVDRAM GH24NSC0 Adapter: 2 ID: 0
Режим чтения : Достоверность
Использование точного потока : Да
Отключение кэша аудио : Да
Использование указателей C2 : Нет
Коррекция смещения при чтении : 6
Способность читать области Lead-in и Lead-out : Нет
Заполнение пропущенных сэмплов тишиной : Да
Удаление блоков с тишиной в начале и конце : Нет
При вычислениях CRC использовались нулевые сэмплы : Да
Интерфейс : Встроенный Win32-интерфейс для Win NT/2000
Выходной формат : Пользовательский кодировщик
Выбранный битрейт : 128 kBit/s
Качество : Высокий
Добавление ID3-тега : Нет
Утилита сжатия : C:\Program Files (x86)\Exact Audio Copy\Flac\flac.exe
Дополнительные параметры : -V -8 -T "Date=%year%" -T "Genre=%genre%" %source%
TOC извлечённого CD
Трек | Старт | Длительность | Начальный сектор | Конечный сектор
---------------------------------------------------------------------
1 | 0:00.00 | 5:48.23 | 0 | 26122
2 | 5:48.23 | 5:45.02 | 26123 | 51999
Характеристики диапазона извлечения и сообщения об ошибках
Выбранный диапазон
Имя файла M:\Italo Disco 12 Inch Collector's Box CD02.wav
Пиковый уровень 98.8 %
Скорость извлечения 5.0 X
Качество диапазона 100.0 %
CRC теста ABCE541C
CRC копии ABCE541C
Копирование... OK
Ошибок не произошло
AccurateRip: сводка
Трек 1 отсутствует в базе данных
Трек 2 отсутствует в базе данных
Ни одного трека нет в базе AccurateRip
Конец отчёта
==== Контрольная сумма отчёта D46C2DEBB14AF826ABFF50D47A03E888BB1816E1C88AE223E2B542F1ECD48566 ====
 REM GENRE Dance
REM DATE 2014
REM DISCID 0A02B502
REM COMMENT "ExactAudioCopy v1.0b4"
PERFORMER "Ken Laszlo"
TITLE "Tonight"
FILE "Italo Disco 12 Inch Collector's Box CD02.flac" WAVE
TRACK 01 AUDIO
TITLE "Tonight (Vocal)"
PERFORMER "Ken Laszlo"
FLAGS DCP
INDEX 01 00:00:00
TRACK 02 AUDIO
TITLE "Tonight (Instrumental)"
PERFORMER "Ken Laszlo"
FLAGS DCP
INDEX 00 05:47:23
INDEX 01 05:48:23
Трэклист:
1. Radiorama - Chance To Desire (Vocal Version) 7:54
2. Radiorama - Chance To Desire (Instrumental Version) 7:09
Лог создания рипа
 Exact Audio Copy V1.0 beta 4 from 7. December 2014
Отчёт EAC об извлечении, выполненном 1. февраля 2015, 10:14
Radiorama / Chance To Desire
Дисковод: HL-DT-STDVDRAM GH24NSC0 Adapter: 2 ID: 0
Режим чтения : Достоверность
Использование точного потока : Да
Отключение кэша аудио : Да
Использование указателей C2 : Нет
Коррекция смещения при чтении : 6
Способность читать области Lead-in и Lead-out : Нет
Заполнение пропущенных сэмплов тишиной : Да
Удаление блоков с тишиной в начале и конце : Нет
При вычислениях CRC использовались нулевые сэмплы : Да
Интерфейс : Встроенный Win32-интерфейс для Win NT/2000
Выходной формат : Пользовательский кодировщик
Выбранный битрейт : 128 kBit/s
Качество : Высокий
Добавление ID3-тега : Нет
Утилита сжатия : C:\Program Files (x86)\Exact Audio Copy\Flac\flac.exe
Дополнительные параметры : -V -8 -T "Date=%year%" -T "Genre=%genre%" %source%
TOC извлечённого CD
Трек | Старт | Длительность | Начальный сектор | Конечный сектор
---------------------------------------------------------------------
1 | 0:00.00 | 7:54.41 | 0 | 35590
2 | 7:54.41 | 7:09.10 | 35591 | 67775
Характеристики диапазона извлечения и сообщения об ошибках
Выбранный диапазон
Имя файла M:\Italo Disco 12 Inch Collector's Box CD03.wav
Пиковый уровень 98.8 %
Скорость извлечения 5.1 X
Качество диапазона 99.9 %
CRC теста 77D4C147
CRC копии 77D4C147
Копирование... OK
Ошибок не произошло
AccurateRip: сводка
Трек 1 отсутствует в базе данных
Трек 2 отсутствует в базе данных
Ни одного трека нет в базе AccurateRip
Конец отчёта
==== Контрольная сумма отчёта 486AA956D2CE5D0111BB8BE9B13FA1E743D84ACD30ACDFD4F2A5A65D1DCB6659 ====
Содержание индексной карты (.CUE)
 REM GENRE Dance
REM DATE 2014
REM DISCID 13038702
REM COMMENT "ExactAudioCopy v1.0b4"
PERFORMER "Radiorama"
TITLE "Chance To Desire"
FILE "Italo Disco 12 Inch Collector's Box CD03.flac" WAVE
TRACK 01 AUDIO
TITLE "Chance To Desire (Vocal Version)"
PERFORMER "Radiorama"
FLAGS DCP
INDEX 01 00:00:00
TRACK 02 AUDIO
TITLE "Chance To Desire (Instrumental Version)"
PERFORMER "Radiorama"
FLAGS DCP
INDEX 00 07:53:41
INDEX 01 07:54:41
 Exact Audio Copy V1.0 beta 4 from 7. December 2014
Отчёт EAC об извлечении, выполненном 1. февраля 2015, 10:14
Radiorama / Chance To Desire
Дисковод: HL-DT-STDVDRAM GH24NSC0 Adapter: 2 ID: 0
Режим чтения : Достоверность
Использование точного потока : Да
Отключение кэша аудио : Да
Использование указателей C2 : Нет
Коррекция смещения при чтении : 6
Способность читать области Lead-in и Lead-out : Нет
Заполнение пропущенных сэмплов тишиной : Да
Удаление блоков с тишиной в начале и конце : Нет
При вычислениях CRC использовались нулевые сэмплы : Да
Интерфейс : Встроенный Win32-интерфейс для Win NT/2000
Выходной формат : Пользовательский кодировщик
Выбранный битрейт : 128 kBit/s
Качество : Высокий
Добавление ID3-тега : Нет
Утилита сжатия : C:\Program Files (x86)\Exact Audio Copy\Flac\flac.exe
Дополнительные параметры : -V -8 -T "Date=%year%" -T "Genre=%genre%" %source%
TOC извлечённого CD
Трек | Старт | Длительность | Начальный сектор | Конечный сектор
---------------------------------------------------------------------
1 | 0:00.00 | 7:54.41 | 0 | 35590
2 | 7:54.41 | 7:09.10 | 35591 | 67775
Характеристики диапазона извлечения и сообщения об ошибках
Выбранный диапазон
Имя файла M:\Italo Disco 12 Inch Collector's Box CD03.wav
Пиковый уровень 98.8 %
Скорость извлечения 5.1 X
Качество диапазона 99.9 %
CRC теста 77D4C147
CRC копии 77D4C147
Копирование... OK
Ошибок не произошло
AccurateRip: сводка
Трек 1 отсутствует в базе данных
Трек 2 отсутствует в базе данных
Ни одного трека нет в базе AccurateRip
Конец отчёта
==== Контрольная сумма отчёта 486AA956D2CE5D0111BB8BE9B13FA1E743D84ACD30ACDFD4F2A5A65D1DCB6659 ====
 REM GENRE Dance
REM DATE 2014
REM DISCID 13038702
REM COMMENT "ExactAudioCopy v1.0b4"
PERFORMER "Radiorama"
TITLE "Chance To Desire"
FILE "Italo Disco 12 Inch Collector's Box CD03.flac" WAVE
TRACK 01 AUDIO
TITLE "Chance To Desire (Vocal Version)"
PERFORMER "Radiorama"
FLAGS DCP
INDEX 01 00:00:00
TRACK 02 AUDIO
TITLE "Chance To Desire (Instrumental Version)"
PERFORMER "Radiorama"
FLAGS DCP
INDEX 00 07:53:41
INDEX 01 07:54:41
Трэклист:
1. Laserdance - Humanoid Invasion (Dance Mix) 7:13
2. Laserdance - Humanoid Invasion (Space Mix) 6:06
Лог создания рипа
 Exact Audio Copy V1.0 beta 4 from 7. December 2014
Отчёт EAC об извлечении, выполненном 1. февраля 2015, 10:23
Laserdance / Humanoid Invasion
Дисковод: HL-DT-STDVDRAM GH24NSC0 Adapter: 2 ID: 0
Режим чтения : Достоверность
Использование точного потока : Да
Отключение кэша аудио : Да
Использование указателей C2 : Нет
Коррекция смещения при чтении : 6
Способность читать области Lead-in и Lead-out : Нет
Заполнение пропущенных сэмплов тишиной : Да
Удаление блоков с тишиной в начале и конце : Нет
При вычислениях CRC использовались нулевые сэмплы : Да
Интерфейс : Встроенный Win32-интерфейс для Win NT/2000
Выходной формат : Пользовательский кодировщик
Выбранный битрейт : 128 kBit/s
Качество : Высокий
Добавление ID3-тега : Нет
Утилита сжатия : C:\Program Files (x86)\Exact Audio Copy\Flac\flac.exe
Дополнительные параметры : -V -8 -T "Date=%year%" -T "Genre=%genre%" %source%
TOC извлечённого CD
Трек | Старт | Длительность | Начальный сектор | Конечный сектор
---------------------------------------------------------------------
1 | 0:00.00 | 7:13.38 | 0 | 32512
2 | 7:13.38 | 6:06.47 | 32513 | 60009
Характеристики диапазона извлечения и сообщения об ошибках
Выбранный диапазон
Имя файла M:\Italo Disco 12 Inch Collector's Box CD04.wav
Пиковый уровень 98.8 %
Скорость извлечения 4.9 X
Качество диапазона 99.9 %
CRC теста B8A74150
CRC копии B8A74150
Копирование... OK
Ошибок не произошло
AccurateRip: сводка
Трек 1 отсутствует в базе данных
Трек 2 отсутствует в базе данных
Ни одного трека нет в базе AccurateRip
Конец отчёта
==== Контрольная сумма отчёта 9FEB5832FDC191BB0F16B699011522467BEA75AE0FBB6AB8C2DEB09B2A021CFB ====
Содержание индексной карты (.CUE)
 REM GENRE Dance
REM DATE 2014
REM DISCID 0E032002
REM COMMENT "ExactAudioCopy v1.0b4"
PERFORMER "Laserdance"
TITLE "Humanoid Invasion"
FILE "Italo Disco 12 Inch Collector's Box CD04.flac" WAVE
TRACK 01 AUDIO
TITLE "Humanoid Invasion (Dance Mix)"
PERFORMER "Laserdance"
FLAGS DCP
INDEX 01 00:00:00
TRACK 02 AUDIO
TITLE "Humanoid Invasion (Space Mix)"
PERFORMER "Laserdance"
FLAGS DCP
INDEX 00 07:12:38
INDEX 01 07:13:38
 Exact Audio Copy V1.0 beta 4 from 7. December 2014
Отчёт EAC об извлечении, выполненном 1. февраля 2015, 10:23
Laserdance / Humanoid Invasion
Дисковод: HL-DT-STDVDRAM GH24NSC0 Adapter: 2 ID: 0
Режим чтения : Достоверность
Использование точного потока : Да
Отключение кэша аудио : Да
Использование указателей C2 : Нет
Коррекция смещения при чтении : 6
Способность читать области Lead-in и Lead-out : Нет
Заполнение пропущенных сэмплов тишиной : Да
Удаление блоков с тишиной в начале и конце : Нет
При вычислениях CRC использовались нулевые сэмплы : Да
Интерфейс : Встроенный Win32-интерфейс для Win NT/2000
Выходной формат : Пользовательский кодировщик
Выбранный битрейт : 128 kBit/s
Качество : Высокий
Добавление ID3-тега : Нет
Утилита сжатия : C:\Program Files (x86)\Exact Audio Copy\Flac\flac.exe
Дополнительные параметры : -V -8 -T "Date=%year%" -T "Genre=%genre%" %source%
TOC извлечённого CD
Трек | Старт | Длительность | Начальный сектор | Конечный сектор
---------------------------------------------------------------------
1 | 0:00.00 | 7:13.38 | 0 | 32512
2 | 7:13.38 | 6:06.47 | 32513 | 60009
Характеристики диапазона извлечения и сообщения об ошибках
Выбранный диапазон
Имя файла M:\Italo Disco 12 Inch Collector's Box CD04.wav
Пиковый уровень 98.8 %
Скорость извлечения 4.9 X
Качество диапазона 99.9 %
CRC теста B8A74150
CRC копии B8A74150
Копирование... OK
Ошибок не произошло
AccurateRip: сводка
Трек 1 отсутствует в базе данных
Трек 2 отсутствует в базе данных
Ни одного трека нет в базе AccurateRip
Конец отчёта
==== Контрольная сумма отчёта 9FEB5832FDC191BB0F16B699011522467BEA75AE0FBB6AB8C2DEB09B2A021CFB ====
 REM GENRE Dance
REM DATE 2014
REM DISCID 0E032002
REM COMMENT "ExactAudioCopy v1.0b4"
PERFORMER "Laserdance"
TITLE "Humanoid Invasion"
FILE "Italo Disco 12 Inch Collector's Box CD04.flac" WAVE
TRACK 01 AUDIO
TITLE "Humanoid Invasion (Dance Mix)"
PERFORMER "Laserdance"
FLAGS DCP
INDEX 01 00:00:00
TRACK 02 AUDIO
TITLE "Humanoid Invasion (Space Mix)"
PERFORMER "Laserdance"
FLAGS DCP
INDEX 00 07:12:38
INDEX 01 07:13:38
Трэклист:
1. Plastic Mode - Mi Amor (12" Version) 7:01
2. Plastic Mode - A Jazzy Woman 6:52
Лог создания рипа
 Exact Audio Copy V1.0 beta 4 from 7. December 2014
Отчёт EAC об извлечении, выполненном 1. февраля 2015, 10:49
Plastic Mode / Mi Amor
Дисковод: HL-DT-STDVDRAM GH24NSC0 Adapter: 2 ID: 0
Режим чтения : Достоверность
Использование точного потока : Да
Отключение кэша аудио : Да
Использование указателей C2 : Нет
Коррекция смещения при чтении : 6
Способность читать области Lead-in и Lead-out : Нет
Заполнение пропущенных сэмплов тишиной : Да
Удаление блоков с тишиной в начале и конце : Нет
При вычислениях CRC использовались нулевые сэмплы : Да
Интерфейс : Встроенный Win32-интерфейс для Win NT/2000
Выходной формат : Пользовательский кодировщик
Выбранный битрейт : 128 kBit/s
Качество : Высокий
Добавление ID3-тега : Нет
Утилита сжатия : C:\Program Files (x86)\Exact Audio Copy\Flac\flac.exe
Дополнительные параметры : -V -8 -T "Date=%year%" -T "Genre=%genre%" %source%
TOC извлечённого CD
Трек | Старт | Длительность | Начальный сектор | Конечный сектор
---------------------------------------------------------------------
1 | 0:00.00 | 6:52.14 | 0 | 30913
2 | 6:52.14 | 7:01.59 | 30914 | 62547
Характеристики диапазона извлечения и сообщения об ошибках
Выбранный диапазон
Имя файла M:\Italo Disco 12 Inch Collector's Box CD05.wav
Пиковый уровень 98.8 %
Скорость извлечения 5.0 X
Качество диапазона 99.9 %
CRC теста 61D0E1D9
CRC копии 61D0E1D9
Копирование... OK
Ошибок не произошло
AccurateRip: сводка
Трек 1 отсутствует в базе данных
Трек 2 отсутствует в базе данных
Ни одного трека нет в базе AccurateRip
Конец отчёта
==== Контрольная сумма отчёта BBE68FBA3BE440FAFE34B3064F762EE7308540235A4C4BD1BE21C1DE9168F667 ====
Содержание индексной карты (.CUE)
 REM GENRE Dance
REM DATE 2014
REM DISCID 0B034102
REM COMMENT "ExactAudioCopy v1.0b4"
PERFORMER "Plastic Mode"
TITLE "Mi Amor"
FILE "Italo Disco 12 Inch Collector's Box CD05.flac" WAVE
TRACK 01 AUDIO
TITLE "Mi Amor (12 Inch Version)"
PERFORMER "Plastic Mode"
FLAGS DCP
INDEX 01 00:00:00
TRACK 02 AUDIO
TITLE "A Jazzy Woman"
PERFORMER "Plastic Mode"
FLAGS DCP
INDEX 00 06:49:62
INDEX 01 06:52:14
 Exact Audio Copy V1.0 beta 4 from 7. December 2014
Отчёт EAC об извлечении, выполненном 1. февраля 2015, 10:49
Plastic Mode / Mi Amor
Дисковод: HL-DT-STDVDRAM GH24NSC0 Adapter: 2 ID: 0
Режим чтения : Достоверность
Использование точного потока : Да
Отключение кэша аудио : Да
Использование указателей C2 : Нет
Коррекция смещения при чтении : 6
Способность читать области Lead-in и Lead-out : Нет
Заполнение пропущенных сэмплов тишиной : Да
Удаление блоков с тишиной в начале и конце : Нет
При вычислениях CRC использовались нулевые сэмплы : Да
Интерфейс : Встроенный Win32-интерфейс для Win NT/2000
Выходной формат : Пользовательский кодировщик
Выбранный битрейт : 128 kBit/s
Качество : Высокий
Добавление ID3-тега : Нет
Утилита сжатия : C:\Program Files (x86)\Exact Audio Copy\Flac\flac.exe
Дополнительные параметры : -V -8 -T "Date=%year%" -T "Genre=%genre%" %source%
TOC извлечённого CD
Трек | Старт | Длительность | Начальный сектор | Конечный сектор
---------------------------------------------------------------------
1 | 0:00.00 | 6:52.14 | 0 | 30913
2 | 6:52.14 | 7:01.59 | 30914 | 62547
Характеристики диапазона извлечения и сообщения об ошибках
Выбранный диапазон
Имя файла M:\Italo Disco 12 Inch Collector's Box CD05.wav
Пиковый уровень 98.8 %
Скорость извлечения 5.0 X
Качество диапазона 99.9 %
CRC теста 61D0E1D9
CRC копии 61D0E1D9
Копирование... OK
Ошибок не произошло
AccurateRip: сводка
Трек 1 отсутствует в базе данных
Трек 2 отсутствует в базе данных
Ни одного трека нет в базе AccurateRip
Конец отчёта
==== Контрольная сумма отчёта BBE68FBA3BE440FAFE34B3064F762EE7308540235A4C4BD1BE21C1DE9168F667 ====
 REM GENRE Dance
REM DATE 2014
REM DISCID 0B034102
REM COMMENT "ExactAudioCopy v1.0b4"
PERFORMER "Plastic Mode"
TITLE "Mi Amor"
FILE "Italo Disco 12 Inch Collector's Box CD05.flac" WAVE
TRACK 01 AUDIO
TITLE "Mi Amor (12 Inch Version)"
PERFORMER "Plastic Mode"
FLAGS DCP
INDEX 01 00:00:00
TRACK 02 AUDIO
TITLE "A Jazzy Woman"
PERFORMER "Plastic Mode"
FLAGS DCP
INDEX 00 06:49:62
INDEX 01 06:52:14
Трэклист:
1. Lee Marrow - Sayonara (Don't Stop) (Vocal Version) 8:04
2. Lee Marrow - Sayonara (Don't Stop) (Short Version) 5:51
Лог создания рипа
 Exact Audio Copy V1.0 beta 4 from 7. December 2014
Отчёт EAC об извлечении, выполненном 1. февраля 2015, 10:40
Lee Marrow / Sayonara
Дисковод: HL-DT-STDVDRAM GH24NSC0 Adapter: 2 ID: 0
Режим чтения : Достоверность
Использование точного потока : Да
Отключение кэша аудио : Да
Использование указателей C2 : Нет
Коррекция смещения при чтении : 6
Способность читать области Lead-in и Lead-out : Нет
Заполнение пропущенных сэмплов тишиной : Да
Удаление блоков с тишиной в начале и конце : Нет
При вычислениях CRC использовались нулевые сэмплы : Да
Интерфейс : Встроенный Win32-интерфейс для Win NT/2000
Выходной формат : Пользовательский кодировщик
Выбранный битрейт : 128 kBit/s
Качество : Высокий
Добавление ID3-тега : Нет
Утилита сжатия : C:\Program Files (x86)\Exact Audio Copy\Flac\flac.exe
Дополнительные параметры : -V -8 -T "Date=%year%" -T "Genre=%genre%" %source%
TOC извлечённого CD
Трек | Старт | Длительность | Начальный сектор | Конечный сектор
---------------------------------------------------------------------
1 | 0:00.00 | 8:04.30 | 0 | 36329
2 | 8:04.30 | 5:51.54 | 36330 | 62708
Характеристики диапазона извлечения и сообщения об ошибках
Выбранный диапазон
Имя файла M:\Italo Disco 12 Inch Collector's Box CD06.wav
Пиковый уровень 98.8 %
Скорость извлечения 5.2 X
Качество диапазона 100.0 %
CRC теста 16B96D38
CRC копии 16B96D38
Копирование... OK
Ошибок не произошло
AccurateRip: сводка
Трек 1 отсутствует в базе данных
Трек 2 отсутствует в базе данных
Ни одного трека нет в базе AccurateRip
Конец отчёта
==== Контрольная сумма отчёта B56ED777D2F1A630D956CE6AB2FDC4698523F6C8E63AE9A319D5E3273CAAC172 ====
Содержание индексной карты (.CUE)
 REM GENRE Dance
REM DATE 2104
REM DISCID 14034402
REM COMMENT "ExactAudioCopy v1.0b4"
PERFORMER "Lee Marrow"
TITLE "Sayonara"
FILE "Italo Disco 12 Inch Collector's Box CD06.flac" WAVE
TRACK 01 AUDIO
TITLE "Sayonara (Don't Stop) (Vocal Version)"
PERFORMER "Lee Marrow"
FLAGS DCP
INDEX 01 00:00:00
TRACK 02 AUDIO
TITLE "Sayonara (Don't Stop) (Short Version)"
PERFORMER "Lee Marrow"
FLAGS DCP
INDEX 00 08:03:30
INDEX 01 08:04:30
 Exact Audio Copy V1.0 beta 4 from 7. December 2014
Отчёт EAC об извлечении, выполненном 1. февраля 2015, 10:40
Lee Marrow / Sayonara
Дисковод: HL-DT-STDVDRAM GH24NSC0 Adapter: 2 ID: 0
Режим чтения : Достоверность
Использование точного потока : Да
Отключение кэша аудио : Да
Использование указателей C2 : Нет
Коррекция смещения при чтении : 6
Способность читать области Lead-in и Lead-out : Нет
Заполнение пропущенных сэмплов тишиной : Да
Удаление блоков с тишиной в начале и конце : Нет
При вычислениях CRC использовались нулевые сэмплы : Да
Интерфейс : Встроенный Win32-интерфейс для Win NT/2000
Выходной формат : Пользовательский кодировщик
Выбранный битрейт : 128 kBit/s
Качество : Высокий
Добавление ID3-тега : Нет
Утилита сжатия : C:\Program Files (x86)\Exact Audio Copy\Flac\flac.exe
Дополнительные параметры : -V -8 -T "Date=%year%" -T "Genre=%genre%" %source%
TOC извлечённого CD
Трек | Старт | Длительность | Начальный сектор | Конечный сектор
---------------------------------------------------------------------
1 | 0:00.00 | 8:04.30 | 0 | 36329
2 | 8:04.30 | 5:51.54 | 36330 | 62708
Характеристики диапазона извлечения и сообщения об ошибках
Выбранный диапазон
Имя файла M:\Italo Disco 12 Inch Collector's Box CD06.wav
Пиковый уровень 98.8 %
Скорость извлечения 5.2 X
Качество диапазона 100.0 %
CRC теста 16B96D38
CRC копии 16B96D38
Копирование... OK
Ошибок не произошло
AccurateRip: сводка
Трек 1 отсутствует в базе данных
Трек 2 отсутствует в базе данных
Ни одного трека нет в базе AccurateRip
Конец отчёта
==== Контрольная сумма отчёта B56ED777D2F1A630D956CE6AB2FDC4698523F6C8E63AE9A319D5E3273CAAC172 ====
 REM GENRE Dance
REM DATE 2104
REM DISCID 14034402
REM COMMENT "ExactAudioCopy v1.0b4"
PERFORMER "Lee Marrow"
TITLE "Sayonara"
FILE "Italo Disco 12 Inch Collector's Box CD06.flac" WAVE
TRACK 01 AUDIO
TITLE "Sayonara (Don't Stop) (Vocal Version)"
PERFORMER "Lee Marrow"
FLAGS DCP
INDEX 01 00:00:00
TRACK 02 AUDIO
TITLE "Sayonara (Don't Stop) (Short Version)"
PERFORMER "Lee Marrow"
FLAGS DCP
INDEX 00 08:03:30
INDEX 01 08:04:30
Трэклист:
1. Italian Boys - Forever Lovers (Extended Vocal Version) 6:06
2. Italian Boys - Forever Lovers (House Mix) 5:45
Лог создания рипа
 Exact Audio Copy V1.0 beta 4 from 7. December 2014
Отчёт EAC об извлечении, выполненном 1. февраля 2015, 10:57
Italian Boys / Forever Lovers
Дисковод: HL-DT-STDVDRAM GH24NSC0 Adapter: 2 ID: 0
Режим чтения : Достоверность
Использование точного потока : Да
Отключение кэша аудио : Да
Использование указателей C2 : Нет
Коррекция смещения при чтении : 6
Способность читать области Lead-in и Lead-out : Нет
Заполнение пропущенных сэмплов тишиной : Да
Удаление блоков с тишиной в начале и конце : Нет
При вычислениях CRC использовались нулевые сэмплы : Да
Интерфейс : Встроенный Win32-интерфейс для Win NT/2000
Выходной формат : Пользовательский кодировщик
Выбранный битрейт : 128 kBit/s
Качество : Высокий
Добавление ID3-тега : Нет
Утилита сжатия : C:\Program Files (x86)\Exact Audio Copy\Flac\flac.exe
Дополнительные параметры : -V -8 -T "Date=%year%" -T "Genre=%genre%" %source%
TOC извлечённого CD
Трек | Старт | Длительность | Начальный сектор | Конечный сектор
---------------------------------------------------------------------
1 | 0:00.00 | 6:06.28 | 0 | 27477
2 | 6:06.28 | 5:45.40 | 27478 | 53392
Характеристики диапазона извлечения и сообщения об ошибках
Выбранный диапазон
Имя файла M:\Italo Disco 12 Inch Collector's Box CD07.wav
Пиковый уровень 98.8 %
Скорость извлечения 5.0 X
Качество диапазона 100.0 %
CRC теста BB6F5ABE
CRC копии BB6F5ABE
Копирование... OK
Ошибок не произошло
AccurateRip: сводка
Трек 1 отсутствует в базе данных
Трек 2 отсутствует в базе данных
Ни одного трека нет в базе AccurateRip
Конец отчёта
==== Контрольная сумма отчёта 18DA40C2C8F97338159904F7D22A3BB78EE45BE9149020AE587E91257223E3E1 ====
Содержание индексной карты (.CUE)
 REM GENRE Dance
REM DATE 2014
REM DISCID 1302C702
REM COMMENT "ExactAudioCopy v1.0b4"
PERFORMER "Italian Boys"
TITLE "Forever Lovers"
FILE "Italo Disco 12 Inch Collector's Box CD07.flac" WAVE
TRACK 01 AUDIO
TITLE "Forever Lovers (Extended Vocal Version)"
PERFORMER "Italian Boys"
FLAGS DCP
INDEX 01 00:00:00
TRACK 02 AUDIO
TITLE "Forever Lovers (House Mix)"
PERFORMER "Italian Boys"
FLAGS DCP
INDEX 00 06:05:48
INDEX 01 06:06:28
 Exact Audio Copy V1.0 beta 4 from 7. December 2014
Отчёт EAC об извлечении, выполненном 1. февраля 2015, 10:57
Italian Boys / Forever Lovers
Дисковод: HL-DT-STDVDRAM GH24NSC0 Adapter: 2 ID: 0
Режим чтения : Достоверность
Использование точного потока : Да
Отключение кэша аудио : Да
Использование указателей C2 : Нет
Коррекция смещения при чтении : 6
Способность читать области Lead-in и Lead-out : Нет
Заполнение пропущенных сэмплов тишиной : Да
Удаление блоков с тишиной в начале и конце : Нет
При вычислениях CRC использовались нулевые сэмплы : Да
Интерфейс : Встроенный Win32-интерфейс для Win NT/2000
Выходной формат : Пользовательский кодировщик
Выбранный битрейт : 128 kBit/s
Качество : Высокий
Добавление ID3-тега : Нет
Утилита сжатия : C:\Program Files (x86)\Exact Audio Copy\Flac\flac.exe
Дополнительные параметры : -V -8 -T "Date=%year%" -T "Genre=%genre%" %source%
TOC извлечённого CD
Трек | Старт | Длительность | Начальный сектор | Конечный сектор
---------------------------------------------------------------------
1 | 0:00.00 | 6:06.28 | 0 | 27477
2 | 6:06.28 | 5:45.40 | 27478 | 53392
Характеристики диапазона извлечения и сообщения об ошибках
Выбранный диапазон
Имя файла M:\Italo Disco 12 Inch Collector's Box CD07.wav
Пиковый уровень 98.8 %
Скорость извлечения 5.0 X
Качество диапазона 100.0 %
CRC теста BB6F5ABE
CRC копии BB6F5ABE
Копирование... OK
Ошибок не произошло
AccurateRip: сводка
Трек 1 отсутствует в базе данных
Трек 2 отсутствует в базе данных
Ни одного трека нет в базе AccurateRip
Конец отчёта
==== Контрольная сумма отчёта 18DA40C2C8F97338159904F7D22A3BB78EE45BE9149020AE587E91257223E3E1 ====
 REM GENRE Dance
REM DATE 2014
REM DISCID 1302C702
REM COMMENT "ExactAudioCopy v1.0b4"
PERFORMER "Italian Boys"
TITLE "Forever Lovers"
FILE "Italo Disco 12 Inch Collector's Box CD07.flac" WAVE
TRACK 01 AUDIO
TITLE "Forever Lovers (Extended Vocal Version)"
PERFORMER "Italian Boys"
FLAGS DCP
INDEX 01 00:00:00
TRACK 02 AUDIO
TITLE "Forever Lovers (House Mix)"
PERFORMER "Italian Boys"
FLAGS DCP
INDEX 00 06:05:48
INDEX 01 06:06:28
Трэклист:
1. Savage - Don't Cry Tonight (Maxi Version) 6:54
2. Savage - Don't Cry Tonight (Instrumental Version) 5:48
Лог создания рипа
 Exact Audio Copy V1.0 beta 4 from 7. December 2014
Отчёт EAC об извлечении, выполненном 1. февраля 2015, 11:13
Savage / Don't Cry Tonight
Дисковод: HL-DT-STDVDRAM GH24NSC0 Adapter: 2 ID: 0
Режим чтения : Достоверность
Использование точного потока : Да
Отключение кэша аудио : Да
Использование указателей C2 : Нет
Коррекция смещения при чтении : 6
Способность читать области Lead-in и Lead-out : Нет
Заполнение пропущенных сэмплов тишиной : Да
Удаление блоков с тишиной в начале и конце : Нет
При вычислениях CRC использовались нулевые сэмплы : Да
Интерфейс : Встроенный Win32-интерфейс для Win NT/2000
Выходной формат : Пользовательский кодировщик
Выбранный битрейт : 128 kBit/s
Качество : Высокий
Добавление ID3-тега : Нет
Утилита сжатия : C:\Program Files (x86)\Exact Audio Copy\Flac\flac.exe
Дополнительные параметры : -V -8 -T "Date=%year%" -T "Genre=%genre%" %source%
TOC извлечённого CD
Трек | Старт | Длительность | Начальный сектор | Конечный сектор
---------------------------------------------------------------------
1 | 0:00.00 | 6:54.47 | 0 | 31096
2 | 6:54.47 | 5:48.38 | 31097 | 57234
Характеристики диапазона извлечения и сообщения об ошибках
Выбранный диапазон
Имя файла M:\Italo Disco 12 Inch Collector's Box CD08.wav
Пиковый уровень 98.8 %
Скорость извлечения 5.1 X
Качество диапазона 100.0 %
CRC теста 506B7EE5
CRC копии 506B7EE5
Копирование... OK
Ошибок не произошло
AccurateRip: сводка
Трек 1 отсутствует в базе данных
Трек 2 отсутствует в базе данных
Ни одного трека нет в базе AccurateRip
Конец отчёта
==== Контрольная сумма отчёта CB84E721DA32E14ECA82C2353CF84495FF8B2A45359EFFCCD45C8EDCAB263B9B ====
Содержание индексной карты (.CUE)
 REM GENRE Dance
REM DATE 2014
REM DISCID 0D02FB02
REM COMMENT "ExactAudioCopy v1.0b4"
PERFORMER "Savage"
TITLE "Don't Cry Tonight"
FILE "Italo Disco 12 Inch Collector's Box CD08.flac" WAVE
TRACK 01 AUDIO
TITLE "Don't Cry Tonight (Maxi Version)"
PERFORMER "Savage"
FLAGS DCP
INDEX 01 00:00:00
TRACK 02 AUDIO
TITLE "Don't Cry Tonight (Instrumental Version)"
PERFORMER "Savage"
FLAGS DCP
INDEX 00 06:53:47
INDEX 01 06:54:47
 Exact Audio Copy V1.0 beta 4 from 7. December 2014
Отчёт EAC об извлечении, выполненном 1. февраля 2015, 11:13
Savage / Don't Cry Tonight
Дисковод: HL-DT-STDVDRAM GH24NSC0 Adapter: 2 ID: 0
Режим чтения : Достоверность
Использование точного потока : Да
Отключение кэша аудио : Да
Использование указателей C2 : Нет
Коррекция смещения при чтении : 6
Способность читать области Lead-in и Lead-out : Нет
Заполнение пропущенных сэмплов тишиной : Да
Удаление блоков с тишиной в начале и конце : Нет
При вычислениях CRC использовались нулевые сэмплы : Да
Интерфейс : Встроенный Win32-интерфейс для Win NT/2000
Выходной формат : Пользовательский кодировщик
Выбранный битрейт : 128 kBit/s
Качество : Высокий
Добавление ID3-тега : Нет
Утилита сжатия : C:\Program Files (x86)\Exact Audio Copy\Flac\flac.exe
Дополнительные параметры : -V -8 -T "Date=%year%" -T "Genre=%genre%" %source%
TOC извлечённого CD
Трек | Старт | Длительность | Начальный сектор | Конечный сектор
---------------------------------------------------------------------
1 | 0:00.00 | 6:54.47 | 0 | 31096
2 | 6:54.47 | 5:48.38 | 31097 | 57234
Характеристики диапазона извлечения и сообщения об ошибках
Выбранный диапазон
Имя файла M:\Italo Disco 12 Inch Collector's Box CD08.wav
Пиковый уровень 98.8 %
Скорость извлечения 5.1 X
Качество диапазона 100.0 %
CRC теста 506B7EE5
CRC копии 506B7EE5
Копирование... OK
Ошибок не произошло
AccurateRip: сводка
Трек 1 отсутствует в базе данных
Трек 2 отсутствует в базе данных
Ни одного трека нет в базе AccurateRip
Конец отчёта
==== Контрольная сумма отчёта CB84E721DA32E14ECA82C2353CF84495FF8B2A45359EFFCCD45C8EDCAB263B9B ====
 REM GENRE Dance
REM DATE 2014
REM DISCID 0D02FB02
REM COMMENT "ExactAudioCopy v1.0b4"
PERFORMER "Savage"
TITLE "Don't Cry Tonight"
FILE "Italo Disco 12 Inch Collector's Box CD08.flac" WAVE
TRACK 01 AUDIO
TITLE "Don't Cry Tonight (Maxi Version)"
PERFORMER "Savage"
FLAGS DCP
INDEX 01 00:00:00
TRACK 02 AUDIO
TITLE "Don't Cry Tonight (Instrumental Version)"
PERFORMER "Savage"
FLAGS DCP
INDEX 00 06:53:47
INDEX 01 06:54:47
Трэклист:
1. Den Harrow - To Meet Me (A-Version) 6:11
2. Den Harrow - To Meet Me (D-Version) 6:27
Лог создания рипа
 Exact Audio Copy V1.0 beta 4 from 7. December 2014
Отчёт EAC об извлечении, выполненном 1. февраля 2015, 11:21
Den Harrow / To Meet Me
Дисковод: HL-DT-STDVDRAM GH24NSC0 Adapter: 2 ID: 0
Режим чтения : Достоверность
Использование точного потока : Да
Отключение кэша аудио : Да
Использование указателей C2 : Нет
Коррекция смещения при чтении : 6
Способность читать области Lead-in и Lead-out : Нет
Заполнение пропущенных сэмплов тишиной : Да
Удаление блоков с тишиной в начале и конце : Нет
При вычислениях CRC использовались нулевые сэмплы : Да
Интерфейс : Встроенный Win32-интерфейс для Win NT/2000
Выходной формат : Пользовательский кодировщик
Выбранный битрейт : 128 kBit/s
Качество : Высокий
Добавление ID3-тега : Нет
Утилита сжатия : C:\Program Files (x86)\Exact Audio Copy\Flac\flac.exe
Дополнительные параметры : -V -8 -T "Date=%year%" -T "Genre=%genre%" %source%
TOC извлечённого CD
Трек | Старт | Длительность | Начальный сектор | Конечный сектор
---------------------------------------------------------------------
1 | 0:00.00 | 6:11.69 | 0 | 27893
2 | 6:11.69 | 6:27.11 | 27894 | 56929
Характеристики диапазона извлечения и сообщения об ошибках
Выбранный диапазон
Имя файла M:\Italo Disco 12 Inch Collector's Box CD09.wav
Пиковый уровень 98.8 %
Скорость извлечения 5.1 X
Качество диапазона 100.0 %
CRC теста 0E9D86D5
CRC копии 0E9D86D5
Копирование... OK
Ошибок не произошло
AccurateRip: сводка
Трек 1 отсутствует в базе данных
Трек 2 отсутствует в базе данных
Ни одного трека нет в базе AccurateRip
Конец отчёта
==== Контрольная сумма отчёта 75ED453B53D661C6F593277EF7F7721E874CAA4AC3CBD4287B8D37CF2FCC3BC6 ====
Содержание индексной карты (.CUE)
 REM GENRE Dance
REM DATE 2014
REM DISCID 0F02F702
REM COMMENT "ExactAudioCopy v1.0b4"
PERFORMER "Den Harrow"
TITLE "To Meet Me"
FILE "Italo Disco 12 Inch Collector's Box CD09.flac" WAVE
TRACK 01 AUDIO
TITLE "To Meet Me (A-Version)"
PERFORMER "Den Harrow"
FLAGS DCP
INDEX 01 00:00:00
TRACK 02 AUDIO
TITLE "To Meet Me (D-Version)"
PERFORMER "Den Harrow"
FLAGS DCP
INDEX 00 06:10:69
INDEX 01 06:11:69
 Exact Audio Copy V1.0 beta 4 from 7. December 2014
Отчёт EAC об извлечении, выполненном 1. февраля 2015, 11:21
Den Harrow / To Meet Me
Дисковод: HL-DT-STDVDRAM GH24NSC0 Adapter: 2 ID: 0
Режим чтения : Достоверность
Использование точного потока : Да
Отключение кэша аудио : Да
Использование указателей C2 : Нет
Коррекция смещения при чтении : 6
Способность читать области Lead-in и Lead-out : Нет
Заполнение пропущенных сэмплов тишиной : Да
Удаление блоков с тишиной в начале и конце : Нет
При вычислениях CRC использовались нулевые сэмплы : Да
Интерфейс : Встроенный Win32-интерфейс для Win NT/2000
Выходной формат : Пользовательский кодировщик
Выбранный битрейт : 128 kBit/s
Качество : Высокий
Добавление ID3-тега : Нет
Утилита сжатия : C:\Program Files (x86)\Exact Audio Copy\Flac\flac.exe
Дополнительные параметры : -V -8 -T "Date=%year%" -T "Genre=%genre%" %source%
TOC извлечённого CD
Трек | Старт | Длительность | Начальный сектор | Конечный сектор
---------------------------------------------------------------------
1 | 0:00.00 | 6:11.69 | 0 | 27893
2 | 6:11.69 | 6:27.11 | 27894 | 56929
Характеристики диапазона извлечения и сообщения об ошибках
Выбранный диапазон
Имя файла M:\Italo Disco 12 Inch Collector's Box CD09.wav
Пиковый уровень 98.8 %
Скорость извлечения 5.1 X
Качество диапазона 100.0 %
CRC теста 0E9D86D5
CRC копии 0E9D86D5
Копирование... OK
Ошибок не произошло
AccurateRip: сводка
Трек 1 отсутствует в базе данных
Трек 2 отсутствует в базе данных
Ни одного трека нет в базе AccurateRip
Конец отчёта
==== Контрольная сумма отчёта 75ED453B53D661C6F593277EF7F7721E874CAA4AC3CBD4287B8D37CF2FCC3BC6 ====
 REM GENRE Dance
REM DATE 2014
REM DISCID 0F02F702
REM COMMENT "ExactAudioCopy v1.0b4"
PERFORMER "Den Harrow"
TITLE "To Meet Me"
FILE "Italo Disco 12 Inch Collector's Box CD09.flac" WAVE
TRACK 01 AUDIO
TITLE "To Meet Me (A-Version)"
PERFORMER "Den Harrow"
FLAGS DCP
INDEX 01 00:00:00
TRACK 02 AUDIO
TITLE "To Meet Me (D-Version)"
PERFORMER "Den Harrow"
FLAGS DCP
INDEX 00 06:10:69
INDEX 01 06:11:69
Трэклист:
1. Scotch - Disco Band (Vocal Version) 5:10
2. Scotch - Disco Band (Instrumental) 5:20
Лог создания рипа
 Exact Audio Copy V1.0 beta 4 from 7. December 2014
Отчёт EAC об извлечении, выполненном 1. февраля 2015, 11:40
Scotch / Disco Band
Дисковод: HL-DT-STDVDRAM GH24NSC0 Adapter: 2 ID: 0
Режим чтения : Достоверность
Использование точного потока : Да
Отключение кэша аудио : Да
Использование указателей C2 : Нет
Коррекция смещения при чтении : 6
Способность читать области Lead-in и Lead-out : Нет
Заполнение пропущенных сэмплов тишиной : Да
Удаление блоков с тишиной в начале и конце : Нет
При вычислениях CRC использовались нулевые сэмплы : Да
Интерфейс : Встроенный Win32-интерфейс для Win NT/2000
Выходной формат : Пользовательский кодировщик
Выбранный битрейт : 128 kBit/s
Качество : Высокий
Добавление ID3-тега : Нет
Утилита сжатия : C:\Program Files (x86)\Exact Audio Copy\Flac\flac.exe
Дополнительные параметры : -V -8 -T "Date=%year%" -T "Genre=%genre%" %source%
TOC извлечённого CD
Трек | Старт | Длительность | Начальный сектор | Конечный сектор
---------------------------------------------------------------------
1 | 0:00.00 | 5:09.20 | 0 | 23194
2 | 5:09.20 | 5:20.69 | 23195 | 47263
Характеристики диапазона извлечения и сообщения об ошибках
Выбранный диапазон
Имя файла M:\Italo Disco 12 Inch Collector's Box CD10.wav
Пиковый уровень 98.8 %
Скорость извлечения 4.9 X
Качество диапазона 100.0 %
CRC теста 15BCDF2D
CRC копии 15BCDF2D
Копирование... OK
Ошибок не произошло
AccurateRip: сводка
Трек 1 отсутствует в базе данных
Трек 2 отсутствует в базе данных
Ни одного трека нет в базе AccurateRip
Конец отчёта
==== Контрольная сумма отчёта 29E4312538F3F1DADD51480CB0EBD8FFE209BDCBF07EBF3AF0AC94E9A5A1647A ====
Содержание индексной карты (.CUE)
 REM GENRE Dance
REM DATE 2014
REM DISCID 07027602
REM COMMENT "ExactAudioCopy v1.0b4"
PERFORMER "Scotch"
TITLE "Disco Band"
FILE "Italo Disco 12 Inch Collector's Box CD10.flac" WAVE
TRACK 01 AUDIO
TITLE "Disco Band (Vocal)"
PERFORMER "Scotch"
FLAGS DCP
INDEX 01 00:00:00
TRACK 02 AUDIO
TITLE "Disco Band (Instrumental)"
PERFORMER "Scotch"
FLAGS DCP
INDEX 00 05:07:62
INDEX 01 05:09:20
 Exact Audio Copy V1.0 beta 4 from 7. December 2014
Отчёт EAC об извлечении, выполненном 1. февраля 2015, 11:40
Scotch / Disco Band
Дисковод: HL-DT-STDVDRAM GH24NSC0 Adapter: 2 ID: 0
Режим чтения : Достоверность
Использование точного потока : Да
Отключение кэша аудио : Да
Использование указателей C2 : Нет
Коррекция смещения при чтении : 6
Способность читать области Lead-in и Lead-out : Нет
Заполнение пропущенных сэмплов тишиной : Да
Удаление блоков с тишиной в начале и конце : Нет
При вычислениях CRC использовались нулевые сэмплы : Да
Интерфейс : Встроенный Win32-интерфейс для Win NT/2000
Выходной формат : Пользовательский кодировщик
Выбранный битрейт : 128 kBit/s
Качество : Высокий
Добавление ID3-тега : Нет
Утилита сжатия : C:\Program Files (x86)\Exact Audio Copy\Flac\flac.exe
Дополнительные параметры : -V -8 -T "Date=%year%" -T "Genre=%genre%" %source%
TOC извлечённого CD
Трек | Старт | Длительность | Начальный сектор | Конечный сектор
---------------------------------------------------------------------
1 | 0:00.00 | 5:09.20 | 0 | 23194
2 | 5:09.20 | 5:20.69 | 23195 | 47263
Характеристики диапазона извлечения и сообщения об ошибках
Выбранный диапазон
Имя файла M:\Italo Disco 12 Inch Collector's Box CD10.wav
Пиковый уровень 98.8 %
Скорость извлечения 4.9 X
Качество диапазона 100.0 %
CRC теста 15BCDF2D
CRC копии 15BCDF2D
Копирование... OK
Ошибок не произошло
AccurateRip: сводка
Трек 1 отсутствует в базе данных
Трек 2 отсутствует в базе данных
Ни одного трека нет в базе AccurateRip
Конец отчёта
==== Контрольная сумма отчёта 29E4312538F3F1DADD51480CB0EBD8FFE209BDCBF07EBF3AF0AC94E9A5A1647A ====
 REM GENRE Dance
REM DATE 2014
REM DISCID 07027602
REM COMMENT "ExactAudioCopy v1.0b4"
PERFORMER "Scotch"
TITLE "Disco Band"
FILE "Italo Disco 12 Inch Collector's Box CD10.flac" WAVE
TRACK 01 AUDIO
TITLE "Disco Band (Vocal)"
PERFORMER "Scotch"
FLAGS DCP
INDEX 01 00:00:00
TRACK 02 AUDIO
TITLE "Disco Band (Instrumental)"
PERFORMER "Scotch"
FLAGS DCP
INDEX 00 05:07:62
INDEX 01 05:09:20

[893.4 MB] Скачать / Download