(Italo-Disco, Disco) VA - I Love ZYX Italo Disco Collection 18 (3CD) - 2014, FLAC (image+.cue), lossless - Скачать

Various Artists - I Love ZYX Italo Disco Collection 18 (3CD)



Жанр: Italo-Disco, Disco
Носитель: CD
Страна-производитель диска: Germany
Год выпуска диска: 2014
Дата выхода оригинального издания: 2014
Тип издания: 3CD, Compilation Box Set
Издатель (лейбл): ZYX Music
Серия: I Love ZYX Italo Disco Collection - 18
Каталожный номер: ZYX 82777-2
Аудиокодек: FLAC (*.flac)
Тип рипа: image+.cue
Битрейт аудио: lossless
Продолжительность: 3 ~ 03:29:13
Источник (релизер): Собственный рип
Наличие сканов в содержимом раздачи: да, PNG 600dpi

torrent, музыка, soundtrack, высокое качество, альбом, дискография, альбом, бесплатно, песни, pop-music, композиции, download, lossless, торрент, поп, mp3, поп-музыка, cd, трек, pop, скачать






Треклист
01. Radiorama - Bad Girls (12' Version) [06:46]
02. Boo Who - Angie Cries (Maxi Version) [06:15]
03. Kehn Lesslon - Hey Hey Guy (12' Version) [06:10]
04. Roger Meno - Do You Really Go (12' Version) [06:09]
05. Digital Mind - Count Down (Vocal Version) [06:48]
06. Chip Chip - Rock Me Tonight (Vocal Version) [04:57]
07. Power Machine - Don't Stop (12' Version) [05:57]
08. Paul Faber - Only One (Mix Version) [06:36]
09. Doctor Livingstone - Welcome In Kenia (Vocal Version) [06:27]
10. Jane And Jilly - Honey (Dance Mix) [05:11]
11. Balalajka - Do You Remember (Vocal Version) [07:31]
Лог EAC
 Exact Audio Copy V1.0 beta 6 from 9. April 2015
Отчёт EAC об извлечении, выполненном 8. мая 2015, 23:47
Various Artists / I Love ZYX Italo Disco Collection 18 (CD 1)
Дисковод: PIONEER BD-RW BDR-206 Adapter: 1 ID: 1
Режим чтения : Достоверность
Использование точного потока : Да
Отключение кэша аудио : Да
Использование указателей C2 : Нет
Коррекция смещения при чтении : 667
Способность читать области Lead-in и Lead-out : Нет
Заполнение пропущенных сэмплов тишиной : Да
Удаление блоков с тишиной в начале и конце : Нет
При вычислениях CRC использовались нулевые сэмплы : Да
Интерфейс : Встроенный Win32-интерфейс для Win NT/2000
Выходной формат : Пользовательский кодировщик
Выбранный битрейт : 1024 kBit/s
Качество : Высокий
Добавление ID3-тега : Нет
Утилита сжатия : C:\Program Files (x86)\Exact Audio Copy\FLAC\FLAC.EXE
Дополнительные параметры : -T "COMMENT=Ripped by SergeyJD"-8 -V -T "ARTIST=%artist%" -T "TITLE=%title%" -T "ALBUM=%albumtitle%" -T "DATE=%year%" -T "TRACKNUMBER=%tracknr%" -T "GENRE=%genre%" -T "COMMENT=%comment%" -T "BAND=%albuminterpret%" -T "ALBUMARTIST=%albuminterpret%" -T "COMPOSER=%composer%" %haslyrics%--tag-from-file=LYRICS="%lyricsfile%"%haslyrics% -T "DISCNUMBER=%cdnumber%" -T "TOTALDISCS=%totalcds%" -T "TOTALTRACKS=%numtracks%" %hascover%--picture="%coverfile%"%hascover% %source% -o %dest%
TOC извлечённого CD
Трек | Старт | Длительность | Начальный сектор | Конечный сектор
---------------------------------------------------------------------
1 | 0:00.00 | 6:46.33 | 0 | 30482
2 | 6:46.33 | 6:15.52 | 30483 | 58659
3 | 13:02.10 | 6:10.21 | 58660 | 86430
4 | 19:12.31 | 6:09.56 | 86431 | 114161
5 | 25:22.12 | 6:48.26 | 114162 | 144787
6 | 32:10.38 | 4:57.35 | 144788 | 167097
7 | 37:07.73 | 5:57.67 | 167098 | 193939
8 | 43:05.65 | 6:36.32 | 193940 | 223671
9 | 49:42.22 | 6:27.29 | 223672 | 252725
10 | 56:09.51 | 5:11.63 | 252726 | 276113
11 | 61:21.39 | 7:31.07 | 276114 | 309945
Характеристики диапазона извлечения и сообщения об ошибках
Выбранный диапазон
Имя файла D:\РАЗДАЧИ!!!!\VA - I Love ZYX Italo Disco Collection 18 (3CD ZYX 82777-2) - 2014\Disc 1\Various Artists - I Love ZYX Italo Disco Collection 18 (CD 1).wav
Пиковый уровень 96.6 %
Скорость извлечения 2.0 X
Качество диапазона 100.0 %
CRC теста 242491E7
CRC копии 242491E7
Копирование... OK
Ошибок не произошло
AccurateRip: сводка
Трек 1 : извлечено точно (доверие 2) [F74357A5] (AR v2)
Трек 2 : извлечено точно (доверие 2) [DD11B4CA] (AR v2)
Трек 3 : извлечено точно (доверие 2) [5308F061] (AR v2)
Трек 4 : извлечено точно (доверие 2) [A8C7187F] (AR v2)
Трек 5 : извлечено точно (доверие 2) [5C7A4B32] (AR v2)
Трек 6 : извлечено точно (доверие 2) [17500A4E] (AR v2)
Трек 7 : извлечено точно (доверие 2) [4AB4EC39] (AR v2)
Трек 8 : извлечено точно (доверие 2) [A405596C] (AR v2)
Трек 9 : извлечено точно (доверие 2) [E765E2FA] (AR v2)
Трек 10 : извлечено точно (доверие 2) [3D8245C2] (AR v2)
Трек 11 : извлечено точно (доверие 2) [92D4C089] (AR v2)
Все треки извлечены точно
Конец отчёта
---- CUETools DB Plugin V2.1.6
[CTDB TOCID: IfUk_qsxFBHXxJtvP2dph4KASho-] found
Submit result: already submitted
Track | CTDB Status
1 | (3/3) Accurately ripped
2 | (3/3) Accurately ripped
3 | (3/3) Accurately ripped
4 | (3/3) Accurately ripped
5 | (3/3) Accurately ripped
6 | (3/3) Accurately ripped
7 | (3/3) Accurately ripped
8 | (3/3) Accurately ripped
9 | (3/3) Accurately ripped
10 | (3/3) Accurately ripped
11 | (3/3) Accurately ripped
==== Контрольная сумма отчёта 28DF8EA7268E26739BA4586225DBB8346A9026E075CE092F8164330C5D352BDA ====
Содержание индексной карты (.CUE)
 REM GENRE "Italo-Disco, Disco "
REM DATE 2014
REM DISCID A510240B
REM COMMENT "ExactAudioCopy v1.0b6"
PERFORMER "Various Artists"
TITLE " I Love ZYX Italo Disco Collection 18 (CD 1)"
FILE "Various Artists - I Love ZYX Italo Disco Collection 18 (CD 1).flac" WAVE
TRACK 01 AUDIO
TITLE "Bad Girls (12' Version)"
PERFORMER "Radiorama"
INDEX 01 00:00:00
TRACK 02 AUDIO
TITLE "Angie Cries (Maxi Version)"
PERFORMER "Boo Who"
INDEX 00 06:44:33
INDEX 01 06:46:33
TRACK 03 AUDIO
TITLE "Hey Hey Guy (12' Version)"
PERFORMER "Kehn Lesslon"
INDEX 00 13:00:11
INDEX 01 13:02:10
TRACK 04 AUDIO
TITLE "Do You Really Go (12' Version)"
PERFORMER "Roger Meno"
INDEX 00 19:10:31
INDEX 01 19:12:31
TRACK 05 AUDIO
TITLE "Count Down (Vocal Version)"
PERFORMER "Digital Mind"
INDEX 00 25:20:13
INDEX 01 25:22:12
TRACK 06 AUDIO
TITLE "Rock Me Tonight (Vocal Version)"
PERFORMER "Chip Chip"
INDEX 00 32:08:38
INDEX 01 32:10:38
TRACK 07 AUDIO
TITLE "Don't Stop (12' Version)"
PERFORMER "Power Machine"
INDEX 00 37:05:73
INDEX 01 37:07:73
TRACK 08 AUDIO
TITLE "Only One (Mix Version)"
PERFORMER "Paul Faber"
INDEX 00 43:03:66
INDEX 01 43:05:65
TRACK 09 AUDIO
TITLE "Welcome In Kenia (Vocal Version)"
PERFORMER "Doctor Livingstone"
INDEX 00 49:40:23
INDEX 01 49:42:22
TRACK 10 AUDIO
TITLE "Honey (Dance Mix)"
PERFORMER "Jane And Jilly"
INDEX 00 56:07:51
INDEX 01 56:09:51
TRACK 11 AUDIO
TITLE "Do You Remember (Vocal Version)"
PERFORMER "Balalajka"
INDEX 00 61:19:41
INDEX 01 61:21:39
Лог auCDtect Task Manager
 -----------------------
DON'T MODIFY THIS FILE
-----------------------
PERFORMER: auCDtect Task Manager, ver. 1.5.1RC6 build 1.5.1.7
Copyright (c) 2008-2010 y-soft. All rights reserved
http://y-soft.org
ANALYZER: auCDtect: CD records authenticity detector, version 0.8.2
Copyright (c) 2004 Oleg Berngardt. All rights reserved.
Copyright (c) 2004 Alexander Djourik. All rights reserved.
FILE: Various Artists - I Love ZYX Italo Disco Collection 18 (CD 1).flac
Size: 547973500 Hash: 1EE42CA83F8B97C1E8AD8CA8B7AA9E2E Accuracy: -m0
Conclusion: CDDA 100%
Signature: F63B57FAF16E61A7840C667B3495301C86FFDA92
Замер динамического диапазона (DR)
 foobar2000 1.2.3 / Замер динамического диапазона (DR) 1.1.1
Дата отчёта: 2015-05-09 01:43:26
--------------------------------------------------------------------------------
Анализ: Boo Who / I Love ZYX Italo Disco Collection 18 (CD 1) (1)
Chip Chip / I Love ZYX Italo Disco Collection 18 (CD 1) (2)
--------------------------------------------------------------------------------
DR Пики RMS Продолжительность трека
--------------------------------------------------------------------------------
DR9 -0.30 дБ -9.76 дБ 6:16 02-Angie Cries (Maxi Version)
DR9 -0.30 дБ -10.06 дБ 4:57 06-Rock Me Tonight (Vocal Version)
--------------------------------------------------------------------------------
Количество треков: 2
Реальные значения DR: DR9
Частота: 44100 Гц
Каналов: 2
Разрядность: 16
Битрейт: 1061 кбит/с
Кодек: FLAC
================================================================================
--------------------------------------------------------------------------------
Анализ: Digital Mind / I Love ZYX Italo Disco Collection 18 (CD 1) (1)
Doctor Livingstone / I Love ZYX Italo Disco Collection 18 (CD 1) (2)
Jane And Jilly / I Love ZYX Italo Disco Collection 18 (CD 1) (3)
--------------------------------------------------------------------------------
DR Пики RMS Продолжительность трека
--------------------------------------------------------------------------------
DR9 -0.30 дБ -10.43 дБ 6:48 05-Count Down (Vocal Version)
DR9 -0.30 дБ -9.82 дБ 6:27 09-Welcome In Kenia (Vocal Version)
DR9 -0.30 дБ -10.13 дБ 5:12 10-Honey (Dance Mix)
--------------------------------------------------------------------------------
Количество треков: 3
Реальные значения DR: DR9
Частота: 44100 Гц
Каналов: 2
Разрядность: 16
Битрейт: 1061 кбит/с
Кодек: FLAC
================================================================================
--------------------------------------------------------------------------------
Анализ: Kehn Lesslon / I Love ZYX Italo Disco Collection 18 (CD 1) (1)
Paul Faber / I Love ZYX Italo Disco Collection 18 (CD 1) (2)
--------------------------------------------------------------------------------
DR Пики RMS Продолжительность трека
--------------------------------------------------------------------------------
DR9 -0.30 дБ -9.76 дБ 6:10 03-Hey Hey Guy (12' Version)
DR10 -0.30 дБ -10.80 дБ 6:36 08-Only One (Mix Version)
--------------------------------------------------------------------------------
Количество треков: 2
Реальные значения DR: DR9
Частота: 44100 Гц
Каналов: 2
Разрядность: 16
Битрейт: 1061 кбит/с
Кодек: FLAC
================================================================================
--------------------------------------------------------------------------------
Статистика для: 07-Don't Stop (12' Version)
Количество сэмплов: 15783096
Продолжительность: 5:58
--------------------------------------------------------------------------------
Левый Правый
Пики: -0.30 дБ --- -0.30 дБ
Средний RMS: -10.20 дБ --- -10.17 дБ
DR канала: 9.05 дБ --- 8.89 дБ
--------------------------------------------------------------------------------
Реальные значения DR: DR9
Частота: 44100 Гц
Каналов: 2
Разрядность: 16
Битрейт: 1061 кбит/с
Кодек: FLAC
================================================================================
--------------------------------------------------------------------------------
Анализ: Radiorama / I Love ZYX Italo Disco Collection 18 (CD 1) (1)
Roger Meno / I Love ZYX Italo Disco Collection 18 (CD 1) (2)
--------------------------------------------------------------------------------
DR Пики RMS Продолжительность трека
--------------------------------------------------------------------------------
DR9 -0.30 дБ -9.57 дБ 6:46 01-Bad Girls (12' Version)
DR8 -0.30 дБ -10.05 дБ 6:10 04-Do You Really Go (12' Version)
--------------------------------------------------------------------------------
Количество треков: 2
Реальные значения DR: DR9
Частота: 44100 Гц
Каналов: 2
Разрядность: 16
Битрейт: 1061 кбит/с
Кодек: FLAC
================================================================================
================================================================================
foobar2000 1.2.3 / Замер динамического диапазона (DR) 1.1.1
Дата отчёта: 2015-05-09 01:43:24
--------------------------------------------------------------------------------
Статистика для: 11-Do You Remember (Vocal Version)
Количество сэмплов: 19893216
Продолжительность: 7:31
--------------------------------------------------------------------------------
Левый Правый
Пики: -0.30 дБ --- -0.30 дБ
Средний RMS: -10.31 дБ --- -10.61 дБ
DR канала: 8.78 дБ --- 9.15 дБ
--------------------------------------------------------------------------------
Реальные значения DR: DR9
Частота: 44100 Гц
Каналов: 2
Разрядность: 16
Битрейт: 1061 кбит/с
Кодек: FLAC
================================================================================
 Exact Audio Copy V1.0 beta 6 from 9. April 2015
Отчёт EAC об извлечении, выполненном 8. мая 2015, 23:47
Various Artists / I Love ZYX Italo Disco Collection 18 (CD 1)
Дисковод: PIONEER BD-RW BDR-206 Adapter: 1 ID: 1
Режим чтения : Достоверность
Использование точного потока : Да
Отключение кэша аудио : Да
Использование указателей C2 : Нет
Коррекция смещения при чтении : 667
Способность читать области Lead-in и Lead-out : Нет
Заполнение пропущенных сэмплов тишиной : Да
Удаление блоков с тишиной в начале и конце : Нет
При вычислениях CRC использовались нулевые сэмплы : Да
Интерфейс : Встроенный Win32-интерфейс для Win NT/2000
Выходной формат : Пользовательский кодировщик
Выбранный битрейт : 1024 kBit/s
Качество : Высокий
Добавление ID3-тега : Нет
Утилита сжатия : C:\Program Files (x86)\Exact Audio Copy\FLAC\FLAC.EXE
Дополнительные параметры : -T "COMMENT=Ripped by SergeyJD"-8 -V -T "ARTIST=%artist%" -T "TITLE=%title%" -T "ALBUM=%albumtitle%" -T "DATE=%year%" -T "TRACKNUMBER=%tracknr%" -T "GENRE=%genre%" -T "COMMENT=%comment%" -T "BAND=%albuminterpret%" -T "ALBUMARTIST=%albuminterpret%" -T "COMPOSER=%composer%" %haslyrics%--tag-from-file=LYRICS="%lyricsfile%"%haslyrics% -T "DISCNUMBER=%cdnumber%" -T "TOTALDISCS=%totalcds%" -T "TOTALTRACKS=%numtracks%" %hascover%--picture="%coverfile%"%hascover% %source% -o %dest%
TOC извлечённого CD
Трек | Старт | Длительность | Начальный сектор | Конечный сектор
---------------------------------------------------------------------
1 | 0:00.00 | 6:46.33 | 0 | 30482
2 | 6:46.33 | 6:15.52 | 30483 | 58659
3 | 13:02.10 | 6:10.21 | 58660 | 86430
4 | 19:12.31 | 6:09.56 | 86431 | 114161
5 | 25:22.12 | 6:48.26 | 114162 | 144787
6 | 32:10.38 | 4:57.35 | 144788 | 167097
7 | 37:07.73 | 5:57.67 | 167098 | 193939
8 | 43:05.65 | 6:36.32 | 193940 | 223671
9 | 49:42.22 | 6:27.29 | 223672 | 252725
10 | 56:09.51 | 5:11.63 | 252726 | 276113
11 | 61:21.39 | 7:31.07 | 276114 | 309945
Характеристики диапазона извлечения и сообщения об ошибках
Выбранный диапазон
Имя файла D:\РАЗДАЧИ!!!!\VA - I Love ZYX Italo Disco Collection 18 (3CD ZYX 82777-2) - 2014\Disc 1\Various Artists - I Love ZYX Italo Disco Collection 18 (CD 1).wav
Пиковый уровень 96.6 %
Скорость извлечения 2.0 X
Качество диапазона 100.0 %
CRC теста 242491E7
CRC копии 242491E7
Копирование... OK
Ошибок не произошло
AccurateRip: сводка
Трек 1 : извлечено точно (доверие 2) [F74357A5] (AR v2)
Трек 2 : извлечено точно (доверие 2) [DD11B4CA] (AR v2)
Трек 3 : извлечено точно (доверие 2) [5308F061] (AR v2)
Трек 4 : извлечено точно (доверие 2) [A8C7187F] (AR v2)
Трек 5 : извлечено точно (доверие 2) [5C7A4B32] (AR v2)
Трек 6 : извлечено точно (доверие 2) [17500A4E] (AR v2)
Трек 7 : извлечено точно (доверие 2) [4AB4EC39] (AR v2)
Трек 8 : извлечено точно (доверие 2) [A405596C] (AR v2)
Трек 9 : извлечено точно (доверие 2) [E765E2FA] (AR v2)
Трек 10 : извлечено точно (доверие 2) [3D8245C2] (AR v2)
Трек 11 : извлечено точно (доверие 2) [92D4C089] (AR v2)
Все треки извлечены точно
Конец отчёта
---- CUETools DB Plugin V2.1.6
[CTDB TOCID: IfUk_qsxFBHXxJtvP2dph4KASho-] found
Submit result: already submitted
Track | CTDB Status
1 | (3/3) Accurately ripped
2 | (3/3) Accurately ripped
3 | (3/3) Accurately ripped
4 | (3/3) Accurately ripped
5 | (3/3) Accurately ripped
6 | (3/3) Accurately ripped
7 | (3/3) Accurately ripped
8 | (3/3) Accurately ripped
9 | (3/3) Accurately ripped
10 | (3/3) Accurately ripped
11 | (3/3) Accurately ripped
==== Контрольная сумма отчёта 28DF8EA7268E26739BA4586225DBB8346A9026E075CE092F8164330C5D352BDA ====
 REM GENRE "Italo-Disco, Disco "
REM DATE 2014
REM DISCID A510240B
REM COMMENT "ExactAudioCopy v1.0b6"
PERFORMER "Various Artists"
TITLE " I Love ZYX Italo Disco Collection 18 (CD 1)"
FILE "Various Artists - I Love ZYX Italo Disco Collection 18 (CD 1).flac" WAVE
TRACK 01 AUDIO
TITLE "Bad Girls (12' Version)"
PERFORMER "Radiorama"
INDEX 01 00:00:00
TRACK 02 AUDIO
TITLE "Angie Cries (Maxi Version)"
PERFORMER "Boo Who"
INDEX 00 06:44:33
INDEX 01 06:46:33
TRACK 03 AUDIO
TITLE "Hey Hey Guy (12' Version)"
PERFORMER "Kehn Lesslon"
INDEX 00 13:00:11
INDEX 01 13:02:10
TRACK 04 AUDIO
TITLE "Do You Really Go (12' Version)"
PERFORMER "Roger Meno"
INDEX 00 19:10:31
INDEX 01 19:12:31
TRACK 05 AUDIO
TITLE "Count Down (Vocal Version)"
PERFORMER "Digital Mind"
INDEX 00 25:20:13
INDEX 01 25:22:12
TRACK 06 AUDIO
TITLE "Rock Me Tonight (Vocal Version)"
PERFORMER "Chip Chip"
INDEX 00 32:08:38
INDEX 01 32:10:38
TRACK 07 AUDIO
TITLE "Don't Stop (12' Version)"
PERFORMER "Power Machine"
INDEX 00 37:05:73
INDEX 01 37:07:73
TRACK 08 AUDIO
TITLE "Only One (Mix Version)"
PERFORMER "Paul Faber"
INDEX 00 43:03:66
INDEX 01 43:05:65
TRACK 09 AUDIO
TITLE "Welcome In Kenia (Vocal Version)"
PERFORMER "Doctor Livingstone"
INDEX 00 49:40:23
INDEX 01 49:42:22
TRACK 10 AUDIO
TITLE "Honey (Dance Mix)"
PERFORMER "Jane And Jilly"
INDEX 00 56:07:51
INDEX 01 56:09:51
TRACK 11 AUDIO
TITLE "Do You Remember (Vocal Version)"
PERFORMER "Balalajka"
INDEX 00 61:19:41
INDEX 01 61:21:39
 -----------------------
DON'T MODIFY THIS FILE
-----------------------
PERFORMER: auCDtect Task Manager, ver. 1.5.1RC6 build 1.5.1.7
Copyright (c) 2008-2010 y-soft. All rights reserved
http://y-soft.org
ANALYZER: auCDtect: CD records authenticity detector, version 0.8.2
Copyright (c) 2004 Oleg Berngardt. All rights reserved.
Copyright (c) 2004 Alexander Djourik. All rights reserved.
FILE: Various Artists - I Love ZYX Italo Disco Collection 18 (CD 1).flac
Size: 547973500 Hash: 1EE42CA83F8B97C1E8AD8CA8B7AA9E2E Accuracy: -m0
Conclusion: CDDA 100%
Signature: F63B57FAF16E61A7840C667B3495301C86FFDA92
 foobar2000 1.2.3 / Замер динамического диапазона (DR) 1.1.1
Дата отчёта: 2015-05-09 01:43:26
--------------------------------------------------------------------------------
Анализ: Boo Who / I Love ZYX Italo Disco Collection 18 (CD 1) (1)
Chip Chip / I Love ZYX Italo Disco Collection 18 (CD 1) (2)
--------------------------------------------------------------------------------
DR Пики RMS Продолжительность трека
--------------------------------------------------------------------------------
DR9 -0.30 дБ -9.76 дБ 6:16 02-Angie Cries (Maxi Version)
DR9 -0.30 дБ -10.06 дБ 4:57 06-Rock Me Tonight (Vocal Version)
--------------------------------------------------------------------------------
Количество треков: 2
Реальные значения DR: DR9
Частота: 44100 Гц
Каналов: 2
Разрядность: 16
Битрейт: 1061 кбит/с
Кодек: FLAC
================================================================================
--------------------------------------------------------------------------------
Анализ: Digital Mind / I Love ZYX Italo Disco Collection 18 (CD 1) (1)
Doctor Livingstone / I Love ZYX Italo Disco Collection 18 (CD 1) (2)
Jane And Jilly / I Love ZYX Italo Disco Collection 18 (CD 1) (3)
--------------------------------------------------------------------------------
DR Пики RMS Продолжительность трека
--------------------------------------------------------------------------------
DR9 -0.30 дБ -10.43 дБ 6:48 05-Count Down (Vocal Version)
DR9 -0.30 дБ -9.82 дБ 6:27 09-Welcome In Kenia (Vocal Version)
DR9 -0.30 дБ -10.13 дБ 5:12 10-Honey (Dance Mix)
--------------------------------------------------------------------------------
Количество треков: 3
Реальные значения DR: DR9
Частота: 44100 Гц
Каналов: 2
Разрядность: 16
Битрейт: 1061 кбит/с
Кодек: FLAC
================================================================================
--------------------------------------------------------------------------------
Анализ: Kehn Lesslon / I Love ZYX Italo Disco Collection 18 (CD 1) (1)
Paul Faber / I Love ZYX Italo Disco Collection 18 (CD 1) (2)
--------------------------------------------------------------------------------
DR Пики RMS Продолжительность трека
--------------------------------------------------------------------------------
DR9 -0.30 дБ -9.76 дБ 6:10 03-Hey Hey Guy (12' Version)
DR10 -0.30 дБ -10.80 дБ 6:36 08-Only One (Mix Version)
--------------------------------------------------------------------------------
Количество треков: 2
Реальные значения DR: DR9
Частота: 44100 Гц
Каналов: 2
Разрядность: 16
Битрейт: 1061 кбит/с
Кодек: FLAC
================================================================================
--------------------------------------------------------------------------------
Статистика для: 07-Don't Stop (12' Version)
Количество сэмплов: 15783096
Продолжительность: 5:58
--------------------------------------------------------------------------------
Левый Правый
Пики: -0.30 дБ --- -0.30 дБ
Средний RMS: -10.20 дБ --- -10.17 дБ
DR канала: 9.05 дБ --- 8.89 дБ
--------------------------------------------------------------------------------
Реальные значения DR: DR9
Частота: 44100 Гц
Каналов: 2
Разрядность: 16
Битрейт: 1061 кбит/с
Кодек: FLAC
================================================================================
--------------------------------------------------------------------------------
Анализ: Radiorama / I Love ZYX Italo Disco Collection 18 (CD 1) (1)
Roger Meno / I Love ZYX Italo Disco Collection 18 (CD 1) (2)
--------------------------------------------------------------------------------
DR Пики RMS Продолжительность трека
--------------------------------------------------------------------------------
DR9 -0.30 дБ -9.57 дБ 6:46 01-Bad Girls (12' Version)
DR8 -0.30 дБ -10.05 дБ 6:10 04-Do You Really Go (12' Version)
--------------------------------------------------------------------------------
Количество треков: 2
Реальные значения DR: DR9
Частота: 44100 Гц
Каналов: 2
Разрядность: 16
Битрейт: 1061 кбит/с
Кодек: FLAC
================================================================================
================================================================================
foobar2000 1.2.3 / Замер динамического диапазона (DR) 1.1.1
Дата отчёта: 2015-05-09 01:43:24
--------------------------------------------------------------------------------
Статистика для: 11-Do You Remember (Vocal Version)
Количество сэмплов: 19893216
Продолжительность: 7:31
--------------------------------------------------------------------------------
Левый Правый
Пики: -0.30 дБ --- -0.30 дБ
Средний RMS: -10.31 дБ --- -10.61 дБ
DR канала: 8.78 дБ --- 9.15 дБ
--------------------------------------------------------------------------------
Реальные значения DR: DR9
Частота: 44100 Гц
Каналов: 2
Разрядность: 16
Битрейт: 1061 кбит/с
Кодек: FLAC
================================================================================





Треклист
01. S avage - Only You (Remix) [08:59]
02. Radiorama - ABCD (12'' Italy Remix) [07:13]
03. Jessica - C'est La Vie, Mon Cherie (12'' Super Disco Dance Version) [05:22]
04. Scotch - Disco Band (12'' New Version) [06:21]
05. Attack - Special Love (Long Version) [06:54]
06. Lucia - Marinero (12'' Vocal Remix) [07:13]
07. Hot & Cold - Just Gotta Tell Her (12'' Version) [04:17]
08. Roger Meno - Love, Good-Bye (12'' Version) [06:31]
09. B. Crazy - Jungle Dream (12'' Version) [05:26]
10. Tony Balboa - Rock Your Body (12'' Vocal Version) [05:42]
11. 2 Twin - Face To Face, Heart To Heart (12'' Version) [04:58]
Лог EAC
 Exact Audio Copy V1.0 beta 6 from 9. April 2015
Отчёт EAC об извлечении, выполненном 9. мая 2015, 0:19
Various Artists / I Love ZYX Italo Disco Collection 18 (CD 2)
Дисковод: PIONEER BD-RW BDR-206 Adapter: 1 ID: 1
Режим чтения : Достоверность
Использование точного потока : Да
Отключение кэша аудио : Да
Использование указателей C2 : Нет
Коррекция смещения при чтении : 667
Способность читать области Lead-in и Lead-out : Нет
Заполнение пропущенных сэмплов тишиной : Да
Удаление блоков с тишиной в начале и конце : Нет
При вычислениях CRC использовались нулевые сэмплы : Да
Интерфейс : Встроенный Win32-интерфейс для Win NT/2000
Выходной формат : Пользовательский кодировщик
Выбранный битрейт : 1024 kBit/s
Качество : Высокий
Добавление ID3-тега : Нет
Утилита сжатия : C:\Program Files (x86)\Exact Audio Copy\FLAC\FLAC.EXE
Дополнительные параметры : -T "COMMENT=Ripped by SergeyJD"-8 -V -T "ARTIST=%artist%" -T "TITLE=%title%" -T "ALBUM=%albumtitle%" -T "DATE=%year%" -T "TRACKNUMBER=%tracknr%" -T "GENRE=%genre%" -T "COMMENT=%comment%" -T "BAND=%albuminterpret%" -T "ALBUMARTIST=%albuminterpret%" -T "COMPOSER=%composer%" %haslyrics%--tag-from-file=LYRICS="%lyricsfile%"%haslyrics% -T "DISCNUMBER=%cdnumber%" -T "TOTALDISCS=%totalcds%" -T "TOTALTRACKS=%numtracks%" %hascover%--picture="%coverfile%"%hascover% %source% -o %dest%
TOC извлечённого CD
Трек | Старт | Длительность | Начальный сектор | Конечный сектор
---------------------------------------------------------------------
1 | 0:00.00 | 8:59.27 | 0 | 40451
2 | 8:59.27 | 7:13.18 | 40452 | 72944
3 | 16:12.45 | 5:22.50 | 72945 | 97144
4 | 21:35.20 | 6:21.17 | 97145 | 125736
5 | 27:56.37 | 6:54.27 | 125737 | 156813
6 | 34:50.64 | 7:13.02 | 156814 | 189290
7 | 42:03.66 | 4:17.17 | 189291 | 208582
8 | 46:21.08 | 6:31.69 | 208583 | 237976
9 | 52:53.02 | 5:26.52 | 237977 | 262478
10 | 58:19.54 | 5:42.04 | 262479 | 288132
11 | 64:01.58 | 4:58.26 | 288133 | 310508
Характеристики диапазона извлечения и сообщения об ошибках
Выбранный диапазон
Имя файла D:\РАЗДАЧИ!!!!\VA - I Love ZYX Italo Disco Collection 18 (3CD ZYX 82777-2) - 2014\Disc 2\Various Artists - I Love ZYX Italo Disco Collection 18 (CD 2).wav
Пиковый уровень 100.0 %
Скорость извлечения 8.2 X
Качество диапазона 100.0 %
CRC теста 28E56E8E
CRC копии 28E56E8E
Копирование... OK
Ошибок не произошло
AccurateRip: сводка
Трек 1 : извлечено точно (доверие 2) [51E9218F] (AR v2)
Трек 2 : извлечено точно (доверие 2) [36C4AE1C] (AR v2)
Трек 3 : извлечено точно (доверие 2) [D8C4028A] (AR v2)
Трек 4 : извлечено точно (доверие 2) [55179EAA] (AR v2)
Трек 5 : извлечено точно (доверие 2) [9CD49BA8] (AR v2)
Трек 6 : извлечено точно (доверие 2) [C020AA0C] (AR v2)
Трек 7 : извлечено точно (доверие 2) [C52CE731] (AR v2)
Трек 8 : извлечено точно (доверие 2) [5D0E3498] (AR v2)
Трек 9 : извлечено точно (доверие 2) [41D242BC] (AR v2)
Трек 10 : извлечено точно (доверие 2) [66A740F4] (AR v2)
Трек 11 : извлечено точно (доверие 2) [7D943B5C] (AR v2)
Все треки извлечены точно
Конец отчёта
---- CUETools DB Plugin V2.1.6
[CTDB TOCID: lHycwN1pCZ72pOCg49HhYsakfaI-] found
Submit result: already submitted
Track | CTDB Status
1 | (3/3) Accurately ripped
2 | (3/3) Accurately ripped
3 | (3/3) Accurately ripped
4 | (3/3) Accurately ripped
5 | (3/3) Accurately ripped
6 | (3/3) Accurately ripped
7 | (3/3) Accurately ripped
8 | (3/3) Accurately ripped
9 | (3/3) Accurately ripped
10 | (3/3) Accurately ripped
11 | (3/3) Accurately ripped
==== Контрольная сумма отчёта 3B86989A5190EF10665B5875E85AEF63665BA544138BA279677A4DB0B6479841 ====
Содержание индексной карты (.CUE)
 REM GENRE "Italo-Disco, Disco"
REM DATE 2014
REM DISCID A3102C0B
REM COMMENT "ExactAudioCopy v1.0b6"
PERFORMER "Various Artists"
TITLE " I Love ZYX Italo Disco Collection 18 (CD 2)"
FILE "Various Artists - I Love ZYX Italo Disco Collection 18 (CD 2).flac" WAVE
TRACK 01 AUDIO
TITLE "Only You (12'' Remix)"
PERFORMER ""
INDEX 01 00:00:00
TRACK 02 AUDIO
TITLE "ABCD (12'' Italy Remix)"
PERFORMER "Radiorama"
INDEX 00 08:57:27
INDEX 01 08:59:27
TRACK 03 AUDIO
TITLE "C'est La Vie, Mon Cherie (12'' Super Disco Dance Version)"
PERFORMER "Jessica"
INDEX 00 16:10:45
INDEX 01 16:12:45
TRACK 04 AUDIO
TITLE "Disco Band (12'' New Version)"
PERFORMER "Scotch"
INDEX 00 21:33:20
INDEX 01 21:35:20
TRACK 05 AUDIO
TITLE "Special Love (Long Version)"
PERFORMER "Attack"
INDEX 00 27:55:43
INDEX 01 27:56:37
TRACK 06 AUDIO
TITLE "Marinero (12'' Vocal Remix)"
PERFORMER "Lucia"
INDEX 00 34:48:64
INDEX 01 34:50:64
TRACK 07 AUDIO
TITLE "Just Gotta Tell Her (12'' Version)"
PERFORMER "Hot & Cold"
INDEX 00 41:58:52
INDEX 01 42:03:66
TRACK 08 AUDIO
TITLE "Love, Good-Bye (12'' Version)"
PERFORMER "Roger Meno"
INDEX 00 46:19:08
INDEX 01 46:21:08
TRACK 09 AUDIO
TITLE "Jungle Dream (12'' Version)"
PERFORMER "B. Crazy"
INDEX 00 52:51:03
INDEX 01 52:53:02
TRACK 10 AUDIO
TITLE "Rock Your Body (12'' Vocal Version)"
PERFORMER "Tony Balboa"
INDEX 00 58:17:55
INDEX 01 58:19:54
TRACK 11 AUDIO
TITLE "Face To Face, Heart To Heart (12'' Version)"
PERFORMER "2 Twin"
INDEX 00 63:59:59
INDEX 01 64:01:58
Лог auCDtect Task Manager
 -----------------------
DON'T MODIFY THIS FILE
-----------------------
PERFORMER: auCDtect Task Manager, ver. 1.5.1RC6 build 1.5.1.7
Copyright (c) 2008-2010 y-soft. All rights reserved
http://y-soft.org
ANALYZER: auCDtect: CD records authenticity detector, version 0.8.2
Copyright (c) 2004 Oleg Berngardt. All rights reserved.
Copyright (c) 2004 Alexander Djourik. All rights reserved.
FILE: Various Artists - I Love ZYX Italo Disco Collection 18 (CD 2).flac
Size: 530700200 Hash: A566670568ED3D5B7725BB051224FA3D Accuracy: -m0
Conclusion: CDDA 99%
Signature: 8E60A92D629BF073613DA1F443EA925042D649F9
Замер динамического диапазона (DR)
 foobar2000 1.2.3 / Замер динамического диапазона (DR) 1.1.1
Дата отчёта: 2015-05-09 01:43:50
--------------------------------------------------------------------------------
Анализ: Attack / I Love ZYX Italo Disco Collection 18 (CD 2) (1)
B. Crazy / I Love ZYX Italo Disco Collection 18 (CD 2) (2)
--------------------------------------------------------------------------------
DR Пики RMS Продолжительность трека
--------------------------------------------------------------------------------
DR9 -0.30 дБ -10.25 дБ 6:54 05-Special Love (Long Version)
DR9 -0.30 дБ -9.87 дБ 5:27 09-Jungle Dream (12'' Version)
--------------------------------------------------------------------------------
Количество треков: 2
Реальные значения DR: DR9
Частота: 44100 Гц
Каналов: 2
Разрядность: 16
Битрейт: 1025 кбит/с
Кодек: FLAC
================================================================================
--------------------------------------------------------------------------------
Статистика для: 07-Just Gotta Tell Her (12'' Version)
Количество сэмплов: 11343696
Продолжительность: 4:17
--------------------------------------------------------------------------------
Левый Правый
Пики: -0.30 дБ --- -0.30 дБ
Средний RMS: -10.12 дБ --- -10.28 дБ
DR канала: 9.16 дБ --- 9.22 дБ
--------------------------------------------------------------------------------
Реальные значения DR: DR9
Частота: 44100 Гц
Каналов: 2
Разрядность: 16
Битрейт: 1025 кбит/с
Кодек: FLAC
================================================================================
--------------------------------------------------------------------------------
Анализ: Jessica / I Love ZYX Italo Disco Collection 18 (CD 2) (1)
Lucia / I Love ZYX Italo Disco Collection 18 (CD 2) (2)
--------------------------------------------------------------------------------
DR Пики RMS Продолжительность трека
--------------------------------------------------------------------------------
DR9 -0.30 дБ -9.61 дБ 5:23 03-C'est La Vie, Mon Cherie (12'' Super Disco Dance Version)
DR9 -0.30 дБ -10.30 дБ 7:13 06-Marinero (12'' Vocal Remix)
--------------------------------------------------------------------------------
Количество треков: 2
Реальные значения DR: DR9
Частота: 44100 Гц
Каналов: 2
Разрядность: 16
Битрейт: 1025 кбит/с
Кодек: FLAC
================================================================================
--------------------------------------------------------------------------------
Анализ: Radiorama / I Love ZYX Italo Disco Collection 18 (CD 2) (1)
Roger Meno / I Love ZYX Italo Disco Collection 18 (CD 2) (2)
--------------------------------------------------------------------------------
DR Пики RMS Продолжительность трека
--------------------------------------------------------------------------------
DR9 -0.30 дБ -9.57 дБ 7:13 02-ABCD (12'' Italy Remix)
DR9 -0.30 дБ -10.34 дБ 6:32 08-Love, Good-Bye (12'' Version)
--------------------------------------------------------------------------------
Количество треков: 2
Реальные значения DR: DR9
Частота: 44100 Гц
Каналов: 2
Разрядность: 16
Битрейт: 1025 кбит/с
Кодек: FLAC
================================================================================
--------------------------------------------------------------------------------
Анализ: / I Love ZYX Italo Disco Collection 18 (CD 2) (1)
Scotch / I Love ZYX Italo Disco Collection 18 (CD 2) (2)
Tony Balboa / I Love ZYX Italo Disco Collection 18 (CD 2) (3)
--------------------------------------------------------------------------------
DR Пики RMS Продолжительность трека
--------------------------------------------------------------------------------
DR9 -0.30 дБ -10.30 дБ 8:59 01-Only You (12'' Remix)
DR9 -0.30 дБ -10.29 дБ 6:21 04-Disco Band (12'' New Version)
DR9 0.00 дБ -10.30 дБ 5:42 10-Rock Your Body (12'' Vocal Version)
--------------------------------------------------------------------------------
Количество треков: 3
Реальные значения DR: DR9
Частота: 44100 Гц
Каналов: 2
Разрядность: 16
Битрейт: 1025 кбит/с
Кодек: FLAC
================================================================================
================================================================================
foobar2000 1.2.3 / Замер динамического диапазона (DR) 1.1.1
Дата отчёта: 2015-05-09 01:43:48
--------------------------------------------------------------------------------
Статистика для: 11-Face To Face, Heart To Heart (12'' Version)
Количество сэмплов: 13157088
Продолжительность: 4:58
--------------------------------------------------------------------------------
Левый Правый
Пики: -0.30 дБ --- -0.30 дБ
Средний RMS: -9.77 дБ --- -9.95 дБ
DR канала: 8.71 дБ --- 8.86 дБ
--------------------------------------------------------------------------------
Реальные значения DR: DR9
Частота: 44100 Гц
Каналов: 2
Разрядность: 16
Битрейт: 1025 кбит/с
Кодек: FLAC
================================================================================
 Exact Audio Copy V1.0 beta 6 from 9. April 2015
Отчёт EAC об извлечении, выполненном 9. мая 2015, 0:19
Various Artists / I Love ZYX Italo Disco Collection 18 (CD 2)
Дисковод: PIONEER BD-RW BDR-206 Adapter: 1 ID: 1
Режим чтения : Достоверность
Использование точного потока : Да
Отключение кэша аудио : Да
Использование указателей C2 : Нет
Коррекция смещения при чтении : 667
Способность читать области Lead-in и Lead-out : Нет
Заполнение пропущенных сэмплов тишиной : Да
Удаление блоков с тишиной в начале и конце : Нет
При вычислениях CRC использовались нулевые сэмплы : Да
Интерфейс : Встроенный Win32-интерфейс для Win NT/2000
Выходной формат : Пользовательский кодировщик
Выбранный битрейт : 1024 kBit/s
Качество : Высокий
Добавление ID3-тега : Нет
Утилита сжатия : C:\Program Files (x86)\Exact Audio Copy\FLAC\FLAC.EXE
Дополнительные параметры : -T "COMMENT=Ripped by SergeyJD"-8 -V -T "ARTIST=%artist%" -T "TITLE=%title%" -T "ALBUM=%albumtitle%" -T "DATE=%year%" -T "TRACKNUMBER=%tracknr%" -T "GENRE=%genre%" -T "COMMENT=%comment%" -T "BAND=%albuminterpret%" -T "ALBUMARTIST=%albuminterpret%" -T "COMPOSER=%composer%" %haslyrics%--tag-from-file=LYRICS="%lyricsfile%"%haslyrics% -T "DISCNUMBER=%cdnumber%" -T "TOTALDISCS=%totalcds%" -T "TOTALTRACKS=%numtracks%" %hascover%--picture="%coverfile%"%hascover% %source% -o %dest%
TOC извлечённого CD
Трек | Старт | Длительность | Начальный сектор | Конечный сектор
---------------------------------------------------------------------
1 | 0:00.00 | 8:59.27 | 0 | 40451
2 | 8:59.27 | 7:13.18 | 40452 | 72944
3 | 16:12.45 | 5:22.50 | 72945 | 97144
4 | 21:35.20 | 6:21.17 | 97145 | 125736
5 | 27:56.37 | 6:54.27 | 125737 | 156813
6 | 34:50.64 | 7:13.02 | 156814 | 189290
7 | 42:03.66 | 4:17.17 | 189291 | 208582
8 | 46:21.08 | 6:31.69 | 208583 | 237976
9 | 52:53.02 | 5:26.52 | 237977 | 262478
10 | 58:19.54 | 5:42.04 | 262479 | 288132
11 | 64:01.58 | 4:58.26 | 288133 | 310508
Характеристики диапазона извлечения и сообщения об ошибках
Выбранный диапазон
Имя файла D:\РАЗДАЧИ!!!!\VA - I Love ZYX Italo Disco Collection 18 (3CD ZYX 82777-2) - 2014\Disc 2\Various Artists - I Love ZYX Italo Disco Collection 18 (CD 2).wav
Пиковый уровень 100.0 %
Скорость извлечения 8.2 X
Качество диапазона 100.0 %
CRC теста 28E56E8E
CRC копии 28E56E8E
Копирование... OK
Ошибок не произошло
AccurateRip: сводка
Трек 1 : извлечено точно (доверие 2) [51E9218F] (AR v2)
Трек 2 : извлечено точно (доверие 2) [36C4AE1C] (AR v2)
Трек 3 : извлечено точно (доверие 2) [D8C4028A] (AR v2)
Трек 4 : извлечено точно (доверие 2) [55179EAA] (AR v2)
Трек 5 : извлечено точно (доверие 2) [9CD49BA8] (AR v2)
Трек 6 : извлечено точно (доверие 2) [C020AA0C] (AR v2)
Трек 7 : извлечено точно (доверие 2) [C52CE731] (AR v2)
Трек 8 : извлечено точно (доверие 2) [5D0E3498] (AR v2)
Трек 9 : извлечено точно (доверие 2) [41D242BC] (AR v2)
Трек 10 : извлечено точно (доверие 2) [66A740F4] (AR v2)
Трек 11 : извлечено точно (доверие 2) [7D943B5C] (AR v2)
Все треки извлечены точно
Конец отчёта
---- CUETools DB Plugin V2.1.6
[CTDB TOCID: lHycwN1pCZ72pOCg49HhYsakfaI-] found
Submit result: already submitted
Track | CTDB Status
1 | (3/3) Accurately ripped
2 | (3/3) Accurately ripped
3 | (3/3) Accurately ripped
4 | (3/3) Accurately ripped
5 | (3/3) Accurately ripped
6 | (3/3) Accurately ripped
7 | (3/3) Accurately ripped
8 | (3/3) Accurately ripped
9 | (3/3) Accurately ripped
10 | (3/3) Accurately ripped
11 | (3/3) Accurately ripped
==== Контрольная сумма отчёта 3B86989A5190EF10665B5875E85AEF63665BA544138BA279677A4DB0B6479841 ====
 REM GENRE "Italo-Disco, Disco"
REM DATE 2014
REM DISCID A3102C0B
REM COMMENT "ExactAudioCopy v1.0b6"
PERFORMER "Various Artists"
TITLE " I Love ZYX Italo Disco Collection 18 (CD 2)"
FILE "Various Artists - I Love ZYX Italo Disco Collection 18 (CD 2).flac" WAVE
TRACK 01 AUDIO
TITLE "Only You (12'' Remix)"
PERFORMER ""
INDEX 01 00:00:00
TRACK 02 AUDIO
TITLE "ABCD (12'' Italy Remix)"
PERFORMER "Radiorama"
INDEX 00 08:57:27
INDEX 01 08:59:27
TRACK 03 AUDIO
TITLE "C'est La Vie, Mon Cherie (12'' Super Disco Dance Version)"
PERFORMER "Jessica"
INDEX 00 16:10:45
INDEX 01 16:12:45
TRACK 04 AUDIO
TITLE "Disco Band (12'' New Version)"
PERFORMER "Scotch"
INDEX 00 21:33:20
INDEX 01 21:35:20
TRACK 05 AUDIO
TITLE "Special Love (Long Version)"
PERFORMER "Attack"
INDEX 00 27:55:43
INDEX 01 27:56:37
TRACK 06 AUDIO
TITLE "Marinero (12'' Vocal Remix)"
PERFORMER "Lucia"
INDEX 00 34:48:64
INDEX 01 34:50:64
TRACK 07 AUDIO
TITLE "Just Gotta Tell Her (12'' Version)"
PERFORMER "Hot & Cold"
INDEX 00 41:58:52
INDEX 01 42:03:66
TRACK 08 AUDIO
TITLE "Love, Good-Bye (12'' Version)"
PERFORMER "Roger Meno"
INDEX 00 46:19:08
INDEX 01 46:21:08
TRACK 09 AUDIO
TITLE "Jungle Dream (12'' Version)"
PERFORMER "B. Crazy"
INDEX 00 52:51:03
INDEX 01 52:53:02
TRACK 10 AUDIO
TITLE "Rock Your Body (12'' Vocal Version)"
PERFORMER "Tony Balboa"
INDEX 00 58:17:55
INDEX 01 58:19:54
TRACK 11 AUDIO
TITLE "Face To Face, Heart To Heart (12'' Version)"
PERFORMER "2 Twin"
INDEX 00 63:59:59
INDEX 01 64:01:58
 -----------------------
DON'T MODIFY THIS FILE
-----------------------
PERFORMER: auCDtect Task Manager, ver. 1.5.1RC6 build 1.5.1.7
Copyright (c) 2008-2010 y-soft. All rights reserved
http://y-soft.org
ANALYZER: auCDtect: CD records authenticity detector, version 0.8.2
Copyright (c) 2004 Oleg Berngardt. All rights reserved.
Copyright (c) 2004 Alexander Djourik. All rights reserved.
FILE: Various Artists - I Love ZYX Italo Disco Collection 18 (CD 2).flac
Size: 530700200 Hash: A566670568ED3D5B7725BB051224FA3D Accuracy: -m0
Conclusion: CDDA 99%
Signature: 8E60A92D629BF073613DA1F443EA925042D649F9
 foobar2000 1.2.3 / Замер динамического диапазона (DR) 1.1.1
Дата отчёта: 2015-05-09 01:43:50
--------------------------------------------------------------------------------
Анализ: Attack / I Love ZYX Italo Disco Collection 18 (CD 2) (1)
B. Crazy / I Love ZYX Italo Disco Collection 18 (CD 2) (2)
--------------------------------------------------------------------------------
DR Пики RMS Продолжительность трека
--------------------------------------------------------------------------------
DR9 -0.30 дБ -10.25 дБ 6:54 05-Special Love (Long Version)
DR9 -0.30 дБ -9.87 дБ 5:27 09-Jungle Dream (12'' Version)
--------------------------------------------------------------------------------
Количество треков: 2
Реальные значения DR: DR9
Частота: 44100 Гц
Каналов: 2
Разрядность: 16
Битрейт: 1025 кбит/с
Кодек: FLAC
================================================================================
--------------------------------------------------------------------------------
Статистика для: 07-Just Gotta Tell Her (12'' Version)
Количество сэмплов: 11343696
Продолжительность: 4:17
--------------------------------------------------------------------------------
Левый Правый
Пики: -0.30 дБ --- -0.30 дБ
Средний RMS: -10.12 дБ --- -10.28 дБ
DR канала: 9.16 дБ --- 9.22 дБ
--------------------------------------------------------------------------------
Реальные значения DR: DR9
Частота: 44100 Гц
Каналов: 2
Разрядность: 16
Битрейт: 1025 кбит/с
Кодек: FLAC
================================================================================
--------------------------------------------------------------------------------
Анализ: Jessica / I Love ZYX Italo Disco Collection 18 (CD 2) (1)
Lucia / I Love ZYX Italo Disco Collection 18 (CD 2) (2)
--------------------------------------------------------------------------------
DR Пики RMS Продолжительность трека
--------------------------------------------------------------------------------
DR9 -0.30 дБ -9.61 дБ 5:23 03-C'est La Vie, Mon Cherie (12'' Super Disco Dance Version)
DR9 -0.30 дБ -10.30 дБ 7:13 06-Marinero (12'' Vocal Remix)
--------------------------------------------------------------------------------
Количество треков: 2
Реальные значения DR: DR9
Частота: 44100 Гц
Каналов: 2
Разрядность: 16
Битрейт: 1025 кбит/с
Кодек: FLAC
================================================================================
--------------------------------------------------------------------------------
Анализ: Radiorama / I Love ZYX Italo Disco Collection 18 (CD 2) (1)
Roger Meno / I Love ZYX Italo Disco Collection 18 (CD 2) (2)
--------------------------------------------------------------------------------
DR Пики RMS Продолжительность трека
--------------------------------------------------------------------------------
DR9 -0.30 дБ -9.57 дБ 7:13 02-ABCD (12'' Italy Remix)
DR9 -0.30 дБ -10.34 дБ 6:32 08-Love, Good-Bye (12'' Version)
--------------------------------------------------------------------------------
Количество треков: 2
Реальные значения DR: DR9
Частота: 44100 Гц
Каналов: 2
Разрядность: 16
Битрейт: 1025 кбит/с
Кодек: FLAC
================================================================================
--------------------------------------------------------------------------------
Анализ: / I Love ZYX Italo Disco Collection 18 (CD 2) (1)
Scotch / I Love ZYX Italo Disco Collection 18 (CD 2) (2)
Tony Balboa / I Love ZYX Italo Disco Collection 18 (CD 2) (3)
--------------------------------------------------------------------------------
DR Пики RMS Продолжительность трека
--------------------------------------------------------------------------------
DR9 -0.30 дБ -10.30 дБ 8:59 01-Only You (12'' Remix)
DR9 -0.30 дБ -10.29 дБ 6:21 04-Disco Band (12'' New Version)
DR9 0.00 дБ -10.30 дБ 5:42 10-Rock Your Body (12'' Vocal Version)
--------------------------------------------------------------------------------
Количество треков: 3
Реальные значения DR: DR9
Частота: 44100 Гц
Каналов: 2
Разрядность: 16
Битрейт: 1025 кбит/с
Кодек: FLAC
================================================================================
================================================================================
foobar2000 1.2.3 / Замер динамического диапазона (DR) 1.1.1
Дата отчёта: 2015-05-09 01:43:48
--------------------------------------------------------------------------------
Статистика для: 11-Face To Face, Heart To Heart (12'' Version)
Количество сэмплов: 13157088
Продолжительность: 4:58
--------------------------------------------------------------------------------
Левый Правый
Пики: -0.30 дБ --- -0.30 дБ
Средний RMS: -9.77 дБ --- -9.95 дБ
DR канала: 8.71 дБ --- 8.86 дБ
--------------------------------------------------------------------------------
Реальные значения DR: DR9
Частота: 44100 Гц
Каналов: 2
Разрядность: 16
Битрейт: 1025 кбит/с
Кодек: FLAC
================================================================================





Треклист
01. Savag e - Save Me (Another Remix) [06:11]
02. Nora - Vaya Con Dios (12'' Version) [05:53]
03. Jessica - Sympathy (Extendend Version) [06:26]
04. Jules - I Want To '89 (12'' Remix '98) [06:50]
05. Flying DJ - Marilyn (12'' Version) [06:29]
06. Hugh Bullen & Thora Timothy - I Can't Stay Without My Love (12'' Vocal Version) [05:37]
07. Chip Chip - Never Say Goodbye (Extended Vocal Version) [07:21]
08. Primero - Que Me Pasa? (12'' Vocal Version) [06:07]
09. Red & Jo - I'm Lonesome Tonight (12'' Vocal Version) [05:57]
10. John Arrow - It's Late Tonight (12'' Dance Version) [06:55]
11. Larabell - You've Got The Power (12'' Version) [07:28]
Лог EAC
 Exact Audio Copy V1.0 beta 6 from 9. April 2015
Отчёт EAC об извлечении, выполненном 9. мая 2015, 1:38
Various Artists / I Love ZYX Italo Disco Collection 18 (CD 3)
Дисковод: PIONEER BD-RW BDR-206 Adapter: 1 ID: 1
Режим чтения : Достоверность
Использование точного потока : Да
Отключение кэша аудио : Да
Использование указателей C2 : Нет
Коррекция смещения при чтении : 667
Способность читать области Lead-in и Lead-out : Нет
Заполнение пропущенных сэмплов тишиной : Да
Удаление блоков с тишиной в начале и конце : Нет
При вычислениях CRC использовались нулевые сэмплы : Да
Интерфейс : Встроенный Win32-интерфейс для Win NT/2000
Выходной формат : Пользовательский кодировщик
Выбранный битрейт : 1024 kBit/s
Качество : Высокий
Добавление ID3-тега : Нет
Утилита сжатия : C:\Program Files (x86)\Exact Audio Copy\FLAC\FLAC.EXE
Дополнительные параметры : -T "COMMENT=Ripped by SergeyJD"-8 -V -T "ARTIST=%artist%" -T "TITLE=%title%" -T "ALBUM=%albumtitle%" -T "DATE=%year%" -T "TRACKNUMBER=%tracknr%" -T "GENRE=%genre%" -T "COMMENT=%comment%" -T "BAND=%albuminterpret%" -T "ALBUMARTIST=%albuminterpret%" -T "COMPOSER=%composer%" %haslyrics%--tag-from-file=LYRICS="%lyricsfile%"%haslyrics% -T "DISCNUMBER=%cdnumber%" -T "TOTALDISCS=%totalcds%" -T "TOTALTRACKS=%numtracks%" %hascover%--picture="%coverfile%"%hascover% %source% -o %dest%
TOC извлечённого CD
Трек | Старт | Длительность | Начальный сектор | Конечный сектор
---------------------------------------------------------------------
1 | 0:00.00 | 6:11.07 | 0 | 27831
2 | 6:11.07 | 5:53.50 | 27832 | 54356
3 | 12:04.57 | 6:26.49 | 54357 | 83355
4 | 18:31.31 | 6:50.58 | 83356 | 114163
5 | 25:22.14 | 6:29.04 | 114164 | 143342
6 | 31:51.18 | 5:37.66 | 143343 | 168683
7 | 37:29.09 | 7:21.73 | 168684 | 201831
8 | 44:51.07 | 6:07.46 | 201832 | 229402
9 | 50:58.53 | 5:57.69 | 229403 | 256246
10 | 56:56.47 | 6:55.56 | 256247 | 287427
11 | 63:52.28 | 7:28.03 | 287428 | 321030
Характеристики диапазона извлечения и сообщения об ошибках
Выбранный диапазон
Имя файла D:\РАЗДАЧИ!!!!\VA - I Love ZYX Italo Disco Collection 18 (3CD ZYX 82777-2) - 2014\Disc 3\Various Artists - I Love ZYX Italo Disco Collection 18 (CD 3).wav
Пиковый уровень 96.6 %
Скорость извлечения 2.1 X
Качество диапазона 100.0 %
CRC теста C5746CEE
CRC копии C5746CEE
Копирование... OK
Ошибок не произошло
AccurateRip: сводка
Трек 1 : извлечено точно (доверие 2) [23888BB2] (AR v2)
Трек 2 : извлечено точно (доверие 2) [F2AFBB9C] (AR v2)
Трек 3 : извлечено точно (доверие 2) [C53EBCAE] (AR v2)
Трек 4 : извлечено точно (доверие 2) [564F4EF0] (AR v2)
Трек 5 : извлечено точно (доверие 2) [E2A4AE99] (AR v2)
Трек 6 : извлечено точно (доверие 2) [439ABDE5] (AR v2)
Трек 7 : извлечено точно (доверие 2) [8B3FD27B] (AR v2)
Трек 8 : извлечено точно (доверие 2) [317AD48C] (AR v2)
Трек 9 : извлечено точно (доверие 2) [115B49A4] (AR v2)
Трек 10 : извлечено точно (доверие 2) [A2B55628] (AR v2)
Трек 11 : извлечено точно (доверие 2) [A71B9E72] (AR v2)
Все треки извлечены точно
Конец отчёта
---- CUETools DB Plugin V2.1.6
[CTDB TOCID: QvsPg7CwevQyWkRfwzNxcE_Lnyo-] found
Submit result: already submitted
Track | CTDB Status
1 | (3/3) Accurately ripped
2 | (3/3) Accurately ripped
3 | (3/3) Accurately ripped
4 | (3/3) Accurately ripped
5 | (3/3) Accurately ripped
6 | (3/3) Accurately ripped
7 | (3/3) Accurately ripped
8 | (3/3) Accurately ripped
9 | (3/3) Accurately ripped
10 | (3/3) Accurately ripped
11 | (3/3) Accurately ripped
==== Контрольная сумма отчёта 2B36A07198B794E09F1240EC23265805DF3AEA8177B4563F80AF75E71B908BC1 ====
Содержание индексной карты (.CUE)
 REM GENRE "Italo-Disco, Disco"
REM DATE 2014
REM DISCID 8710B80B
REM COMMENT "ExactAudioCopy v1.0b6"
PERFORMER "Various Artists"
TITLE "I Love ZYX Italo Disco Collection 18 (CD 3)"
FILE "Various Artists - I Love ZYX Italo Disco Collection 18 (CD 3).flac" WAVE
TRACK 01 AUDIO
TITLE "Save Me (12'' Another Remix)"
PERFORMER ""
INDEX 01 00:00:00
TRACK 02 AUDIO
TITLE "Vaya Con Dios (12'' Version)"
PERFORMER "Nora"
INDEX 00 06:09:05
INDEX 01 06:11:07
TRACK 03 AUDIO
TITLE "Sympathy (Extendend Version)"
PERFORMER "Jessica"
INDEX 00 12:02:55
INDEX 01 12:04:57
TRACK 04 AUDIO
TITLE "I Want To '89 (12'' Remix '98)"
PERFORMER "Jules"
INDEX 00 18:29:29
INDEX 01 18:31:31
TRACK 05 AUDIO
TITLE "Marilyn (12'' Version)"
PERFORMER "Flying DJ"
INDEX 00 25:20:12
INDEX 01 25:22:14
TRACK 06 AUDIO
TITLE "I Can't Stay Without My Love (12'' Vocal Version)"
PERFORMER "Hugh Bullen & Thora Timothy"
INDEX 00 31:49:17
INDEX 01 31:51:18
TRACK 07 AUDIO
TITLE "Never Say Goodbye (Extended Vocal Version)"
PERFORMER "Chip Chip"
INDEX 00 37:27:08
INDEX 01 37:29:09
TRACK 08 AUDIO
TITLE "Que Me Pasa? (12'' Vocal Version)"
PERFORMER "Primero"
INDEX 00 44:49:05
INDEX 01 44:51:07
TRACK 09 AUDIO
TITLE "I'm Lonesome Tonight (12'' Vocal Version)"
PERFORMER "Red & Jo"
INDEX 00 50:56:51
INDEX 01 50:58:53
TRACK 10 AUDIO
TITLE "It's Late Tonight (12'' Dance Version)"
PERFORMER "John Arrow"
INDEX 00 56:54:45
INDEX 01 56:56:47
TRACK 11 AUDIO
TITLE "You've Got The Power (12'' Version)"
PERFORMER "Larabell"
INDEX 00 63:50:26
INDEX 01 63:52:28
Лог auCDtect Task Manager
 -----------------------
DON'T MODIFY THIS FILE
-----------------------
PERFORMER: auCDtect Task Manager, ver. 1.5.1RC6 build 1.5.1.7
Copyright (c) 2008-2010 y-soft. All rights reserved
http://y-soft.org
ANALYZER: auCDtect: CD records authenticity detector, version 0.8.2
Copyright (c) 2004 Oleg Berngardt. All rights reserved.
Copyright (c) 2004 Alexander Djourik. All rights reserved.
FILE: Various Artists - I Love ZYX Italo Disco Collection 18 (CD 3).flac
Size: 563006217 Hash: 60ECA2DE13F24051EE4C8E09F5496E6F Accuracy: -m0
Conclusion: CDDA 100%
Signature: 073A51DF3C3B57389FF80AE0B00DB24BC1CEB00B
Замер динамического диапазона (DR)
 foobar2000 1.2.3 / Замер динамического диапазона (DR) 1.1.1
Дата отчёта: 2015-05-09 01:44:14
--------------------------------------------------------------------------------
Анализ: Flying DJ / I Love ZYX Italo Disco Collection 18 (CD 3) (1)
Hugh Bullen & Thora Timothy / I Love ZYX Italo Disco Collection 18 (CD 3) (2)
--------------------------------------------------------------------------------
DR Пики RMS Продолжительность трека
--------------------------------------------------------------------------------
DR8 -0.30 дБ -9.50 дБ 6:29 05-Marilyn (12'' Version)
DR9 -0.30 дБ -10.06 дБ 5:38 06-I Can't Stay Without My Love (12'' Vocal Version)
--------------------------------------------------------------------------------
Количество треков: 2
Реальные значения DR: DR9
Частота: 44100 Гц
Каналов: 2
Разрядность: 16
Битрейт: 1052 кбит/с
Кодек: FLAC
================================================================================
--------------------------------------------------------------------------------
Анализ: Jessica / I Love ZYX Italo Disco Collection 18 (CD 3) (1)
John Arrow / I Love ZYX Italo Disco Collection 18 (CD 3) (2)
--------------------------------------------------------------------------------
DR Пики RMS Продолжительность трека
--------------------------------------------------------------------------------
DR8 -0.30 дБ -9.24 дБ 6:27 03-Sympathy (Extendend Version)
DR8 -0.30 дБ -9.78 дБ 6:56 10-It's Late Tonight (12'' Dance Version)
--------------------------------------------------------------------------------
Количество треков: 2
Реальные значения DR: DR8
Частота: 44100 Гц
Каналов: 2
Разрядность: 16
Битрейт: 1052 кбит/с
Кодек: FLAC
================================================================================
--------------------------------------------------------------------------------
Анализ: Jules / I Love ZYX Italo Disco Collection 18 (CD 3) (1)
Larabell / I Love ZYX Italo Disco Collection 18 (CD 3) (2)
--------------------------------------------------------------------------------
DR Пики RMS Продолжительность трека
--------------------------------------------------------------------------------
DR9 -0.30 дБ -10.01 дБ 6:51 04-I Want To '89 (12'' Remix '98)
DR9 -0.30 дБ -9.78 дБ 7:28 11-You've Got The Power (12'' Version)
--------------------------------------------------------------------------------
Количество треков: 2
Реальные значения DR: DR9
Частота: 44100 Гц
Каналов: 2
Разрядность: 16
Битрейт: 1052 кбит/с
Кодек: FLAC
================================================================================
--------------------------------------------------------------------------------
Анализ: Nora / I Love ZYX Italo Disco Collection 18 (CD 3) (1)
Primero / I Love ZYX Italo Disco Collection 18 (CD 3) (2)
Red & Jo / I Love ZYX Italo Disco Collection 18 (CD 3) (3)
--------------------------------------------------------------------------------
DR Пики RMS Продолжительность трека
--------------------------------------------------------------------------------
DR9 -0.30 дБ -9.63 дБ 5:54 02-Vaya Con Dios (12'' Version)
DR9 -0.30 дБ -10.29 дБ 6:08 08-Que Me Pasa? (12'' Vocal Version)
DR9 -0.30 дБ -10.10 дБ 5:58 09-I'm Lonesome Tonight (12'' Vocal Version)
--------------------------------------------------------------------------------
Количество треков: 3
Реальные значения DR: DR9
Частота: 44100 Гц
Каналов: 2
Разрядность: 16
Битрейт: 1052 кбит/с
Кодек: FLAC
================================================================================
--------------------------------------------------------------------------------
Статистика для: 01-Save Me (12'' Another Remix)
Количество сэмплов: 16365216
Продолжительность: 6:11
--------------------------------------------------------------------------------
Левый Правый
Пики: -0.30 дБ --- -0.30 дБ
Средний RMS: -10.21 дБ --- -10.33 дБ
DR канала: 8.99 дБ --- 9.18 дБ
--------------------------------------------------------------------------------
Реальные значения DR: DR9
Частота: 44100 Гц
Каналов: 2
Разрядность: 16
Битрейт: 1052 кбит/с
Кодек: FLAC
================================================================================
================================================================================
foobar2000 1.2.3 / Замер динамического диапазона (DR) 1.1.1
Дата отчёта: 2015-05-09 01:44:12
--------------------------------------------------------------------------------
Статистика для: 07-Never Say Goodbye (Extended Vocal Version)
Количество сэмплов: 19491024
Продолжительность: 7:22
--------------------------------------------------------------------------------
Левый Правый
Пики: -0.30 дБ --- -0.30 дБ
Средний RMS: -9.97 дБ --- -10.50 дБ
DR канала: 8.81 дБ --- 9.22 дБ
--------------------------------------------------------------------------------
Реальные значения DR: DR9
Частота: 44100 Гц
Каналов: 2
Разрядность: 16
Битрейт: 1052 кбит/с
Кодек: FLAC
================================================================================
 Exact Audio Copy V1.0 beta 6 from 9. April 2015
Отчёт EAC об извлечении, выполненном 9. мая 2015, 1:38
Various Artists / I Love ZYX Italo Disco Collection 18 (CD 3)
Дисковод: PIONEER BD-RW BDR-206 Adapter: 1 ID: 1
Режим чтения : Достоверность
Использование точного потока : Да
Отключение кэша аудио : Да
Использование указателей C2 : Нет
Коррекция смещения при чтении : 667
Способность читать области Lead-in и Lead-out : Нет
Заполнение пропущенных сэмплов тишиной : Да
Удаление блоков с тишиной в начале и конце : Нет
При вычислениях CRC использовались нулевые сэмплы : Да
Интерфейс : Встроенный Win32-интерфейс для Win NT/2000
Выходной формат : Пользовательский кодировщик
Выбранный битрейт : 1024 kBit/s
Качество : Высокий
Добавление ID3-тега : Нет
Утилита сжатия : C:\Program Files (x86)\Exact Audio Copy\FLAC\FLAC.EXE
Дополнительные параметры : -T "COMMENT=Ripped by SergeyJD"-8 -V -T "ARTIST=%artist%" -T "TITLE=%title%" -T "ALBUM=%albumtitle%" -T "DATE=%year%" -T "TRACKNUMBER=%tracknr%" -T "GENRE=%genre%" -T "COMMENT=%comment%" -T "BAND=%albuminterpret%" -T "ALBUMARTIST=%albuminterpret%" -T "COMPOSER=%composer%" %haslyrics%--tag-from-file=LYRICS="%lyricsfile%"%haslyrics% -T "DISCNUMBER=%cdnumber%" -T "TOTALDISCS=%totalcds%" -T "TOTALTRACKS=%numtracks%" %hascover%--picture="%coverfile%"%hascover% %source% -o %dest%
TOC извлечённого CD
Трек | Старт | Длительность | Начальный сектор | Конечный сектор
---------------------------------------------------------------------
1 | 0:00.00 | 6:11.07 | 0 | 27831
2 | 6:11.07 | 5:53.50 | 27832 | 54356
3 | 12:04.57 | 6:26.49 | 54357 | 83355
4 | 18:31.31 | 6:50.58 | 83356 | 114163
5 | 25:22.14 | 6:29.04 | 114164 | 143342
6 | 31:51.18 | 5:37.66 | 143343 | 168683
7 | 37:29.09 | 7:21.73 | 168684 | 201831
8 | 44:51.07 | 6:07.46 | 201832 | 229402
9 | 50:58.53 | 5:57.69 | 229403 | 256246
10 | 56:56.47 | 6:55.56 | 256247 | 287427
11 | 63:52.28 | 7:28.03 | 287428 | 321030
Характеристики диапазона извлечения и сообщения об ошибках
Выбранный диапазон
Имя файла D:\РАЗДАЧИ!!!!\VA - I Love ZYX Italo Disco Collection 18 (3CD ZYX 82777-2) - 2014\Disc 3\Various Artists - I Love ZYX Italo Disco Collection 18 (CD 3).wav
Пиковый уровень 96.6 %
Скорость извлечения 2.1 X
Качество диапазона 100.0 %
CRC теста C5746CEE
CRC копии C5746CEE
Копирование... OK
Ошибок не произошло
AccurateRip: сводка
Трек 1 : извлечено точно (доверие 2) [23888BB2] (AR v2)
Трек 2 : извлечено точно (доверие 2) [F2AFBB9C] (AR v2)
Трек 3 : извлечено точно (доверие 2) [C53EBCAE] (AR v2)
Трек 4 : извлечено точно (доверие 2) [564F4EF0] (AR v2)
Трек 5 : извлечено точно (доверие 2) [E2A4AE99] (AR v2)
Трек 6 : извлечено точно (доверие 2) [439ABDE5] (AR v2)
Трек 7 : извлечено точно (доверие 2) [8B3FD27B] (AR v2)
Трек 8 : извлечено точно (доверие 2) [317AD48C] (AR v2)
Трек 9 : извлечено точно (доверие 2) [115B49A4] (AR v2)
Трек 10 : извлечено точно (доверие 2) [A2B55628] (AR v2)
Трек 11 : извлечено точно (доверие 2) [A71B9E72] (AR v2)
Все треки извлечены точно
Конец отчёта
---- CUETools DB Plugin V2.1.6
[CTDB TOCID: QvsPg7CwevQyWkRfwzNxcE_Lnyo-] found
Submit result: already submitted
Track | CTDB Status
1 | (3/3) Accurately ripped
2 | (3/3) Accurately ripped
3 | (3/3) Accurately ripped
4 | (3/3) Accurately ripped
5 | (3/3) Accurately ripped
6 | (3/3) Accurately ripped
7 | (3/3) Accurately ripped
8 | (3/3) Accurately ripped
9 | (3/3) Accurately ripped
10 | (3/3) Accurately ripped
11 | (3/3) Accurately ripped
==== Контрольная сумма отчёта 2B36A07198B794E09F1240EC23265805DF3AEA8177B4563F80AF75E71B908BC1 ====
 REM GENRE "Italo-Disco, Disco"
REM DATE 2014
REM DISCID 8710B80B
REM COMMENT "ExactAudioCopy v1.0b6"
PERFORMER "Various Artists"
TITLE "I Love ZYX Italo Disco Collection 18 (CD 3)"
FILE "Various Artists - I Love ZYX Italo Disco Collection 18 (CD 3).flac" WAVE
TRACK 01 AUDIO
TITLE "Save Me (12'' Another Remix)"
PERFORMER ""
INDEX 01 00:00:00
TRACK 02 AUDIO
TITLE "Vaya Con Dios (12'' Version)"
PERFORMER "Nora"
INDEX 00 06:09:05
INDEX 01 06:11:07
TRACK 03 AUDIO
TITLE "Sympathy (Extendend Version)"
PERFORMER "Jessica"
INDEX 00 12:02:55
INDEX 01 12:04:57
TRACK 04 AUDIO
TITLE "I Want To '89 (12'' Remix '98)"
PERFORMER "Jules"
INDEX 00 18:29:29
INDEX 01 18:31:31
TRACK 05 AUDIO
TITLE "Marilyn (12'' Version)"
PERFORMER "Flying DJ"
INDEX 00 25:20:12
INDEX 01 25:22:14
TRACK 06 AUDIO
TITLE "I Can't Stay Without My Love (12'' Vocal Version)"
PERFORMER "Hugh Bullen & Thora Timothy"
INDEX 00 31:49:17
INDEX 01 31:51:18
TRACK 07 AUDIO
TITLE "Never Say Goodbye (Extended Vocal Version)"
PERFORMER "Chip Chip"
INDEX 00 37:27:08
INDEX 01 37:29:09
TRACK 08 AUDIO
TITLE "Que Me Pasa? (12'' Vocal Version)"
PERFORMER "Primero"
INDEX 00 44:49:05
INDEX 01 44:51:07
TRACK 09 AUDIO
TITLE "I'm Lonesome Tonight (12'' Vocal Version)"
PERFORMER "Red & Jo"
INDEX 00 50:56:51
INDEX 01 50:58:53
TRACK 10 AUDIO
TITLE "It's Late Tonight (12'' Dance Version)"
PERFORMER "John Arrow"
INDEX 00 56:54:45
INDEX 01 56:56:47
TRACK 11 AUDIO
TITLE "You've Got The Power (12'' Version)"
PERFORMER "Larabell"
INDEX 00 63:50:26
INDEX 01 63:52:28
 -----------------------
DON'T MODIFY THIS FILE
-----------------------
PERFORMER: auCDtect Task Manager, ver. 1.5.1RC6 build 1.5.1.7
Copyright (c) 2008-2010 y-soft. All rights reserved
http://y-soft.org
ANALYZER: auCDtect: CD records authenticity detector, version 0.8.2
Copyright (c) 2004 Oleg Berngardt. All rights reserved.
Copyright (c) 2004 Alexander Djourik. All rights reserved.
FILE: Various Artists - I Love ZYX Italo Disco Collection 18 (CD 3).flac
Size: 563006217 Hash: 60ECA2DE13F24051EE4C8E09F5496E6F Accuracy: -m0
Conclusion: CDDA 100%
Signature: 073A51DF3C3B57389FF80AE0B00DB24BC1CEB00B
 foobar2000 1.2.3 / Замер динамического диапазона (DR) 1.1.1
Дата отчёта: 2015-05-09 01:44:14
--------------------------------------------------------------------------------
Анализ: Flying DJ / I Love ZYX Italo Disco Collection 18 (CD 3) (1)
Hugh Bullen & Thora Timothy / I Love ZYX Italo Disco Collection 18 (CD 3) (2)
--------------------------------------------------------------------------------
DR Пики RMS Продолжительность трека
--------------------------------------------------------------------------------
DR8 -0.30 дБ -9.50 дБ 6:29 05-Marilyn (12'' Version)
DR9 -0.30 дБ -10.06 дБ 5:38 06-I Can't Stay Without My Love (12'' Vocal Version)
--------------------------------------------------------------------------------
Количество треков: 2
Реальные значения DR: DR9
Частота: 44100 Гц
Каналов: 2
Разрядность: 16
Битрейт: 1052 кбит/с
Кодек: FLAC
================================================================================
--------------------------------------------------------------------------------
Анализ: Jessica / I Love ZYX Italo Disco Collection 18 (CD 3) (1)
John Arrow / I Love ZYX Italo Disco Collection 18 (CD 3) (2)
--------------------------------------------------------------------------------
DR Пики RMS Продолжительность трека
--------------------------------------------------------------------------------
DR8 -0.30 дБ -9.24 дБ 6:27 03-Sympathy (Extendend Version)
DR8 -0.30 дБ -9.78 дБ 6:56 10-It's Late Tonight (12'' Dance Version)
--------------------------------------------------------------------------------
Количество треков: 2
Реальные значения DR: DR8
Частота: 44100 Гц
Каналов: 2
Разрядность: 16
Битрейт: 1052 кбит/с
Кодек: FLAC
================================================================================
--------------------------------------------------------------------------------
Анализ: Jules / I Love ZYX Italo Disco Collection 18 (CD 3) (1)
Larabell / I Love ZYX Italo Disco Collection 18 (CD 3) (2)
--------------------------------------------------------------------------------
DR Пики RMS Продолжительность трека
--------------------------------------------------------------------------------
DR9 -0.30 дБ -10.01 дБ 6:51 04-I Want To '89 (12'' Remix '98)
DR9 -0.30 дБ -9.78 дБ 7:28 11-You've Got The Power (12'' Version)
--------------------------------------------------------------------------------
Количество треков: 2
Реальные значения DR: DR9
Частота: 44100 Гц
Каналов: 2
Разрядность: 16
Битрейт: 1052 кбит/с
Кодек: FLAC
================================================================================
--------------------------------------------------------------------------------
Анализ: Nora / I Love ZYX Italo Disco Collection 18 (CD 3) (1)
Primero / I Love ZYX Italo Disco Collection 18 (CD 3) (2)
Red & Jo / I Love ZYX Italo Disco Collection 18 (CD 3) (3)
--------------------------------------------------------------------------------
DR Пики RMS Продолжительность трека
--------------------------------------------------------------------------------
DR9 -0.30 дБ -9.63 дБ 5:54 02-Vaya Con Dios (12'' Version)
DR9 -0.30 дБ -10.29 дБ 6:08 08-Que Me Pasa? (12'' Vocal Version)
DR9 -0.30 дБ -10.10 дБ 5:58 09-I'm Lonesome Tonight (12'' Vocal Version)
--------------------------------------------------------------------------------
Количество треков: 3
Реальные значения DR: DR9
Частота: 44100 Гц
Каналов: 2
Разрядность: 16
Битрейт: 1052 кбит/с
Кодек: FLAC
================================================================================
--------------------------------------------------------------------------------
Статистика для: 01-Save Me (12'' Another Remix)
Количество сэмплов: 16365216
Продолжительность: 6:11
--------------------------------------------------------------------------------
Левый Правый
Пики: -0.30 дБ --- -0.30 дБ
Средний RMS: -10.21 дБ --- -10.33 дБ
DR канала: 8.99 дБ --- 9.18 дБ
--------------------------------------------------------------------------------
Реальные значения DR: DR9
Частота: 44100 Гц
Каналов: 2
Разрядность: 16
Битрейт: 1052 кбит/с
Кодек: FLAC
================================================================================
================================================================================
foobar2000 1.2.3 / Замер динамического диапазона (DR) 1.1.1
Дата отчёта: 2015-05-09 01:44:12
--------------------------------------------------------------------------------
Статистика для: 07-Never Say Goodbye (Extended Vocal Version)
Количество сэмплов: 19491024
Продолжительность: 7:22
--------------------------------------------------------------------------------
Левый Правый
Пики: -0.30 дБ --- -0.30 дБ
Средний RMS: -9.97 дБ --- -10.50 дБ
DR канала: 8.81 дБ --- 9.22 дБ
--------------------------------------------------------------------------------
Реальные значения DR: DR9
Частота: 44100 Гц
Каналов: 2
Разрядность: 16
Битрейт: 1052 кбит/с
Кодек: FLAC
================================================================================

[1.66 GB] Скачать / Download