(Italo-Disco, Disco) VA - Daniele Baldelli - Daniele Baldelli Presents Baia Degli Angeli 1977-1978 - Volume 2 - 2007, FLAC (image+.cue), lossless - Скачать

Жанр: Italo-Disco, Disco
Год выпуска диска: 2007
Производитель диска: Italy, Amarkord
Аудио кодек: FLAC
Тип рипа: image+.cue
Битрейт аудио: lossless
Продолжительность: 1:06:46
Трэклист:
1 Savannah Band - Cherchez La Femme 3:53
2 Jakki - You Are The Star 4:24
3 Inner City Express - Shu' Dig Dancin' (In My Hi-Heeled Shoes) 3:48
4 Gaz - Sing Sing 3:50
5 Kongas - Dr. Doo-Dah 4:41
6 Invitation, The - Funky Road 4:40
7 Revelacion - Crocos Dance 3:38
8 Cloud One - Happy Music 4:33
9 Bumble Bee Unlimited - Everybody Dance 3:28
10 Cloud One - Spaced Out 4:12
11 Skyline - I'm Gonna Fall In Love 3:25
12 Sound Of Inner City - Mary Hartman, Mary Hartman 5:32
13 Skyline - Future Jungle 4:20
14 Anthony White - Block Party 3:35
15 High Voltage - Rock, Spank, Freak 3:51
16 Ripple - The Beat Goes On And On 4:48Various Artists - Daniele Baldelli - Daniele Baldelli Presents Baia Degli Angeli 1977-1978
avaxcom

pop, download, pop-music, музыка, дискография, композиции, soundtrack, альбом, трек, торрент, torrent, альбом, lossless, скачать, поп, поп-музыка, высокое качество, cd, песни, бесплатно, mp3

 Exact Audio Copy V0.99 prebeta 5 from 4. May 2009
EAC extraction logfile from 6. February 2010, 15:29
Various Artists / Daniele Baldelli Presents: Baia Degli Angeli 1977-1978 Vol.02
Used drive : HP DVD Writer 1040r Adapter: 1 ID: 0
Read mode : Secure
Utilize accurate stream : Yes
Defeat audio cache : Yes
Make use of C2 pointers : No
Read offset correction : 6
Overread into Lead-In and Lead-Out : No
Fill up missing offset samples with silence : Yes
Delete leading and trailing silent blocks : No
Null samples used in CRC calculations : Yes
Used interface : Native Win32 interface for Win NT & 2000
Used output format : User Defined Encoder
Selected bitrate : 1024 kBit/s
Quality : High
Add ID3 tag : No
Command line compressor : C:\Program Files\Exact Audio Copy\FLAC\FLAC.EXE
Additional command line options : -5 -V -T "ARTIST=%a" -T "TITLE=%t" -T "ALBUM=%g" -T "DATE=%y" -T "TRACKNUMBER=%n" -T "GENRE=%m" -T "COMMENT=EAC Flac 1.1.2 -5" %s
TOC of the extracted CD
Track | Start | Length | Start sector | End sector
---------------------------------------------------------
1 | 0:00.00 | 3:53.26 | 0 | 17500
2 | 3:53.26 | 4:24.27 | 17501 | 37327
3 | 8:17.53 | 3:48.57 | 37328 | 54484
4 | 12:06.35 | 3:50.68 | 54485 | 71802
5 | 15:57.28 | 4:41.68 | 71803 | 92945
6 | 20:39.21 | 4:40.25 | 92946 | 113970
7 | 25:19.46 | 3:38.39 | 113971 | 130359
8 | 28:58.10 | 4:33.54 | 130360 | 150888
9 | 33:31.64 | 3:28.00 | 150889 | 166488
10 | 36:59.64 | 4:12.42 | 166489 | 185430
11 | 41:12.31 | 3:25.28 | 185431 | 200833
12 | 44:37.59 | 5:32.36 | 200834 | 225769
13 | 50:10.20 | 4:20.21 | 225770 | 245290
14 | 54:30.41 | 3:35.57 | 245291 | 261472
15 | 58:06.23 | 3:51.51 | 261473 | 278848
16 | 61:57.74 | 4:48.57 | 278849 | 300505
Range status and errors
Selected range
Filename C:\Users\Mike3\Desktop\bal2f\Various Artists - Daniele Baldelli Presents Baia Degli Angeli 1977-1978 Vol.02.wav
Peak level 99.9 %
Range quality 100.0 %
Copy CRC 741866C1
Copy OK
No errors occurred
AccurateRip summary
Track 1 not present in database
Track 2 not present in database
Track 3 not present in database
Track 4 not present in database
Track 5 not present in database
Track 6 not present in database
Track 7 not present in database
Track 8 not present in database
Track 9 not present in database
Track 10 not present in database
Track 11 not present in database
Track 12 not present in database
Track 13 not present in database
Track 14 not present in database
Track 15 not present in database
Track 16 not present in database
None of the tracks are present in the AccurateRip database
End of status report
 AUDIOCHECKER v2.0 beta (build 457) - by Dester - [email protected]
~~~~~~~~~~~~~~~~~~~~~~~~~~~~~~~~~~
-=== DO NOT EDIT THIS FILE! ===-
Path: ...\Daniele Baldelli presents Baia Degli Angeli 1977-1978 Vol. 2 (Flac)
01 -=- Various Artists - Daniele Baldelli Presents Baia Degli Angeli 1977-1978 Vol.02.flac -=- CDDA (100%)
164063572

[589 MB] Скачать / Download