(Italo-Disco/Euro-Beat/Hi-NRG) VA - I Love Italodisco Nrg Vol.1,2 - The Best Dance Energy Hits (2 CD) - 2006, APE (image+.cue), lossless - Скачать

Жанр:Italo-Disco/Euro-Beat/Hi-Nrg
Страна-производитель диска:Spain
Год издания диска: 2006
Издатель (лейбл): Blanco Y Negro
Номер по каталогу: MXCD 1624, MXCD 1679
Аудио кодек: APE (*.ape)
Тип рипа: image+.cue
Битрейт аудио: lossless
Продолжительность: 1:15:13+1:16:05
Источник (релизер): собственный рип
Наличие сканов в содержимом раздачи: да
Трэклист:
I Love Italodisco Nrg Vol.1 :
01. Silver Pozzoli - Love Is The Best 5:57
02. Ken Laszlo - Everybody Is Dancing 7:16
03. Alphatown - Power Of Magic 6:09
04. Aleph - Fire On The Moon 6:38
05. Lisa Johnson - Say Goodbye 6:11
06. Oscar - It's My Life 6:04
07. Italian Boys - Midnight Girl 5:44
08. Radiorama - Bad Boy You 6:08
09. Vanessa - Crazy For You 5:24
10. Alan Barry - Hie Hie Hie 5:43
11. Mike Hammer - Divine 5:56
12. Ross - Don't Stop 8:01

I Love Italodisco Nrg Vol.2 :
01. Alphatown - Hey Robin 6:22
02. Ken Laszlo - Glasses Man 6:05
03. Sophie - Soft Time 6:18
04. Italian Boys - Take My Love 5:55
05. Robert Camero - Let Me Fall In Love 5:53
06. Fred Ventura - Heartbeat 5:36
07. Topo & Roby - Set On Fire 5:54
08. Roby Rotondo - For Your Love 5:14
09. Wilson Ferguson - Show Me 5:31
10. Divo - We Can't Go On 5:17
11. Moulin Rouge - Tea For Two 5:09
12. Morgana - C'est Cupidon 6:22
13. Kinky Go - Gimme The Love 6:23

Доп. информация:
Абсолютно все рипы сделаны с оригинальных CD из моей коллекции !!!
Полные сканы обложек и дисков прилагаются !!!
- Blanco Y Negro Music -

скачать, альбом, дискография, lossless, музыка, бесплатно, поп, pop-music, поп-музыка, высокое качество, торрент, torrent, download, альбом, pop, песни, soundtrack, cd, композиции, трек, mp3

Обратите внимание !!!
Материал выложен ИСКЛЮЧИТЕЛЬНО для ознакомления, так что не забудьте, пожалуйста,
удалить его с жёсткого диска после ознакомления, пойти в магазин и купить оригинальное издание !!!
VA - I Love Italodisco Nrg Vol.1 From Discogs
VA - I Love Italodisco Nrg Vol.2 From Discogs
Backs
Back - I Love Italodisco Nrg Vol.1
Back - I Love Italodisco Nrg Vol.2
Отчеты EAC
Отчет EAC - I Love Italodisco Nrg Vol.1
Exact Audio Copy V0.99 prebeta 4 from 23. January 2008
Отчёт EAC об извлечении, выполненном 2. июля 2009, 23:26
Various / I Love Italodisco Nrg Vol. 1
Дисковод: Optiarc DVD RW AD-5200A Adapter: 0 ID: 0
Режим чтения : Достоверность
Использование точного потока : Да
Отключение кэша аудио : Да
Использование указателей C2 : Нет
Коррекция смещения при чтении : 48
Способность читать области Lead-in и Lead-out : Нет
Заполнение пропущенных сэмплов тишиной : Да
Удаление блоков с тишиной в начале и конце : Нет
При вычислениях CRC использовались нулевые сэмплы : Да
Интерфейс : Установленный внешний ASPI-интерфейс
Выходной формат : Внутренние WAV-операции
Формат сэмплов : 44.100 Гц; 16 бит; стерео
TOC извлечённого CD
Трек | Старт | Длительность | Начальный сектор | Конечный сектор
---------------------------------------------------------------------
1 | 0:00.00 | 5:57.57 | 0 | 26831
2 | 5:57.57 | 7:16.00 | 26832 | 59531
3 | 13:13.57 | 6:09.00 | 59532 | 87206
4 | 19:22.57 | 6:38.23 | 87207 | 117079
5 | 26:01.05 | 6:11.26 | 117080 | 144930
6 | 32:12.31 | 6:04.00 | 144931 | 172230
7 | 38:16.31 | 5:44.00 | 172231 | 198030
8 | 44:00.31 | 6:08.20 | 198031 | 225650
9 | 50:08.51 | 5:24.00 | 225651 | 249950
10 | 55:32.51 | 5:43.00 | 249951 | 275675
11 | 61:15.51 | 5:56.25 | 275676 | 302400
12 | 67:12.01 | 8:01.65 | 302401 | 338540
Характеристики диапазона извлечения и сообщения об ошибках
Выбранный диапазон
Имя файла E:\New eac 0\Various - I Love Italodisco Nrg\Various - I Love Italodisco Nrg Vol. 1\Various - I Love Italodisco Nrg Vol. 1.wav
Пиковый уровень 100.0 %
Качество диапазона 100.0 %
CRC копии DC76DCE0
Копирование... OK
Ошибок не произошло
AccurateRip: сводка
Трек 1 точное извлечение (доверие 1) [C512B4F7]
Трек 2 точное извлечение (доверие 1) [362FD468]
Трек 3 точное извлечение (доверие 1) [F5033229]
Трек 4 точное извлечение (доверие 1) [2A147902]
Трек 5 точное извлечение (доверие 1) [F4734635]
Трек 6 точное извлечение (доверие 1) [6FC9E7D1]
Трек 7 точное извлечение (доверие 1) [625D5096]
Трек 8 точное извлечение (доверие 1) [E0531920]
Трек 9 точное извлечение (доверие 1) [2EE702B6]
Трек 10 точное извлечение (доверие 1) [DEBF42C9]
Трек 11 точное извлечение (доверие 1) [7EF49665]
Трек 12 точное извлечение (доверие 1) [BD1A2110]
Все треки извлечены точно
Конец отчёта
Отчет EAC - I Love Italodisco Nrg Vol.2
Exact Audio Copy V0.99 prebeta 4 from 23. January 2008
Отчёт EAC об извлечении, выполненном 2. июля 2009, 13:19
Various / I Love Italodisco Nrg Vol. 2
Дисковод: Optiarc DVD RW AD-5200A Adapter: 0 ID: 0
Режим чтения : Достоверность
Использование точного потока : Да
Отключение кэша аудио : Да
Использование указателей C2 : Нет
Коррекция смещения при чтении : 48
Способность читать области Lead-in и Lead-out : Нет
Заполнение пропущенных сэмплов тишиной : Да
Удаление блоков с тишиной в начале и конце : Нет
При вычислениях CRC использовались нулевые сэмплы : Да
Интерфейс : Установленный внешний ASPI-интерфейс
Выходной формат : Внутренние WAV-операции
Формат сэмплов : 44.100 Гц; 16 бит; стерео
TOC извлечённого CD
Трек | Старт | Длительность | Начальный сектор | Конечный сектор
---------------------------------------------------------------------
1 | 0:00.00 | 6:22.00 | 0 | 28649
2 | 6:22.00 | 6:05.34 | 28650 | 56058
3 | 12:27.34 | 6:18.74 | 56059 | 84482
4 | 18:46.33 | 5:55.29 | 84483 | 111136
5 | 24:41.62 | 5:53.70 | 111137 | 137681
6 | 30:35.57 | 5:36.31 | 137682 | 162912
7 | 36:12.13 | 5:53.72 | 162913 | 189459
8 | 42:06.10 | 5:14.12 | 189460 | 213021
9 | 47:20.22 | 5:31.61 | 213022 | 237907
10 | 52:52.08 | 5:17.69 | 237908 | 261751
11 | 58:10.02 | 5:09.72 | 261752 | 284998
12 | 63:19.74 | 6:22.24 | 284999 | 313672
13 | 69:42.23 | 6:23.30 | 313673 | 342427
Характеристики диапазона извлечения и сообщения об ошибках
Выбранный диапазон
Имя файла E:\New eac 0\Various - I Love Italodisco Nrg Vol. 2\Various - I Love Italodisco Nrg Vol. 2.wav
Пиковый уровень 100.0 %
Качество диапазона 100.0 %
CRC копии 9A67AE97
Копирование... OK
Ошибок не произошло
AccurateRip: сводка
Трек 1 нет в базе данных
Трек 2 нет в базе данных
Трек 3 нет в базе данных
Трек 4 нет в базе данных
Трек 5 нет в базе данных
Трек 6 нет в базе данных
Трек 7 нет в базе данных
Трек 8 нет в базе данных
Трек 9 нет в базе данных
Трек 10 нет в базе данных
Трек 11 нет в базе данных
Трек 12 нет в базе данных
Трек 13 нет в базе данных
Ни одного трека нет в базе AccurateRip
Конец отчёта
Материал выложен ИСКЛЮЧИТЕЛЬНО для ознакомления, так что не забудьте, пожалуйста,
удалить его с жёсткого диска после ознакомления, пойти в магазин и купить оригинальное издание !!!
Back - I Love Italodisco Nrg Vol.1
Back - I Love Italodisco Nrg Vol.2
Отчет EAC - I Love Italodisco Nrg Vol.1
Exact Audio Copy V0.99 prebeta 4 from 23. January 2008
Отчёт EAC об извлечении, выполненном 2. июля 2009, 23:26
Various / I Love Italodisco Nrg Vol. 1
Дисковод: Optiarc DVD RW AD-5200A Adapter: 0 ID: 0
Режим чтения : Достоверность
Использование точного потока : Да
Отключение кэша аудио : Да
Использование указателей C2 : Нет
Коррекция смещения при чтении : 48
Способность читать области Lead-in и Lead-out : Нет
Заполнение пропущенных сэмплов тишиной : Да
Удаление блоков с тишиной в начале и конце : Нет
При вычислениях CRC использовались нулевые сэмплы : Да
Интерфейс : Установленный внешний ASPI-интерфейс
Выходной формат : Внутренние WAV-операции
Формат сэмплов : 44.100 Гц; 16 бит; стерео
TOC извлечённого CD
Трек | Старт | Длительность | Начальный сектор | Конечный сектор
---------------------------------------------------------------------
1 | 0:00.00 | 5:57.57 | 0 | 26831
2 | 5:57.57 | 7:16.00 | 26832 | 59531
3 | 13:13.57 | 6:09.00 | 59532 | 87206
4 | 19:22.57 | 6:38.23 | 87207 | 117079
5 | 26:01.05 | 6:11.26 | 117080 | 144930
6 | 32:12.31 | 6:04.00 | 144931 | 172230
7 | 38:16.31 | 5:44.00 | 172231 | 198030
8 | 44:00.31 | 6:08.20 | 198031 | 225650
9 | 50:08.51 | 5:24.00 | 225651 | 249950
10 | 55:32.51 | 5:43.00 | 249951 | 275675
11 | 61:15.51 | 5:56.25 | 275676 | 302400
12 | 67:12.01 | 8:01.65 | 302401 | 338540
Характеристики диапазона извлечения и сообщения об ошибках
Выбранный диапазон
Имя файла E:\New eac 0\Various - I Love Italodisco Nrg\Various - I Love Italodisco Nrg Vol. 1\Various - I Love Italodisco Nrg Vol. 1.wav
Пиковый уровень 100.0 %
Качество диапазона 100.0 %
CRC копии DC76DCE0
Копирование... OK
Ошибок не произошло
AccurateRip: сводка
Трек 1 точное извлечение (доверие 1) [C512B4F7]
Трек 2 точное извлечение (доверие 1) [362FD468]
Трек 3 точное извлечение (доверие 1) [F5033229]
Трек 4 точное извлечение (доверие 1) [2A147902]
Трек 5 точное извлечение (доверие 1) [F4734635]
Трек 6 точное извлечение (доверие 1) [6FC9E7D1]
Трек 7 точное извлечение (доверие 1) [625D5096]
Трек 8 точное извлечение (доверие 1) [E0531920]
Трек 9 точное извлечение (доверие 1) [2EE702B6]
Трек 10 точное извлечение (доверие 1) [DEBF42C9]
Трек 11 точное извлечение (доверие 1) [7EF49665]
Трек 12 точное извлечение (доверие 1) [BD1A2110]
Все треки извлечены точно
Конец отчёта
Отчет EAC - I Love Italodisco Nrg Vol.2
Exact Audio Copy V0.99 prebeta 4 from 23. January 2008
Отчёт EAC об извлечении, выполненном 2. июля 2009, 13:19
Various / I Love Italodisco Nrg Vol. 2
Дисковод: Optiarc DVD RW AD-5200A Adapter: 0 ID: 0
Режим чтения : Достоверность
Использование точного потока : Да
Отключение кэша аудио : Да
Использование указателей C2 : Нет
Коррекция смещения при чтении : 48
Способность читать области Lead-in и Lead-out : Нет
Заполнение пропущенных сэмплов тишиной : Да
Удаление блоков с тишиной в начале и конце : Нет
При вычислениях CRC использовались нулевые сэмплы : Да
Интерфейс : Установленный внешний ASPI-интерфейс
Выходной формат : Внутренние WAV-операции
Формат сэмплов : 44.100 Гц; 16 бит; стерео
TOC извлечённого CD
Трек | Старт | Длительность | Начальный сектор | Конечный сектор
---------------------------------------------------------------------
1 | 0:00.00 | 6:22.00 | 0 | 28649
2 | 6:22.00 | 6:05.34 | 28650 | 56058
3 | 12:27.34 | 6:18.74 | 56059 | 84482
4 | 18:46.33 | 5:55.29 | 84483 | 111136
5 | 24:41.62 | 5:53.70 | 111137 | 137681
6 | 30:35.57 | 5:36.31 | 137682 | 162912
7 | 36:12.13 | 5:53.72 | 162913 | 189459
8 | 42:06.10 | 5:14.12 | 189460 | 213021
9 | 47:20.22 | 5:31.61 | 213022 | 237907
10 | 52:52.08 | 5:17.69 | 237908 | 261751
11 | 58:10.02 | 5:09.72 | 261752 | 284998
12 | 63:19.74 | 6:22.24 | 284999 | 313672
13 | 69:42.23 | 6:23.30 | 313673 | 342427
Характеристики диапазона извлечения и сообщения об ошибках
Выбранный диапазон
Имя файла E:\New eac 0\Various - I Love Italodisco Nrg Vol. 2\Various - I Love Italodisco Nrg Vol. 2.wav
Пиковый уровень 100.0 %
Качество диапазона 100.0 %
CRC копии 9A67AE97
Копирование... OK
Ошибок не произошло
AccurateRip: сводка
Трек 1 нет в базе данных
Трек 2 нет в базе данных
Трек 3 нет в базе данных
Трек 4 нет в базе данных
Трек 5 нет в базе данных
Трек 6 нет в базе данных
Трек 7 нет в базе данных
Трек 8 нет в базе данных
Трек 9 нет в базе данных
Трек 10 нет в базе данных
Трек 11 нет в базе данных
Трек 12 нет в базе данных
Трек 13 нет в базе данных
Ни одного трека нет в базе AccurateRip
Конец отчёта
Exact Audio Copy V0.99 prebeta 4 from 23. January 2008
Отчёт EAC об извлечении, выполненном 2. июля 2009, 23:26
Various / I Love Italodisco Nrg Vol. 1
Дисковод: Optiarc DVD RW AD-5200A Adapter: 0 ID: 0
Режим чтения : Достоверность
Использование точного потока : Да
Отключение кэша аудио : Да
Использование указателей C2 : Нет
Коррекция смещения при чтении : 48
Способность читать области Lead-in и Lead-out : Нет
Заполнение пропущенных сэмплов тишиной : Да
Удаление блоков с тишиной в начале и конце : Нет
При вычислениях CRC использовались нулевые сэмплы : Да
Интерфейс : Установленный внешний ASPI-интерфейс
Выходной формат : Внутренние WAV-операции
Формат сэмплов : 44.100 Гц; 16 бит; стерео
TOC извлечённого CD
Трек | Старт | Длительность | Начальный сектор | Конечный сектор
---------------------------------------------------------------------
1 | 0:00.00 | 5:57.57 | 0 | 26831
2 | 5:57.57 | 7:16.00 | 26832 | 59531
3 | 13:13.57 | 6:09.00 | 59532 | 87206
4 | 19:22.57 | 6:38.23 | 87207 | 117079
5 | 26:01.05 | 6:11.26 | 117080 | 144930
6 | 32:12.31 | 6:04.00 | 144931 | 172230
7 | 38:16.31 | 5:44.00 | 172231 | 198030
8 | 44:00.31 | 6:08.20 | 198031 | 225650
9 | 50:08.51 | 5:24.00 | 225651 | 249950
10 | 55:32.51 | 5:43.00 | 249951 | 275675
11 | 61:15.51 | 5:56.25 | 275676 | 302400
12 | 67:12.01 | 8:01.65 | 302401 | 338540
Характеристики диапазона извлечения и сообщения об ошибках
Выбранный диапазон
Имя файла E:\New eac 0\Various - I Love Italodisco Nrg\Various - I Love Italodisco Nrg Vol. 1\Various - I Love Italodisco Nrg Vol. 1.wav
Пиковый уровень 100.0 %
Качество диапазона 100.0 %
CRC копии DC76DCE0
Копирование... OK
Ошибок не произошло
AccurateRip: сводка
Трек 1 точное извлечение (доверие 1) [C512B4F7]
Трек 2 точное извлечение (доверие 1) [362FD468]
Трек 3 точное извлечение (доверие 1) [F5033229]
Трек 4 точное извлечение (доверие 1) [2A147902]
Трек 5 точное извлечение (доверие 1) [F4734635]
Трек 6 точное извлечение (доверие 1) [6FC9E7D1]
Трек 7 точное извлечение (доверие 1) [625D5096]
Трек 8 точное извлечение (доверие 1) [E0531920]
Трек 9 точное извлечение (доверие 1) [2EE702B6]
Трек 10 точное извлечение (доверие 1) [DEBF42C9]
Трек 11 точное извлечение (доверие 1) [7EF49665]
Трек 12 точное извлечение (доверие 1) [BD1A2110]
Все треки извлечены точно
Конец отчёта
Exact Audio Copy V0.99 prebeta 4 from 23. January 2008
Отчёт EAC об извлечении, выполненном 2. июля 2009, 13:19
Various / I Love Italodisco Nrg Vol. 2
Дисковод: Optiarc DVD RW AD-5200A Adapter: 0 ID: 0
Режим чтения : Достоверность
Использование точного потока : Да
Отключение кэша аудио : Да
Использование указателей C2 : Нет
Коррекция смещения при чтении : 48
Способность читать области Lead-in и Lead-out : Нет
Заполнение пропущенных сэмплов тишиной : Да
Удаление блоков с тишиной в начале и конце : Нет
При вычислениях CRC использовались нулевые сэмплы : Да
Интерфейс : Установленный внешний ASPI-интерфейс
Выходной формат : Внутренние WAV-операции
Формат сэмплов : 44.100 Гц; 16 бит; стерео
TOC извлечённого CD
Трек | Старт | Длительность | Начальный сектор | Конечный сектор
---------------------------------------------------------------------
1 | 0:00.00 | 6:22.00 | 0 | 28649
2 | 6:22.00 | 6:05.34 | 28650 | 56058
3 | 12:27.34 | 6:18.74 | 56059 | 84482
4 | 18:46.33 | 5:55.29 | 84483 | 111136
5 | 24:41.62 | 5:53.70 | 111137 | 137681
6 | 30:35.57 | 5:36.31 | 137682 | 162912
7 | 36:12.13 | 5:53.72 | 162913 | 189459
8 | 42:06.10 | 5:14.12 | 189460 | 213021
9 | 47:20.22 | 5:31.61 | 213022 | 237907
10 | 52:52.08 | 5:17.69 | 237908 | 261751
11 | 58:10.02 | 5:09.72 | 261752 | 284998
12 | 63:19.74 | 6:22.24 | 284999 | 313672
13 | 69:42.23 | 6:23.30 | 313673 | 342427
Характеристики диапазона извлечения и сообщения об ошибках
Выбранный диапазон
Имя файла E:\New eac 0\Various - I Love Italodisco Nrg Vol. 2\Various - I Love Italodisco Nrg Vol. 2.wav
Пиковый уровень 100.0 %
Качество диапазона 100.0 %
CRC копии 9A67AE97
Копирование... OK
Ошибок не произошло
AccurateRip: сводка
Трек 1 нет в базе данных
Трек 2 нет в базе данных
Трек 3 нет в базе данных
Трек 4 нет в базе данных
Трек 5 нет в базе данных
Трек 6 нет в базе данных
Трек 7 нет в базе данных
Трек 8 нет в базе данных
Трек 9 нет в базе данных
Трек 10 нет в базе данных
Трек 11 нет в базе данных
Трек 12 нет в базе данных
Трек 13 нет в базе данных
Ни одного трека нет в базе AccurateRip
Конец отчёта

[1.02 GB] Скачать / Download