(Italo-Disco/Euro-Disco/Hi-NRG/Disco) VA - All Stars Disco (22 CD) - 1998-2000, FLAC (image+.cue), lossless - Скачать

Жанр: Italo-Disco/Euro-Disco/Hi NRG/Disco || Года выпусков дисков: 1998-2000 || Производитель дисков: Болгария
Аудио кодек: FLAC || Тип рипа: image+.cue || Битрейт аудио: lossless || Продолжительность: 22 CD
В коллекцию включены рипы от (диски 13, 14), (диски 15,16), (диски 19, 20) и (диски 21, 22)
За что им огромное спасибо!
All Stars Disco (22 CD) (MP3)

cd, pop-music, бесплатно, поп-музыка, композиции, torrent, pop, альбом, песни, download, скачать, музыка, soundtrack, lossless, альбом, трек, mp3, торрент, высокое качество, поп, дискография

DISC 1

01. Londons Boys / Requiem [0:04:23.22]
02. Joy / Touch By Touch [0:03:47.03]
03. Jessica Jay / Casablanca [0:06:18.27]
04. E-Type / Russian Lullaby [0:03:13.73]
05. Fancy / Slice Me Nice [0:04:23.70]
06. Bad Boys Blue / You're A Woman [0:03:58.70]
07. Ottawan / Hands Up [0:04:48.05]
08. Boney M / Rasputin [0:04:28.20]
09. Dschingis Khan / Hun Han Dschingis Khan [0:03:57.20]
10. Chris Norman / Some Hearts Are Diamonds [0:03:44.55]
11. Santa Esmeralda / The House Of The Rising Sun [0:05:23.67]
12. Alphaville / Dance With Me [0:04:06.08]
13. Frank Duval / Face To The Wind [0:03:46.67]
14. Modern Talking / Jet Airliner [0:04:22.38]
15. Status Quo / You're In The Army Now [0:04:39.10]
16. C.C.Catch / Heaven And Hell [0:03:38.17]
17. Secret Service / Ten O'clock Postman [0:03:16.53]

DISC 2

01. London Boys / My Love [0:03:05.60]
02. KLF / Last Train to Trancentral [0:03:36.42]
03. Pin-Occhio / Pin-Occhio [0:03:13.48]
04. Eruption / One Way Ticket [0:03:36.02]
05. Laid Back / Sunshine Reggae [0:04:14.70]
06. Steve Miller Band / Abracadabra [0:05:08.13]
07. Pet Shop Boys / It's a Sin [0:05:00.65]
08. Gloria Ganor / I Will Survive [0:07:57.05]
09. Sabrina / Boys [0:03:56.62]
10. Chris Norman & Suzi Quatro / Stumblin' in [0:03:58.08]
11. Maywood / Pasadena [0:03:33.52]
12. Kim Wild / Cambodia [0:03:57.40]
13. Cerrone / Super Nature [0:04:26.55]
14. Baccara / Yes, Sir I can Boogie [0:04:35.65]
15. Savage / Only You [0:03:46.40]
16. F.R. David / Pick up the Phone [0:03:08.33]
17. Silent Circle / Every Move, Every Touch [0:04:47.02]
DISC 3

01. Afric Simone / Hafanana [0:02:56.04]
02. Boney M / Ma Baker [0:04:37.36]
03. Neoton Familia / Marathon [0:05:20.00]
04. Dolls United Featuring Jim Knopf / Eine Insel Mit Zwei Bergen [0:03:47.24]
05. The Beloved / Sweet Harmony [0:05:06.10]
06. Al Bano & Romina Power / Felicita [0:03:16.12]
07. Arabesque / Midnight Dancer [0:03:41.35]
08. Joe Esposito / Lady, Lady, Lady [0:04:10.10]
09. Gdb / Marrakesh [0:04:51.50]
10. Radiorama / Aliens [0:04:13.35]
11. B. Orlando / Take A Chance [0:05:41.64]
12. Kaoma / Dancando Lambada [0:03:26.52]
13. London Beat / I've Been Thinking About You [0:03:44.60]
14. Visage / Fade To Grey [0:04:02.28]
15. Sandra / We'll Be Together [0:03:48.45]
16. Savage / Don't Cry Tonight [0:03:55.45]
17. The Gibson Brothers / Que Sera Mivida [0:03:01.38]
18. Teach In / Dear John [0:03:13.46]

DISC 4

01. Afric Simone / Todo Pasara Maria [0:03:14.25]
02. Dschinghis Khan / Moskau [0:04:30.35]
03. Spaghetti Surfers / Misirlou [0:04:02.64]
04. Mr. Zivago / Little Russian [0:07:37.43]
05. Arabesque / Hello Mr. Monkey [0:03:29.66]
06. Boney M / Never Change Lovers [0:05:35.35]
07. Joe Dassin / Siffler Sur La Colline [0:02:39.09]
08. Saragossa Band / Sun of Jamaica [0:04:00.16]
09. Dee D.Jackson / SOS [0:04:08.62]
10. Bad Boys Blue / Lady Blue [0:04:28.13]
11. Beach Boys / California Dreamin [0:03:11.09]
12. Vaya Con Dios / Nah Neh Nah [0:02:55.16]
13. Tarkan / Hepsi Seniw Mi? [0:03:51.17]
14. Fracesco Napoli / Balla [0:05:51.30]
15. Opus / Life Is Live [0:04:07.03]
16. Desireless / Voyage [0:04:23.59]
17. Alphaville / A Victory of Love - Sweet Harmony [0:04:12.55]
DISC 5

01. Pia Zadora & Jermaine Jackson / When The Rain Begins To Fall [0:04:01.15]
02. Les McKeown / It's A Game [0:05:17.59]
03. Smokie / I'll Meet You At Midnight [0:03:16.52]
04. Ardis / Ain't Nobody's Business [0:03:15.19]
05. Joy / Valeri [0:04:10.67]
06. Ken Laszlo / Glasses Man [0:04:15.05]
07. Richie E Poweri / Akapulco [0:03:44.69]
08. Mireille Mathieu / Ciao, Bambino, Sorry [0:02:55.13]
09. Baccara / Sorry, I'm A Lady [0:03:40.07]
10. Pupo / La Notte [0:03:52.52]
11. Gipsy Kings / Bamboleo [0:03:24.64]
12. Sam Brown / Stop [0:04:57.17]
13. Joe Dassin / Taka Takata [0:02:37.52]
14. Christie / Iron Horse [0:02:52.01]
15. Ottawan / D.I.S.C.O. [0:04:59.55]
16. Ace Of Base / Happy Nation [0:04:16.08]
17. Yello / Jingle Bells [0:02:59.71]
18. Sin With Sebastian / Shut Up [0:03:44.57]
19. Army Of Lovers / La Plage De Saint Tropez [0:03:34.19]

DISC 6

01. London Boys / Harlem Desere [0:03:47.57]
02. Blue System / Laila [0:03:28.54]
03. Harasuku / The Phantom Of The Opera [0:04:09.34]
04. Pet Shop Boys / All Wais On My Mind [0:03:54.31]
05. D.Russel / Paradise [0:03:52.48]
06. Joe Dolan / You're Such A Good Looking Woman [0:02:56.40]
07. Bonnie Tyler / Holding Out For A Hero [0:05:50.02]
08. Georg Baker Selection / Seven Tears [0:03:48.34]
09. Traks / Long Train Runnin [0:04:31.23]
10. Steve Wonder / I Just Called To Say I Love You [0:06:18.13]
11. Los Lobos / La Bamba [0:02:55.52]
12. Suzi Quatro / If You Can't Give Me Love [0:03:54.31]
13. Maggie Reilly / Everytime We Touch [0:04:04.23]
14. La Bionda / Deserts Of Mars [0:04:11.23]
15. Belinda Carlise / Circle In The Sand [0:05:35.08]
16. Dr Alban / It's My Life [0:04:02.22]
17. Radiorama / Aliens 2 (The Nightmare) [0:03:12.35]
18. Jason Donovan / Sealed With A Kiss [0:02:22.46]
DISC 7

01. Smokie \ Have You Ever Seen the Rain [0:04:16.57]
02. Blue System \ G.T.O. [0:03:30.48]
03. Laura Branigan \ Satisfaction [0:03:55.07]
04. Yello \ Drive-Driven [0:04:16.28]
05. Gipsy Kings \ Escuchca Me [0:04:39.20]
06. Chris Norman \ Hunters of the Night [0:04:06.10]
07. Bad Boys Blue \ Pretty Young Girl [0:03:36.20]
08. Fool's Garden \ Lemon Tree [0:03:12.65]
09. Ken Laszlo \ Mary Ann [0:03:02.45]
10. Secret Service \ Aux Deux Magots [0:04:10.10]
11. Leonardo Cohen \ The Future [0:06:42.17]
12. Ricchi & Poveri \ Cosa Sei [0:03:18.43]
13. Fancy \ Blue Eyed Lady [0:03:48.10]
14. Pupo \ Senza Fortuna [0:03:46.57]
15. Inner Circle \ A I A I A La Long [0:03:48.50]
16. Chris De Burg \ The Lady in Red [0:04:16.43]
17. Teach-In \ I'm Alone [0:02:52.40]
18. Czerwone Gitary \ Nie Spoczniemy [0:04:32.37]

DISC 8

01. Les Mc Keown / Love Is Just Breath Away [0:03:50.07]
02. Haddaway / Fly Away [0:03:45.65]
03. Vanessa Paradis / Marilyn & John [0:05:41.18]
04. Jan Holland / De Vogeltjesdans [0:02:11.67]
05. Pet Shop Boys & David Bowie / Hello Spaceboy [0:04:24.10]
06. Matia Bazar / Vaganze Romance [0:04:13.25]
07. Toto Cutuno / L'Italiano [0:03:54.25]
08. Doop / Sidney Berlin Ragtime Band [0:03:08.35]
09. Zhi-Vago / Celebrate the Love [0:04:09.30]
10. Roxette / How Do You Do [0:03:10.63]
11. Joe Dassin / A Toi [0:02:47.17]
12. Dschinghis Khan / Israel, Israel [0:05:35.08]
13. Belle Epoque / Miss Broadway [0:07:23.62]
14. Jam & Spoon / Right In The Night [0:06:05.65]
15. Shocking Blue / Venus [0:03:05.73]
16. Frank Duval / Touch My Soul [0:04:00.35]
17. E.L.O. / Hold On Tight [0:03:06.57]
DISC 9

01. Blue System / Only With You [0:03:27.58]
02. Lian Ross / Say You'll Never [0:06:25.47]
03. Eruption / One Way Ticket (Original) [0:03:35.68]
04. Toto Cutugno / Se Mi Ami [0:03:47.40]
05. Desirelles / Jecrois En Toi [0:04:16.55]
06. Louis Armstrong / Hello Dolly [0:02:26.32]
07. Eddie Huntington / USSR [0:05:53.43]
08. Rednex / Riding Alone [0:03:26.57]
09. Tanita Tikaram / Twist in My Sobriety [0:04:48.50]
10. Fancy / Bolero [0:04:04.38]
11. Baccara / Cara Mia [0:02:57.37]
12. Adriano Celentano / Stivali E Colbacco [0:04:16.00]
13. Modern Talking / Arabian Gold [0:03:40.00]
14. Carrapicho / Tic Tic Tac [0:03:17.00]
15. Chris de Burgh / Talking It To The Top [0:04:01.68]
16. Taco / Puttin' On The Ritz [0:04:41.07]
17. Kylie / The Locomotion [0:03:14.15]
18. DJ Dado / Dreaming [0:04:05.70]

DISC 10

01. Camouflage / Love Is A Shield [0:04:45.25]
02. Nina / The Reason is You [0:03:32.30]
03. Cabalero / Nuncija [0:03:58.43]
04. Mr. President / Coco Jambo [0:03:39.10]
05. Masterboy / Mister Feeling [0:03:53.57]
06. Los Del Rio / Macarena [0:03:52.50]
07. Robert Miles & Maria Mylor / One and One [0:06:29.13]
08. Alpha / Revolution in Paradise [0:05:50.40]
09. Imperio / Atlantis [0:03:52.57]
10. Cardingang / Love Fool [0:03:15.33]
11. Scooter / Rebel Yell [0:03:42.02]
12. Whigfield / Sexy Eyes [0:03:58.40]
13. Fun Factory / Don't Go Away [0:03:30.00]
14. Blumchen / Piep Piep [0:03:58.20]
15. T.Ha A. Ka Falco / Mutter Der Mann Olem Koks Ist Da [0:03:39.33]
16. Apollo44 / Krupa [0:04:01.42]
17. Sound Lovers / Run Away [0:03:11.28]
18. X-Perience / Neverdending Dream [0:03:30.02]
DISC 11

01. Bisquitte / Zoo Zoo [0:06:24.10]
02. Danny Keith / Keep On Music [0:06:32.02]
03. Stage / Whoodoo Dance [0:06:59.18]
04. Rajio di Luna / Comanchero [0:07:28.22]
05. Fantastique / Maria No Mas [0:05:14.13]
06. Bolero / I Wish [0:07:46.55]
07. Mr. Zivago / Love in Moscow [0:05:19.07]
08. Mike Mareen / Das Rythm [0:05:49.28]
09. Fair Fax / Young Girls [0:05:45.22]
10. Jules / You & Me [0:02:59.33]
11. Lanuovo Fattoria / Disco Polo [0:05:44.60]
12. Radiorama / Yeti [0:07:48.07]

DISC 12

01. Bellini / Samba De Janeiro [0:02:51.02]
02. Los Lobos With Antonio Banderas / Canuon Del Mariachi [0:02:05.15]
03. Robin Cook / I Want Let The Sun Go Down [0:03:05.53]
04. Perfecto All Stars / Reach Up [0:03:42.25]
05. 2 Young / Season In The Sun [0:03:36.37]
06. DS Quicksilver / Free [0:03:27.38]
07. Heat Hunter / Walking On Clouds [0:03:49.57]
08. Double Vision / Knockin' [0:05:24.20]
09. No Doubt / Don't Speak [0:04:24.20]
10. Dr Alban / Look Who's Talking [0:03:14.48]
11. Imperio / Return The Paradise [0:04:35.40]
12. M.R. / To Frame [0:03:56.20]
13. Max Dee Jay / Rhythm Is A Dancer [0:04:03.12]
14. 911 / Bodyshakin [0:03:37.08]
15. N-Trance / D.I.S.C.O. [0:04:20.40]
16. Asward / Shine [0:03:40.40]
17. Jackie Moore / I Want To Know What Love Is [0:05:05.25]
18. Paradiso / Bailando [0:03:49.72]
19. X-Perience / Magic Field [0:03:28.58]
DISC 13

01. Gina G. / Och Aah... Just A Little Bit
02. Captain Jack / Together And Forever
03. Chris Rea / Josephine
04. Samantha Fox / I Only Wanna Be You
05. Tom Jones / Delilah
06. Raffaella Carra / Amigo
07. Adriano Celentano / Ja Tebia Liubliu
08. Mike Oldfield / Moonlight Shadow
09. Jean Michel Jarre / Magnetic Fields 5
10. Urge Overkill / Girl, You'll Be A Woman Soon
11. Bee Gees / Alone
12. Bad Boys Blue / A Train To Nowhere
13. Valerie Dore / Get Gloser
14. Heart Attack / I Was Made For Loving You
15. Freebee / True
16. Joe Dolan / Sixteen Brothers
17. Paco / Amor De Mis Armores
18. Julio Iglesias / Baila Morena
19. DJ Dado / Mission Impossible Theme
DISC 14

01. Squeezer / Blue Jeans
02. Reset feat.Danii / You Got The Key
03. Bizz Nizz / Dabadabiaboo
04. No Mercy / Where Do You Go
05. King Of Paradise / One Night Stand
06. Papa Dee / Angel
07. Generator / Das Model
08. Mr.John / Get In On
09. Blue System / Freedom
10. Tnn / La Cucamaracha
11. E-Rotic / Help Me Dr.Dick
12. Blizzard / It's Only Love
13. Lauren Christy / The Color Of The Night
14. Groove Connection / Sippin'on Bacardi Rum
15. Heath Hunter & The Pleasure Company / Master & Servant
16. Blizzard / Without You
17. Princess Paragon / Stupid Girl
18. Inner Circle / Bad Boys
DISC 15

01. Fancy / Flames Of Love
02. Blue System / History
03. Smokie / Niddles & Pins
04. Secret Service / Oh Susie
05. Space / Air Force
06. Karl Douglas / Kung Fu Fighting
07. Black / Wonderful Life
08. Boney M / Still I'm Sad
09. Demis Roussos / From Souvenirs To Souvenirs
10. Del Shennon / Runaway
11. Stevie Wonder / I Just Called To Say I Love You
12. Bryan Adams & Paco De Lucia / Have You Ever Really Loved A Woman
13. Ray Charles / Hit The Road Jack
14. Nora Simon / Run, Baby, Run
15. Alan Price / Poor People
16. Baltimora / Tarzan Boy
17. Modern Talking / You're My Heart, You're My Soul
18. Jean Michel Jarre / Magnetic Fields - 2
DISC 16

01. Supermax / It Ain't Easy
02. Radiorama / Chance To Desire
03. Toto Cutugno / Serenata
04. Joy / Magic Eyes
05. Julio Iglesias & Dolly Parton / When You Tell Me That You Love Me
06. Waterfront Home / Finger On The Trigger
07. Roxette / The Look
08. Arabesque / Lucifer's Lover
09. Leonard Cohen / The Future
10. Marilyn Monroe / I Wanna Be Loved By You
11. Pet Shop Boys / Se A Vida E (That's The Way Life Is)
12. ABBA / S.O.S.
13. Queen / The Show Must Go On
14. Fancy / Long Way To Paradise
15. Laid Back / Bakerman
16. Bow Down Mister / Jesus Loves You
DISC 17

01. Patty Bryan / You're My Love, You're My Live [0:07:15.36]
02. Saphir / I'm Alive [0:05:25.72]
03. Rocky M. / Disco Lady [0:05:34.20]
04. Stephanie / One Love To Give [0:05:52.66]
05. Michael Fortunatti / Tell Me Why [0:04:42.48]
06. Nove / Ride My Bike [0:06:10.57]
07. Mico Mission / How Old Are You [0:07:20.45]
08. David Lyme / I Don't Wanna Loose You [0:06:33.05]
09. Sodapops / Dancing Fire [0:06:02.23]
10. Hot R.S. / House Of The Rising Sun [0:10:55.11]

DISC 18

01. Patty Ryan / Stay With Me Tonight [0:03:23.36]
02. Tom Hooker / Runaway [0:05:01.04]
03. Moltocarina / Love For Sale [0:05:54.05]
04. Secret Service / Flush In The Night [0:03:50.27]
05. Stagey Q / Two Of Hearts [0:06:47.58]
06. Mark Farina / To My Heart [0:05:59.16]
07. Superlove / Lovely Lambada [0:03:20.45]
08. Cindy Dee / Starting Over [0:03:58.17]
09. ELO / So Serious [0:02:45.07]
10. Stephanie / Live Your Life [0:04:29.73]
11. Smokie / Living Next Door To Alice [0:03:30.53]
12. Blue System / 6 Years 6 Night [0:03:50.16]
13. Deborah Kinley / Surprise [0:05:37.05]
14. Eskimo / Jump [0:05:44.59]
DISC 19

01. T. Ark / Undercover Lovers
02. Gina T. / Fantasy Boy
03. Chris Norman / Baby I Miss You
04. Billy Ocean / Loverboy
05. Fancy / Diceman
06. Marcel Romanoff / I'd Love You To Want Me
07. Pet Shop Boys / Go West
08. Linda Jo Rizzo / Heart Flash
09. Toto Cotugno / Innamorati
10. Armik / Gipsy Flame
11. Joe Yellow / U.S.A.
12. Valerie Dore / Sword Inside My Heart
13. Alphatown / Japan Japan
14. Delta Force / You Relight My Fire
15. Teach In / Ding Dong
16. Falco / Jeanny
DISC 20

01. Danuta / Touch My Heart
02. King Kong & Dj. Uncle Girls / Boom Boom Dollar
03. Bernie Paul / Atenntione
04. Gina T. / Talisman
05. Magazine 60 / Girls Of Lucifer
06. Chris Rea / Lookin' For The Summer
07. Billy Joel / My Life
08. Samantha Gilles / S.T.O.P.
09. Chris De Burgh / Moonlight And Vodka
10. Marko Battaini / El Choclo
11. Latin Lover / Cassanova Action
12. The Flirts / Helpless
13. No Mercy / Kiss You All Over
14. Aqua / Barbie Girl
15. King Kong / Don't Let Me Misunderstood
16. Raffa / You'll See
DISC 21

01. A.Bagger / Where Were You Last Night
02. Debut De Soiree / Nuit De Folie
03. Shy Rose / You're My Desire
04. M.Mareen / Agent Of Liberty
05. Claudia T / Dance With Me
06. Savage / Don't You Want Me (Radio Version)
07. L.Ross / Fantasy
08. Saphir / Storms Of Love
09. Shy / Stay All Night
10. Alphatown / The Power Of My Love
11. Chilly / Simply A Love Song
12. Saphir / Shot In The Night
13. E.Hortington / Ussr
14. M.Bedford / More Then A Kiss
15. Wish Key / Make It Up
16. Lasaurus / Wait
17. G.Marchena / Sings Of Time
DISC 22

01. Mel C / I Turn To You
02. Sash / Mysterious Times
03. Europe / The Final Countdown'2000
04. Daze / 2Тв Chance
05. Alice Dj / Back In My Life
06. Aqua / Around The World
07. Modern Talking / After You Love Is Gone
08. La Bouche / All I Want
09. Gala / Everyone Has Inside
10. E.Clapton / Get Lost
11. Sonique / Sky
12. Solid Base / Set Me Free
13. Basc Element / Secret Love
14. Radiorama / Cause The Night
15. Me & My / Loving You
16. M.Anthony / You Sang To Me
17. M2m / The Day You Went Away
18. Dj Dado / Breath Of Sax
DISC 1
 Отчёт EAC об извлечении, выполненном 26. марта 2008, 20:41 для диска:
Various / All Stars Disco 1
Дисковод: TEAC DV-W516GB Adapter: 0 ID: 2
Режим чтения: Достоверный (C2: нет, Точный поток: да, Отключение кэша: да)
Коррекция смещения при чтении: 12
Способность читать области Lead-in и Lead-out : Нет
Выходной формат: Внутренние WAV-операции
44.100 Гц; 16 бит; стерео
Другие параметры:
Заполнение пропущенных сэмплов тишиной : Да
Удаление блоков с тишиной в начале и конце : Нет
Установленный внешний ASPI-интерфейс
Характеристики диапазона извлечения и сообщения об ошибках
Выбранный диапазон
Имя файла D:\RELEASE\Various Artists - All Stars Disco Disc 01\Various - All Stars Disco 1.wav
Пиковый уровень 88.8 %
Качество диапазона 100.0 %
CRC 4E5FBE2B
Копирование... OK
Ошибок не произошло
Конец отчёта
DISC 2
 Отчёт EAC об извлечении, выполненном 26. марта 2008, 23:35 для диска:
Various / All Stars Disco 2
Дисковод: TEAC DV-W516GB Adapter: 0 ID: 2
Режим чтения: Достоверный (C2: нет, Точный поток: да, Отключение кэша: да)
Коррекция смещения при чтении: 12
Способность читать области Lead-in и Lead-out : Нет
Выходной формат: Внутренние WAV-операции
44.100 Гц; 16 бит; стерео
Другие параметры:
Заполнение пропущенных сэмплов тишиной : Да
Удаление блоков с тишиной в начале и конце : Нет
Установленный внешний ASPI-интерфейс
Характеристики диапазона извлечения и сообщения об ошибках
Выбранный диапазон
Имя файла D:\RELEASE\Various Artists - All Stars Disco Disc 02\Various - All Stars Disco 2.wav
Пиковый уровень 94.7 %
Качество диапазона 100.0 %
CRC 308ED664
Копирование... OK
Ошибок не произошло
Конец отчёта
DISC 3
 Отчёт EAC об извлечении, выполненном 27. марта 2008, 9:07 для диска:
Various Artists / All Stars Disco CD3
Дисковод: TEAC DV-W516GB Adapter: 0 ID: 2
Режим чтения: Достоверный (C2: нет, Точный поток: да, Отключение кэша: да)
Коррекция смещения при чтении: 12
Способность читать области Lead-in и Lead-out : Нет
Выходной формат: Внутренние WAV-операции
44.100 Гц; 16 бит; стерео
Другие параметры:
Заполнение пропущенных сэмплов тишиной : Да
Удаление блоков с тишиной в начале и конце : Нет
Установленный внешний ASPI-интерфейс
Характеристики диапазона извлечения и сообщения об ошибках
Выбранный диапазон
Имя файла D:\RELEASE\Various Artists - All Stars Disco Disc 03\Various Artists - All Stars Disco CD3.wav
Пиковый уровень 97.9 %
Качество диапазона 99.9 %
CRC 0EE8ABDD
Копирование... OK
Ошибок не произошло
Конец отчёта
DISC 4
 Отчёт EAC об извлечении, выполненном 28. марта 2008, 1:17 для диска:
All Stars Disco / CD4
Дисковод: TEAC DV-W516GB Adapter: 0 ID: 2
Режим чтения: Достоверный (C2: нет, Точный поток: да, Отключение кэша: да)
Коррекция смещения при чтении: 12
Способность читать области Lead-in и Lead-out : Нет
Выходной формат: Внутренние WAV-операции
44.100 Гц; 16 бит; стерео
Другие параметры:
Заполнение пропущенных сэмплов тишиной : Да
Удаление блоков с тишиной в начале и конце : Нет
Установленный внешний ASPI-интерфейс
Характеристики диапазона извлечения и сообщения об ошибках
Выбранный диапазон
Имя файла D:\RELEASE\Various Artists - All Stars Disco Disc 04\All Stars Disco - CD4.wav
Пиковый уровень 95.0 %
Качество диапазона 100.0 %
CRC C57EE235
Копирование... OK
Ошибок не произошло
Конец отчёта
DISC 5
 Отчёт EAC об извлечении, выполненном 28. марта 2008, 2:09 для диска:
Various / All Stars Disco 5
Дисковод: TEAC DV-W516GB Adapter: 0 ID: 2
Режим чтения: Достоверный (C2: нет, Точный поток: да, Отключение кэша: да)
Коррекция смещения при чтении: 12
Способность читать области Lead-in и Lead-out : Нет
Выходной формат: Внутренние WAV-операции
44.100 Гц; 16 бит; стерео
Другие параметры:
Заполнение пропущенных сэмплов тишиной : Да
Удаление блоков с тишиной в начале и конце : Нет
Установленный внешний ASPI-интерфейс
Характеристики диапазона извлечения и сообщения об ошибках
Выбранный диапазон
Имя файла D:\RELEASE\Various Artists - All Stars Disco Disc 05\Various - All Stars Disco 5.wav
Пиковый уровень 99.7 %
Качество диапазона 100.0 %
CRC 0A8F0C05
Копирование... OK
Ошибок не произошло
Конец отчёта
DISC 6
 Отчёт EAC об извлечении, выполненном 28. марта 2008, 11:17 для диска:
Various Artists / All Stars Disco 6
Дисковод: TEAC DV-W516GB Adapter: 0 ID: 2
Режим чтения: Достоверный (C2: нет, Точный поток: да, Отключение кэша: да)
Коррекция смещения при чтении: 12
Способность читать области Lead-in и Lead-out : Нет
Выходной формат: Внутренние WAV-операции
44.100 Гц; 16 бит; стерео
Другие параметры:
Заполнение пропущенных сэмплов тишиной : Да
Удаление блоков с тишиной в начале и конце : Нет
Установленный внешний ASPI-интерфейс
Характеристики диапазона извлечения и сообщения об ошибках
Выбранный диапазон
Имя файла D:\RELEASE\Various Artists - All Stars Disco Disc 06\Various Artists - All Stars Disco 6.wav
Пиковый уровень 91.6 %
Качество диапазона 100.0 %
CRC 30800D15
Копирование... OK
Ошибок не произошло
Конец отчёта
DISC 7
 Exact Audio Copy V0.99 prebeta 4 from 23. January 2008
Отчёт EAC об извлечении, выполненном 31. декабря 2008, 16:35
Various / All Stars Disco Disc 07
Дисковод: TEAC DV-W520GM Adapter: 4 ID: 2
Режим чтения : Достоверность
Использование точного потока : Да
Отключение кэша аудио : Да
Использование указателей C2 : Нет
Коррекция смещения при чтении : 6
Способность читать области Lead-in и Lead-out : Нет
Заполнение пропущенных сэмплов тишиной : Да
Удаление блоков с тишиной в начале и конце : Нет
При вычислениях CRC использовались нулевые сэмплы : Да
Интерфейс : Установленный внешний ASPI-интерфейс
Выходной формат : Внутренние WAV-операции
Формат сэмплов : 44.100 Гц; 16 бит; стерео
TOC извлечённого CD
Трек | Старт | Длительность | Начальный сектор | Конечный сектор
---------------------------------------------------------------------
1 | 0:01.00 | 4:16.57 | 75 | 19331
2 | 4:17.57 | 3:30.48 | 19332 | 35129
3 | 7:48.30 | 3:55.07 | 35130 | 52761
4 | 11:43.37 | 4:16.28 | 52762 | 71989
5 | 15:59.65 | 4:39.20 | 71990 | 92934
6 | 20:39.10 | 4:06.10 | 92935 | 111394
7 | 24:45.20 | 3:36.20 | 111395 | 127614
8 | 28:21.40 | 3:12.65 | 127615 | 142079
9 | 31:34.30 | 3:02.45 | 142080 | 155774
10 | 34:37.00 | 4:10.10 | 155775 | 174534
11 | 38:47.10 | 6:42.17 | 174535 | 204701
12 | 45:29.27 | 3:18.43 | 204702 | 219594
13 | 48:47.70 | 3:48.10 | 219595 | 236704
14 | 52:36.05 | 3:46.57 | 236705 | 253711
15 | 56:22.62 | 3:48.50 | 253712 | 270861
16 | 60:11.37 | 4:16.43 | 270862 | 290104
17 | 64:28.05 | 2:52.40 | 290105 | 303044
18 | 67:20.45 | 4:32.37 | 303045 | 323481
Характеристики диапазона извлечения и сообщения об ошибках
Выбранный диапазон
Имя файла F:\RELEASE\Various Artists - All Stars Disco Disc 07\Various - All Stars Disco Disc 07.wav
Пиковый уровень 100.0 %
Качество диапазона 99.7 %
CRC копии 2177E953
Копирование завершено
Ошибок не произошло
AccurateRip: сводка
Трек 1 нет в базе данных
Трек 2 нет в базе данных
Трек 3 нет в базе данных
Трек 4 нет в базе данных
Трек 5 нет в базе данных
Трек 6 нет в базе данных
Трек 7 нет в базе данных
Трек 8 нет в базе данных
Трек 9 нет в базе данных
Трек 10 нет в базе данных
Трек 11 нет в базе данных
Трек 12 нет в базе данных
Трек 13 нет в базе данных
Трек 14 нет в базе данных
Трек 15 нет в базе данных
Трек 16 нет в базе данных
Трек 17 нет в базе данных
Трек 18 нет в базе данных
Ни одного трека нет в базе AccurateRip
Конец отчёта
DISC 8
 Отчёт EAC об извлечении, выполненном 30. марта 2008, 15:42 для диска:
Various / All Stars Disco CD8
Дисковод: TEAC DV-W516GB Adapter: 0 ID: 2
Режим чтения: Достоверный (C2: нет, Точный поток: да, Отключение кэша: да)
Коррекция смещения при чтении: 12
Способность читать области Lead-in и Lead-out : Нет
Выходной формат: Внутренние WAV-операции
44.100 Гц; 16 бит; стерео
Другие параметры:
Заполнение пропущенных сэмплов тишиной : Да
Удаление блоков с тишиной в начале и конце : Нет
Установленный внешний ASPI-интерфейс
Характеристики диапазона извлечения и сообщения об ошибках
Выбранный диапазон
Имя файла D:\RELEASE\Various Artists - All Stars Disco Disc 08\Various - All Stars Disco CD8.wav
Пиковый уровень 94.9 %
Качество диапазона 100.0 %
CRC E1C4589C
Копирование... OK
Ошибок не произошло
Конец отчёта
DISC 9
 Отчёт EAC об извлечении, выполненном 30. марта 2008, 16:32 для диска:
Various / All Stars Disco 9
Дисковод: TEAC DV-W516GB Adapter: 0 ID: 2
Режим чтения: Достоверный (C2: нет, Точный поток: да, Отключение кэша: да)
Коррекция смещения при чтении: 12
Способность читать области Lead-in и Lead-out : Нет
Выходной формат: Внутренние WAV-операции
44.100 Гц; 16 бит; стерео
Другие параметры:
Заполнение пропущенных сэмплов тишиной : Да
Удаление блоков с тишиной в начале и конце : Нет
Установленный внешний ASPI-интерфейс
Характеристики диапазона извлечения и сообщения об ошибках
Выбранный диапазон
Имя файла D:\RELEASE\Various Artists - All Stars Disco Disc 09\Various - All Stars Disco 9.wav
Пиковый уровень 96.5 %
Качество диапазона 100.0 %
CRC 30F8EBB5
Копирование... OK
Ошибок не произошло
Конец отчёта
DISC 10
 Отчёт EAC об извлечении, выполненном 30. марта 2008, 17:35 для диска:
Various / All Stars Disco 10
Дисковод: TEAC DV-W516GB Adapter: 0 ID: 2
Режим чтения: Достоверный (C2: нет, Точный поток: да, Отключение кэша: да)
Коррекция смещения при чтении: 12
Способность читать области Lead-in и Lead-out : Нет
Выходной формат: Внутренние WAV-операции
44.100 Гц; 16 бит; стерео
Другие параметры:
Заполнение пропущенных сэмплов тишиной : Да
Удаление блоков с тишиной в начале и конце : Нет
Установленный внешний ASPI-интерфейс
Характеристики диапазона извлечения и сообщения об ошибках
Выбранный диапазон
Имя файла D:\RELEASE\Various Artists - All Stars Disco Disc 10\Various - All Stars Disco 10.wav
Пиковый уровень 99.8 %
Качество диапазона 100.0 %
CRC 1B6C4200
Копирование... OK
Ошибок не произошло
Конец отчёта
DISC 11
 Отчёт EAC об извлечении, выполненном 26. марта 2008, 19:12 для диска:
Various Artists / All Stars Disco Disc 11
Дисковод: TEAC DV-W516GB Adapter: 0 ID: 2
Режим чтения: Достоверный (C2: нет, Точный поток: да, Отключение кэша: да)
Коррекция смещения при чтении: 12
Способность читать области Lead-in и Lead-out : Нет
Выходной формат: Внутренние WAV-операции
44.100 Гц; 16 бит; стерео
Другие параметры:
Заполнение пропущенных сэмплов тишиной : Да
Удаление блоков с тишиной в начале и конце : Нет
Установленный внешний ASPI-интерфейс
Характеристики диапазона извлечения и сообщения об ошибках
Выбранный диапазон
Имя файла D:\RELEASE\Various Artists - All Stars Disco Disc 11\Various Artists - All Stars Disco Disc 11.wav
Пиковый уровень 100.0 %
Качество диапазона 99.9 %
CRC 6598A9F8
Копирование... OK
Ошибок не произошло
Конец отчёта
DISC 12
 Отчёт EAC об извлечении, выполненном 30. марта 2008, 19:09 для диска:
All Stars Disco / CD12
Дисковод: TEAC DV-W516GB Adapter: 0 ID: 2
Режим чтения: Достоверный (C2: нет, Точный поток: да, Отключение кэша: да)
Коррекция смещения при чтении: 12
Способность читать области Lead-in и Lead-out : Нет
Выходной формат: Внутренние WAV-операции
44.100 Гц; 16 бит; стерео
Другие параметры:
Заполнение пропущенных сэмплов тишиной : Да
Удаление блоков с тишиной в начале и конце : Нет
Установленный внешний ASPI-интерфейс
Характеристики диапазона извлечения и сообщения об ошибках
Выбранный диапазон
Имя файла D:\RELEASE\Various Artists - All Stars Disco Disc 12\All Stars Disco - CD12.wav
Пиковый уровень 100.0 %
Качество диапазона 99.9 %
CRC 12DA0704
Копирование... OK
Ошибок не произошло
Конец отчёта
DISC 13
 Exact Audio Copy V0.99 prebeta 5 from 4. May 2009
Отчёт EAC об извлечении, выполненном 12. августа 2009, 21:50
All Stars Disco / CD13
Дисковод: LITE-ON DVDRW LH-16A1S Adapter: 2 ID: 2
Режим чтения : Достоверность
Использование точного потока : Да
Отключение кэша аудио : Да
Использование указателей C2 : Нет
Коррекция смещения при чтении : 6
Способность читать области Lead-in и Lead-out : Нет
Заполнение пропущенных сэмплов тишиной : Да
Удаление блоков с тишиной в начале и конце : Нет
При вычислениях CRC использовались нулевые сэмплы : Да
Интерфейс : Установленный внешний ASPI-интерфейс
Выходной формат : Внутренние WAV-операции
Формат сэмплов : 44.100 Гц; 16 бит; стерео
TOC извлечённого CD
Трек | Старт | Длительность | Начальный сектор | Конечный сектор
---------------------------------------------------------------------
1 | 0:00.00 | 3:25.30 | 0 | 15404
2 | 3:25.30 | 3:27.70 | 15405 | 30999
3 | 6:53.25 | 4:32.50 | 31000 | 51449
4 | 11:26.00 | 2:45.05 | 51450 | 63829
5 | 14:11.05 | 3:23.00 | 63830 | 79054
6 | 17:34.05 | 2:54.55 | 79055 | 92159
7 | 20:28.60 | 5:35.35 | 92160 | 117319
8 | 26:04.20 | 3:36.05 | 117320 | 133524
9 | 29:40.25 | 3:31.40 | 133525 | 149389
10 | 33:11.65 | 3:10.20 | 149390 | 163659
11 | 36:22.10 | 4:50.45 | 163660 | 185454
12 | 41:12.55 | 3:52.10 | 185455 | 202864
13 | 45:04.65 | 6:10.60 | 202865 | 230674
14 | 51:15.50 | 3:41.15 | 230675 | 247264
15 | 54:56.65 | 3:50.00 | 247265 | 264514
16 | 58:46.65 | 3:15.60 | 264515 | 279199
17 | 62:02.50 | 3:48.60 | 279200 | 296359
18 | 65:51.35 | 3:51.70 | 296360 | 313754
19 | 69:43.30 | 4:14.40 | 313755 | 332844
Характеристики диапазона извлечения и сообщения об ошибках
Выбранный диапазон
Имя файла C:\Program Files\Wainakh Corporation\Easy CD-DA Extractor\Various - All Stars Disco13.wav
Пиковый уровень 100.0 %
Качество диапазона 100.0 %
CRC копии 97CD7495
Копирование... OK
Ошибок не произошло
Конец отчёта
DISC 14
 Exact Audio Copy V0.99 prebeta 5 from 4. May 2009
Отчёт EAC об извлечении, выполненном 12. августа 2009, 22:36
All Stars Disco / CD14
Дисковод: LITE-ON DVDRW LH-16A1S Adapter: 2 ID: 2
Режим чтения : Достоверность
Использование точного потока : Да
Отключение кэша аудио : Да
Использование указателей C2 : Нет
Коррекция смещения при чтении : 6
Способность читать области Lead-in и Lead-out : Нет
Заполнение пропущенных сэмплов тишиной : Да
Удаление блоков с тишиной в начале и конце : Нет
При вычислениях CRC использовались нулевые сэмплы : Да
Интерфейс : Установленный внешний ASPI-интерфейс
Выходной формат : Внутренние WAV-операции
Формат сэмплов : 44.100 Гц; 16 бит; стерео
TOC извлечённого CD
Трек | Старт | Длительность | Начальный сектор | Конечный сектор
---------------------------------------------------------------------
1 | 0:00.00 | 3:59.62 | 0 | 17986
2 | 3:59.62 | 4:03.48 | 17987 | 36259
3 | 8:03.35 | 3:18.05 | 36260 | 51114
4 | 11:21.40 | 4:31.37 | 51115 | 71476
5 | 15:53.02 | 3:55.38 | 71477 | 89139
6 | 19:48.40 | 3:47.47 | 89140 | 106211
7 | 23:36.12 | 3:50.00 | 106212 | 123461
8 | 27:26.12 | 5:56.55 | 123462 | 150216
9 | 33:22.67 | 3:27.33 | 150217 | 165774
10 | 36:50.25 | 3:52.32 | 165775 | 183206
11 | 40:42.57 | 3:42.63 | 183207 | 199919
12 | 44:25.45 | 6:01.25 | 199920 | 227019
13 | 50:26.70 | 3:57.32 | 227020 | 244826
14 | 54:24.27 | 3:44.45 | 244827 | 261671
15 | 58:08.72 | 3:36.20 | 261672 | 277891
16 | 61:45.17 | 4:12.15 | 277892 | 296806
17 | 65:57.32 | 4:12.25 | 296807 | 315731
18 | 70:09.57 | 3:52.48 | 315732 | 333179
Характеристики диапазона извлечения и сообщения об ошибках
Выбранный диапазон
Имя файла C:\Program Files\Wainakh Corporation\Easy CD-DA Extractor\All Stars Disco - CD14.wav
Пиковый уровень 98.8 %
Качество диапазона 100.0 %
CRC копии ECBC6E9F
Копирование... OK
Ошибок не произошло
Конец отчёта
DISC 15
 Exact Audio Copy V0.99 prebeta 4 from 23. January 2008
Отчёт EAC об извлечении, выполненном 2. марта 2009, 8:23
Various / All Stars Disco CD15
Дисковод: Optiarc DVD RW AD-7173A Adapter: 3 ID: 0
Режим чтения : Достоверность
Использование точного потока : Да
Отключение кэша аудио : Да
Использование указателей C2 : Нет
Коррекция смещения при чтении : 48
Способность читать области Lead-in и Lead-out : Нет
Заполнение пропущенных сэмплов тишиной : Да
Удаление блоков с тишиной в начале и конце : Нет
При вычислениях CRC использовались нулевые сэмплы : Да
Интерфейс : Встроенный Win32-интерфейс для Win NT/2000
Выходной формат : Monkey's Audio Lossless Encoder v3.99 DLL
Формат сэмплов : Fast Lossless Compression
Смещение при сжатии : 0
TOC извлечённого CD
Трек | Старт | Длительность | Начальный сектор | Конечный сектор
---------------------------------------------------------------------
1 | 0:00.00 | 4:03.35 | 0 | 18259
2 | 4:03.35 | 3:37.70 | 18260 | 34604
3 | 7:41.30 | 2:44.45 | 34605 | 46949
4 | 10:26.00 | 3:54.20 | 46950 | 64519
5 | 14:20.20 | 4:19.35 | 64520 | 83979
6 | 18:39.55 | 3:03.05 | 83980 | 97709
7 | 21:42.60 | 4:49.40 | 97710 | 119424
8 | 26:32.25 | 4:35.30 | 119425 | 140079
9 | 31:07.55 | 2:36.00 | 140080 | 151779
10 | 33:43.55 | 2:19.30 | 151780 | 162234
11 | 36:03.10 | 6:17.35 | 162235 | 190544
12 | 42:20.45 | 4:50.65 | 190545 | 212359
13 | 47:11.35 | 1:57.40 | 212360 | 221174
14 | 49:09.00 | 3:56.15 | 221175 | 238889
15 | 53:05.15 | 2:12.35 | 238890 | 248824
16 | 55:17.50 | 3:46.15 | 248825 | 265789
17 | 59:03.65 | 5:34.05 | 265790 | 290844
18 | 64:37.70 | 3:30.15 | 290845 | 306609
Характеристики диапазона извлечения и сообщения об ошибках
Выбранный диапазон
Имя файла D:\Мои документы\Downloads\All Stars Disco_15_16\Various - All Stars Disco CD15.ape
Пиковый уровень 100.0 %
Качество диапазона 100.0 %
CRC копии F079975B
Копирование... OK
Ошибок не произошло
Конец отчёта
DISC 16
 Exact Audio Copy V0.99 prebeta 4 from 23. January 2008
Отчёт EAC об извлечении, выполненном 2. марта 2009, 8:51
Various / All Stars Disco CD16
Дисковод: Optiarc DVD RW AD-7173A Adapter: 3 ID: 0
Режим чтения : Достоверность
Использование точного потока : Да
Отключение кэша аудио : Да
Использование указателей C2 : Нет
Коррекция смещения при чтении : 48
Способность читать области Lead-in и Lead-out : Нет
Заполнение пропущенных сэмплов тишиной : Да
Удаление блоков с тишиной в начале и конце : Нет
При вычислениях CRC использовались нулевые сэмплы : Да
Интерфейс : Встроенный Win32-интерфейс для Win NT/2000
Выходной формат : Monkey's Audio Lossless Encoder v3.99 DLL
Формат сэмплов : Fast Lossless Compression
Смещение при сжатии : 0
TOC извлечённого CD
Трек | Старт | Длительность | Начальный сектор | Конечный сектор
---------------------------------------------------------------------
1 | 0:00.00 | 4:22.00 | 0 | 19649
2 | 4:22.00 | 5:55.47 | 19650 | 46321
3 | 10:17.47 | 3:47.45 | 46322 | 63391
4 | 14:05.17 | 4:02.03 | 63392 | 81544
5 | 18:07.20 | 4:01.60 | 81545 | 99679
6 | 22:09.05 | 2:53.55 | 99680 | 112709
7 | 25:02.60 | 3:57.32 | 112710 | 130516
8 | 29:00.17 | 3:33.00 | 130517 | 146491
9 | 32:33.17 | 6:41.48 | 146492 | 176614
10 | 39:14.65 | 3:00.60 | 176615 | 190174
11 | 42:15.50 | 4:02.35 | 190175 | 208359
12 | 46:18.10 | 3:21.27 | 208360 | 223461
13 | 49:39.37 | 4:27.48 | 223462 | 243534
14 | 54:07.10 | 3:53.10 | 243535 | 261019
15 | 58:00.20 | 4:38.10 | 261020 | 281879
16 | 62:38.30 | 4:12.02 | 281880 | 300781
Характеристики диапазона извлечения и сообщения об ошибках
Выбранный диапазон
Имя файла D:\Мои документы\Downloads\All Stars Disco_15_16\Various - All Stars Disco CD16.ape
Пиковый уровень 100.0 %
Качество диапазона 100.0 %
CRC копии 8660E7F0
Копирование... OK
Ошибок не произошло
Конец отчёта
DISC 17
 Отчёт EAC об извлечении, выполненном 30. марта 2008, 20:09 для диска:
Various Artists / All Stars Disco CD17
Дисковод: TEAC DV-W516GB Adapter: 0 ID: 2
Режим чтения: Достоверный (C2: нет, Точный поток: да, Отключение кэша: да)
Коррекция смещения при чтении: 12
Способность читать области Lead-in и Lead-out : Нет
Выходной формат: Внутренние WAV-операции
44.100 Гц; 16 бит; стерео
Другие параметры:
Заполнение пропущенных сэмплов тишиной : Да
Удаление блоков с тишиной в начале и конце : Нет
Установленный внешний ASPI-интерфейс
Характеристики диапазона извлечения и сообщения об ошибках
Выбранный диапазон
Имя файла D:\RELEASE\Various Artists - All Stars Disco Disc 17\Various Artists - All Stars Disco CD17.wav
Пиковый уровень 97.9 %
Качество диапазона 100.0 %
CRC 3B285446
Копирование... OK
Ошибок не произошло
Конец отчёта
DISC 18
 Отчёт EAC об извлечении, выполненном 30. марта 2008, 20:32 для диска:
Various Artists / All Stars Disco CD18
Дисковод: TEAC DV-W516GB Adapter: 0 ID: 2
Режим чтения: Достоверный (C2: нет, Точный поток: да, Отключение кэша: да)
Коррекция смещения при чтении: 12
Способность читать области Lead-in и Lead-out : Нет
Выходной формат: Внутренние WAV-операции
44.100 Гц; 16 бит; стерео
Другие параметры:
Заполнение пропущенных сэмплов тишиной : Да
Удаление блоков с тишиной в начале и конце : Нет
Установленный внешний ASPI-интерфейс
Характеристики диапазона извлечения и сообщения об ошибках
Выбранный диапазон
Имя файла D:\RELEASE\Various Artists - All Stars Disco Disc 18\Various Artists - All Stars Disco CD18.wav
Пиковый уровень 100.0 %
Качество диапазона 99.9 %
CRC EC7E5B02
Копирование... OK
Ошибок не произошло
Конец отчёта
DISC 19
 Exact Audio Copy V0.99 prebeta 4 from 23. January 2008
Отчёт EAC об извлечении, выполненном 15. января 2009, 10:04
Various Artists / All Stars Disco - CD19
Дисковод: Optiarc DVD RW AD-7630A Adapter: 1 ID: 0
Режим чтения : Достоверность
Использование точного потока : Да
Отключение кэша аудио : Да
Использование указателей C2 : Нет
Коррекция смещения при чтении : 48
Способность читать области Lead-in и Lead-out : Да
Заполнение пропущенных сэмплов тишиной : Да
Удаление блоков с тишиной в начале и конце : Нет
При вычислениях CRC использовались нулевые сэмплы : Нет
Интерфейс : Встроенный Win32-интерфейс для Win NT/2000
Выходной формат : Внутренние WAV-операции
Формат сэмплов : 44.100 Гц; 16 бит; стерео
TOC извлечённого CD
Трек | Старт | Длительность | Начальный сектор | Конечный сектор
---------------------------------------------------------------------
1 | 0:00.00 | 3:42.27 | 0 | 16676
2 | 3:42.27 | 3:59.48 | 16677 | 34649
3 | 7:42.00 | 3:23.65 | 34650 | 49939
4 | 11:05.65 | 4:11.30 | 49940 | 68794
5 | 15:17.20 | 3:36.72 | 68795 | 85066
6 | 18:54.17 | 3:13.68 | 85067 | 99609
7 | 22:08.10 | 5:04.22 | 99610 | 122431
8 | 27:12.32 | 6:01.73 | 122432 | 149579
9 | 33:14.30 | 3:57.67 | 149580 | 167421
10 | 37:12.22 | 4:54.35 | 167422 | 189506
11 | 42:06.57 | 3:15.55 | 189507 | 204186
12 | 45:22.37 | 4:06.03 | 204187 | 222639
13 | 49:28.40 | 3:04.32 | 222640 | 236471
14 | 52:32.72 | 6:21.73 | 236472 | 265119
15 | 58:54.70 | 2:28.05 | 265120 | 276224
16 | 61:23.00 | 5:51.50 | 276225 | 302599
Характеристики диапазона извлечения и сообщения об ошибках
Выбранный диапазон
Имя файла G:\Downloads\TORRENTS\Мои закачки\All Stars Disco 19&20\диск 19\Various Artists - All Stars Disco - CD19.wav
Пиковый уровень 92.8 %
Качество диапазона 99.7 %
CRC копии 327F8BA0
Копирование... OK
Ошибок не произошло
Конец отчёта
DISC 20
 Exact Audio Copy V0.99 prebeta 4 from 23. January 2008
Отчёт EAC об извлечении, выполненном 15. января 2009, 11:05
Various Artists / All Stars Disco - CD20
Дисковод: Optiarc DVD RW AD-7630A Adapter: 1 ID: 0
Режим чтения : Достоверность
Использование точного потока : Да
Отключение кэша аудио : Да
Использование указателей C2 : Нет
Коррекция смещения при чтении : 48
Способность читать области Lead-in и Lead-out : Да
Заполнение пропущенных сэмплов тишиной : Да
Удаление блоков с тишиной в начале и конце : Нет
При вычислениях CRC использовались нулевые сэмплы : Нет
Интерфейс : Встроенный Win32-интерфейс для Win NT/2000
Выходной формат : Внутренние WAV-операции
Формат сэмплов : 44.100 Гц; 16 бит; стерео
TOC извлечённого CD
Трек | Старт | Длительность | Начальный сектор | Конечный сектор
---------------------------------------------------------------------
1 | 0:00.00 | 5:14.40 | 0 | 23589
2 | 5:14.40 | 4:10.32 | 23590 | 42371
3 | 9:24.72 | 3:17.65 | 42372 | 57211
4 | 12:42.62 | 5:47.68 | 57212 | 83304
5 | 18:30.55 | 5:25.10 | 83305 | 107689
6 | 23:55.65 | 5:03.42 | 107690 | 130456
7 | 28:59.32 | 3:53.40 | 130457 | 147971
8 | 32:52.72 | 3:55.68 | 147972 | 165664
9 | 36:48.65 | 3:37.70 | 165665 | 182009
10 | 40:26.60 | 2:09.25 | 182010 | 191709
11 | 42:36.10 | 6:06.10 | 191710 | 219169
12 | 48:42.20 | 4:51.42 | 219170 | 241036
13 | 53:33.62 | 4:38.28 | 241037 | 261914
14 | 58:12.15 | 3:17.62 | 261915 | 276751
15 | 61:30.02 | 3:04.08 | 276752 | 290559
16 | 64:34.10 | 6:01.65 | 290560 | 317699
Характеристики диапазона извлечения и сообщения об ошибках
Выбранный диапазон
Имя файла G:\Downloads\TORRENTS\Мои закачки\All Stars Disco 19&20\диск 20\Various Artists - All Stars Disco - CD20.wav
Пиковый уровень 93.2 %
Качество диапазона 99.7 %
CRC копии 7838F613
Копирование... OK
Ошибок не произошло
Конец отчёта
DISC 21
 Exact Audio Copy V1.0 beta 3 from 29. August 2011
EAC extraction logfile from 12. December 2011, 19:35
VA / All Stars Disco vol.21
Used drive : ASUS DRW-24B1LT Adapter: 1 ID: 0
Read mode : Secure
Utilize accurate stream : Yes
Defeat audio cache : Yes
Make use of C2 pointers : No
Read offset correction : 6
Overread into Lead-In and Lead-Out : No
Fill up missing offset samples with silence : Yes
Delete leading and trailing silent blocks : No
Null samples used in CRC calculations : Yes
Used interface : Native Win32 interface for Win NT & 2000
Used output format : Internal WAV Routines
Sample format : 44.100 Hz; 16 Bit; Stereo
TOC of the extracted CD
Track | Start | Length | Start sector | End sector
---------------------------------------------------------
1 | 0:00.00 | 4:09.54 | 0 | 18728
2 | 4:09.54 | 3:54.65 | 18729 | 36343
3 | 8:04.44 | 5:14.44 | 36344 | 59937
4 | 13:19.13 | 4:24.25 | 59938 | 79762
5 | 17:43.38 | 5:19.40 | 79763 | 103727
6 | 23:03.03 | 3:49.11 | 103728 | 120913
7 | 26:52.14 | 4:47.70 | 120914 | 142508
8 | 31:40.09 | 3:54.14 | 142509 | 160072
9 | 35:34.23 | 5:27.36 | 160073 | 184633
10 | 41:01.59 | 3:18.30 | 184634 | 199513
11 | 44:20.14 | 3:07.51 | 199514 | 213589
12 | 47:27.65 | 4:21.61 | 213590 | 233225
13 | 51:49.51 | 4:15.05 | 233226 | 252355
14 | 56:04.56 | 3:45.44 | 252356 | 269274
15 | 59:50.25 | 2:55.15 | 269275 | 282414
16 | 62:45.40 | 6:11.00 | 282415 | 310239
17 | 68:56.40 | 3:35.00 | 310240 | 326364
Range status and errors
Selected range
Filename G:\VA - All Stars Disco vol.21.wav
Peak level 100.0 %
Extraction speed 3.3 X
Range quality 99.9 %
Test CRC 76AF34D5
Copy CRC 76AF34D5
Copy OK
No errors occurred
AccurateRip summary
Track 1 not present in database
Track 2 not present in database
Track 3 not present in database
Track 4 not present in database
Track 5 not present in database
Track 6 not present in database
Track 7 not present in database
Track 8 not present in database
Track 9 not present in database
Track 10 not present in database
Track 11 not present in database
Track 12 not present in database
Track 13 not present in database
Track 14 not present in database
Track 15 not present in database
Track 16 not present in database
Track 17 not present in database
None of the tracks are present in the AccurateRip database
End of status report
==== Log checksum FEF1D1DFFA9AE18425093B2F27CAD218A8CFEB67B5CEB2D4D7586B15CFBEB992 ====
DISC 22
 Exact Audio Copy V1.0 beta 3 from 29. August 2011
EAC extraction logfile from 12. December 2011, 20:17
VA / All Stars Disco vol.22
Used drive : ASUS DRW-24B1LT Adapter: 1 ID: 0
Read mode : Secure
Utilize accurate stream : Yes
Defeat audio cache : Yes
Make use of C2 pointers : No
Read offset correction : 6
Overread into Lead-In and Lead-Out : No
Fill up missing offset samples with silence : Yes
Delete leading and trailing silent blocks : No
Null samples used in CRC calculations : Yes
Used interface : Native Win32 interface for Win NT & 2000
Used output format : Internal WAV Routines
Sample format : 44.100 Hz; 16 Bit; Stereo
TOC of the extracted CD
Track | Start | Length | Start sector | End sector
---------------------------------------------------------
1 | 0:00.00 | 4:12.15 | 0 | 18914
2 | 4:12.15 | 3:40.12 | 18915 | 35426
3 | 7:52.27 | 3:43.57 | 35427 | 52208
4 | 11:36.09 | 3:37.07 | 52209 | 68490
5 | 15:13.16 | 3:31.39 | 68491 | 84354
6 | 18:44.55 | 3:28.32 | 84355 | 99986
7 | 22:13.12 | 3:41.12 | 99987 | 116573
8 | 25:54.24 | 3:59.28 | 116574 | 134526
9 | 29:53.52 | 3:30.43 | 134527 | 150319
10 | 33:24.20 | 4:19.28 | 150320 | 169772
11 | 37:43.48 | 4:23.56 | 169773 | 189553
12 | 42:07.29 | 2:58.30 | 189554 | 202933
13 | 45:05.59 | 4:00.42 | 202934 | 220975
14 | 49:06.26 | 5:50.25 | 220976 | 247250
15 | 54:56.51 | 3:32.00 | 247251 | 263150
16 | 58:28.51 | 3:51.13 | 263151 | 280488
17 | 62:19.64 | 3:41.07 | 280489 | 297070
18 | 66:00.71 | 3:25.00 | 297071 | 312445
Range status and errors
Selected range
Filename G:\ASD\VA - All Stars Disco vol.22.wav
Peak level 100.0 %
Extraction speed 3.2 X
Range quality 99.9 %
Test CRC 5FD2F640
Copy CRC 5FD2F640
Copy OK
No errors occurred
AccurateRip summary
Track 1 not present in database
Track 2 not present in database
Track 3 not present in database
Track 4 not present in database
Track 5 not present in database
Track 6 not present in database
Track 7 not present in database
Track 8 not present in database
Track 9 not present in database
Track 10 not present in database
Track 11 not present in database
Track 12 not present in database
Track 13 not present in database
Track 14 not present in database
Track 15 not present in database
Track 16 not present in database
Track 17 not present in database
Track 18 not present in database
None of the tracks are present in the AccurateRip database
End of status report
==== Log checksum EB526178E84AFFE6CC20560C76C7AE18DDD2571770E82E76CAF42558F7431747 ====
------------------------------------------------------------
Exact Audio Copy V1.0 beta 3 from 29. August 2011
EAC extraction logfile from 12. December 2011, 20:17
VA / All Stars Disco vol.22
Used drive : ASUS DRW-24B1LT Adapter: 1 ID: 0
Read mode : Secure
Utilize accurate stream : Yes
Defeat audio cache : Yes
Make use of C2 pointers : No
Read offset correction : 6
Overread into Lead-In and Lead-Out : No
Fill up missing offset samples with silence : Yes
Delete leading and trailing silent blocks : No
Null samples used in CRC calculations : Yes
Used interface : Native Win32 interface for Win NT & 2000
Used output format : Internal WAV Routines
Sample format : 44.100 Hz; 16 Bit; Stereo
TOC of the extracted CD
Track | Start | Length | Start sector | End sector
---------------------------------------------------------
1 | 0:00.00 | 4:12.15 | 0 | 18914
2 | 4:12.15 | 3:40.12 | 18915 | 35426
3 | 7:52.27 | 3:43.57 | 35427 | 52208
4 | 11:36.09 | 3:37.07 | 52209 | 68490
5 | 15:13.16 | 3:31.39 | 68491 | 84354
6 | 18:44.55 | 3:28.32 | 84355 | 99986
7 | 22:13.12 | 3:41.12 | 99987 | 116573
8 | 25:54.24 | 3:59.28 | 116574 | 134526
9 | 29:53.52 | 3:30.43 | 134527 | 150319
10 | 33:24.20 | 4:19.28 | 150320 | 169772
11 | 37:43.48 | 4:23.56 | 169773 | 189553
12 | 42:07.29 | 2:58.30 | 189554 | 202933
13 | 45:05.59 | 4:00.42 | 202934 | 220975
14 | 49:06.26 | 5:50.25 | 220976 | 247250
15 | 54:56.51 | 3:32.00 | 247251 | 263150
16 | 58:28.51 | 3:51.13 | 263151 | 280488
17 | 62:19.64 | 3:41.07 | 280489 | 297070
18 | 66:00.71 | 3:25.00 | 297071 | 312445
Range status and errors
Selected range
Filename G:\ASD\VA - All Stars Disco vol.22.wav
Peak level 100.0 %
Extraction speed 3.2 X
Range quality 99.9 %
Test CRC 5FD2F640
Copy CRC 5FD2F640
Copy OK
No errors occurred
AccurateRip summary
Track 1 not present in database
Track 2 not present in database
Track 3 not present in database
Track 4 not present in database
Track 5 not present in database
Track 6 not present in database
Track 7 not present in database
Track 8 not present in database
Track 9 not present in database
Track 10 not present in database
Track 11 not present in database
Track 12 not present in database
Track 13 not present in database
Track 14 not present in database
Track 15 not present in database
Track 16 not present in database
Track 17 not present in database
Track 18 not present in database
None of the tracks are present in the AccurateRip database
End of status report
==== Log checksum EB526178E84AFFE6CC20560C76C7AE18DDD2571770E82E76CAF42558F7431747 ====
 Отчёт EAC об извлечении, выполненном 26. марта 2008, 20:41 для диска:
Various / All Stars Disco 1
Дисковод: TEAC DV-W516GB Adapter: 0 ID: 2
Режим чтения: Достоверный (C2: нет, Точный поток: да, Отключение кэша: да)
Коррекция смещения при чтении: 12
Способность читать области Lead-in и Lead-out : Нет
Выходной формат: Внутренние WAV-операции
44.100 Гц; 16 бит; стерео
Другие параметры:
Заполнение пропущенных сэмплов тишиной : Да
Удаление блоков с тишиной в начале и конце : Нет
Установленный внешний ASPI-интерфейс
Характеристики диапазона извлечения и сообщения об ошибках
Выбранный диапазон
Имя файла D:\RELEASE\Various Artists - All Stars Disco Disc 01\Various - All Stars Disco 1.wav
Пиковый уровень 88.8 %
Качество диапазона 100.0 %
CRC 4E5FBE2B
Копирование... OK
Ошибок не произошло
Конец отчёта
 Отчёт EAC об извлечении, выполненном 26. марта 2008, 23:35 для диска:
Various / All Stars Disco 2
Дисковод: TEAC DV-W516GB Adapter: 0 ID: 2
Режим чтения: Достоверный (C2: нет, Точный поток: да, Отключение кэша: да)
Коррекция смещения при чтении: 12
Способность читать области Lead-in и Lead-out : Нет
Выходной формат: Внутренние WAV-операции
44.100 Гц; 16 бит; стерео
Другие параметры:
Заполнение пропущенных сэмплов тишиной : Да
Удаление блоков с тишиной в начале и конце : Нет
Установленный внешний ASPI-интерфейс
Характеристики диапазона извлечения и сообщения об ошибках
Выбранный диапазон
Имя файла D:\RELEASE\Various Artists - All Stars Disco Disc 02\Various - All Stars Disco 2.wav
Пиковый уровень 94.7 %
Качество диапазона 100.0 %
CRC 308ED664
Копирование... OK
Ошибок не произошло
Конец отчёта
 Отчёт EAC об извлечении, выполненном 27. марта 2008, 9:07 для диска:
Various Artists / All Stars Disco CD3
Дисковод: TEAC DV-W516GB Adapter: 0 ID: 2
Режим чтения: Достоверный (C2: нет, Точный поток: да, Отключение кэша: да)
Коррекция смещения при чтении: 12
Способность читать области Lead-in и Lead-out : Нет
Выходной формат: Внутренние WAV-операции
44.100 Гц; 16 бит; стерео
Другие параметры:
Заполнение пропущенных сэмплов тишиной : Да
Удаление блоков с тишиной в начале и конце : Нет
Установленный внешний ASPI-интерфейс
Характеристики диапазона извлечения и сообщения об ошибках
Выбранный диапазон
Имя файла D:\RELEASE\Various Artists - All Stars Disco Disc 03\Various Artists - All Stars Disco CD3.wav
Пиковый уровень 97.9 %
Качество диапазона 99.9 %
CRC 0EE8ABDD
Копирование... OK
Ошибок не произошло
Конец отчёта
 Отчёт EAC об извлечении, выполненном 28. марта 2008, 1:17 для диска:
All Stars Disco / CD4
Дисковод: TEAC DV-W516GB Adapter: 0 ID: 2
Режим чтения: Достоверный (C2: нет, Точный поток: да, Отключение кэша: да)
Коррекция смещения при чтении: 12
Способность читать области Lead-in и Lead-out : Нет
Выходной формат: Внутренние WAV-операции
44.100 Гц; 16 бит; стерео
Другие параметры:
Заполнение пропущенных сэмплов тишиной : Да
Удаление блоков с тишиной в начале и конце : Нет
Установленный внешний ASPI-интерфейс
Характеристики диапазона извлечения и сообщения об ошибках
Выбранный диапазон
Имя файла D:\RELEASE\Various Artists - All Stars Disco Disc 04\All Stars Disco - CD4.wav
Пиковый уровень 95.0 %
Качество диапазона 100.0 %
CRC C57EE235
Копирование... OK
Ошибок не произошло
Конец отчёта
 Отчёт EAC об извлечении, выполненном 28. марта 2008, 2:09 для диска:
Various / All Stars Disco 5
Дисковод: TEAC DV-W516GB Adapter: 0 ID: 2
Режим чтения: Достоверный (C2: нет, Точный поток: да, Отключение кэша: да)
Коррекция смещения при чтении: 12
Способность читать области Lead-in и Lead-out : Нет
Выходной формат: Внутренние WAV-операции
44.100 Гц; 16 бит; стерео
Другие параметры:
Заполнение пропущенных сэмплов тишиной : Да
Удаление блоков с тишиной в начале и конце : Нет
Установленный внешний ASPI-интерфейс
Характеристики диапазона извлечения и сообщения об ошибках
Выбранный диапазон
Имя файла D:\RELEASE\Various Artists - All Stars Disco Disc 05\Various - All Stars Disco 5.wav
Пиковый уровень 99.7 %
Качество диапазона 100.0 %
CRC 0A8F0C05
Копирование... OK
Ошибок не произошло
Конец отчёта
 Отчёт EAC об извлечении, выполненном 28. марта 2008, 11:17 для диска:
Various Artists / All Stars Disco 6
Дисковод: TEAC DV-W516GB Adapter: 0 ID: 2
Режим чтения: Достоверный (C2: нет, Точный поток: да, Отключение кэша: да)
Коррекция смещения при чтении: 12
Способность читать области Lead-in и Lead-out : Нет
Выходной формат: Внутренние WAV-операции
44.100 Гц; 16 бит; стерео
Другие параметры:
Заполнение пропущенных сэмплов тишиной : Да
Удаление блоков с тишиной в начале и конце : Нет
Установленный внешний ASPI-интерфейс
Характеристики диапазона извлечения и сообщения об ошибках
Выбранный диапазон
Имя файла D:\RELEASE\Various Artists - All Stars Disco Disc 06\Various Artists - All Stars Disco 6.wav
Пиковый уровень 91.6 %
Качество диапазона 100.0 %
CRC 30800D15
Копирование... OK
Ошибок не произошло
Конец отчёта
 Exact Audio Copy V0.99 prebeta 4 from 23. January 2008
Отчёт EAC об извлечении, выполненном 31. декабря 2008, 16:35
Various / All Stars Disco Disc 07
Дисковод: TEAC DV-W520GM Adapter: 4 ID: 2
Режим чтения : Достоверность
Использование точного потока : Да
Отключение кэша аудио : Да
Использование указателей C2 : Нет
Коррекция смещения при чтении : 6
Способность читать области Lead-in и Lead-out : Нет
Заполнение пропущенных сэмплов тишиной : Да
Удаление блоков с тишиной в начале и конце : Нет
При вычислениях CRC использовались нулевые сэмплы : Да
Интерфейс : Установленный внешний ASPI-интерфейс
Выходной формат : Внутренние WAV-операции
Формат сэмплов : 44.100 Гц; 16 бит; стерео
TOC извлечённого CD
Трек | Старт | Длительность | Начальный сектор | Конечный сектор
---------------------------------------------------------------------
1 | 0:01.00 | 4:16.57 | 75 | 19331
2 | 4:17.57 | 3:30.48 | 19332 | 35129
3 | 7:48.30 | 3:55.07 | 35130 | 52761
4 | 11:43.37 | 4:16.28 | 52762 | 71989
5 | 15:59.65 | 4:39.20 | 71990 | 92934
6 | 20:39.10 | 4:06.10 | 92935 | 111394
7 | 24:45.20 | 3:36.20 | 111395 | 127614
8 | 28:21.40 | 3:12.65 | 127615 | 142079
9 | 31:34.30 | 3:02.45 | 142080 | 155774
10 | 34:37.00 | 4:10.10 | 155775 | 174534
11 | 38:47.10 | 6:42.17 | 174535 | 204701
12 | 45:29.27 | 3:18.43 | 204702 | 219594
13 | 48:47.70 | 3:48.10 | 219595 | 236704
14 | 52:36.05 | 3:46.57 | 236705 | 253711
15 | 56:22.62 | 3:48.50 | 253712 | 270861
16 | 60:11.37 | 4:16.43 | 270862 | 290104
17 | 64:28.05 | 2:52.40 | 290105 | 303044
18 | 67:20.45 | 4:32.37 | 303045 | 323481
Характеристики диапазона извлечения и сообщения об ошибках
Выбранный диапазон
Имя файла F:\RELEASE\Various Artists - All Stars Disco Disc 07\Various - All Stars Disco Disc 07.wav
Пиковый уровень 100.0 %
Качество диапазона 99.7 %
CRC копии 2177E953
Копирование завершено
Ошибок не произошло
AccurateRip: сводка
Трек 1 нет в базе данных
Трек 2 нет в базе данных
Трек 3 нет в базе данных
Трек 4 нет в базе данных
Трек 5 нет в базе данных
Трек 6 нет в базе данных
Трек 7 нет в базе данных
Трек 8 нет в базе данных
Трек 9 нет в базе данных
Трек 10 нет в базе данных
Трек 11 нет в базе данных
Трек 12 нет в базе данных
Трек 13 нет в базе данных
Трек 14 нет в базе данных
Трек 15 нет в базе данных
Трек 16 нет в базе данных
Трек 17 нет в базе данных
Трек 18 нет в базе данных
Ни одного трека нет в базе AccurateRip
Конец отчёта
 Отчёт EAC об извлечении, выполненном 30. марта 2008, 15:42 для диска:
Various / All Stars Disco CD8
Дисковод: TEAC DV-W516GB Adapter: 0 ID: 2
Режим чтения: Достоверный (C2: нет, Точный поток: да, Отключение кэша: да)
Коррекция смещения при чтении: 12
Способность читать области Lead-in и Lead-out : Нет
Выходной формат: Внутренние WAV-операции
44.100 Гц; 16 бит; стерео
Другие параметры:
Заполнение пропущенных сэмплов тишиной : Да
Удаление блоков с тишиной в начале и конце : Нет
Установленный внешний ASPI-интерфейс
Характеристики диапазона извлечения и сообщения об ошибках
Выбранный диапазон
Имя файла D:\RELEASE\Various Artists - All Stars Disco Disc 08\Various - All Stars Disco CD8.wav
Пиковый уровень 94.9 %
Качество диапазона 100.0 %
CRC E1C4589C
Копирование... OK
Ошибок не произошло
Конец отчёта
 Отчёт EAC об извлечении, выполненном 30. марта 2008, 16:32 для диска:
Various / All Stars Disco 9
Дисковод: TEAC DV-W516GB Adapter: 0 ID: 2
Режим чтения: Достоверный (C2: нет, Точный поток: да, Отключение кэша: да)
Коррекция смещения при чтении: 12
Способность читать области Lead-in и Lead-out : Нет
Выходной формат: Внутренние WAV-операции
44.100 Гц; 16 бит; стерео
Другие параметры:
Заполнение пропущенных сэмплов тишиной : Да
Удаление блоков с тишиной в начале и конце : Нет
Установленный внешний ASPI-интерфейс
Характеристики диапазона извлечения и сообщения об ошибках
Выбранный диапазон
Имя файла D:\RELEASE\Various Artists - All Stars Disco Disc 09\Various - All Stars Disco 9.wav
Пиковый уровень 96.5 %
Качество диапазона 100.0 %
CRC 30F8EBB5
Копирование... OK
Ошибок не произошло
Конец отчёта
 Отчёт EAC об извлечении, выполненном 30. марта 2008, 17:35 для диска:
Various / All Stars Disco 10
Дисковод: TEAC DV-W516GB Adapter: 0 ID: 2
Режим чтения: Достоверный (C2: нет, Точный поток: да, Отключение кэша: да)
Коррекция смещения при чтении: 12
Способность читать области Lead-in и Lead-out : Нет
Выходной формат: Внутренние WAV-операции
44.100 Гц; 16 бит; стерео
Другие параметры:
Заполнение пропущенных сэмплов тишиной : Да
Удаление блоков с тишиной в начале и конце : Нет
Установленный внешний ASPI-интерфейс
Характеристики диапазона извлечения и сообщения об ошибках
Выбранный диапазон
Имя файла D:\RELEASE\Various Artists - All Stars Disco Disc 10\Various - All Stars Disco 10.wav
Пиковый уровень 99.8 %
Качество диапазона 100.0 %
CRC 1B6C4200
Копирование... OK
Ошибок не произошло
Конец отчёта
 Отчёт EAC об извлечении, выполненном 26. марта 2008, 19:12 для диска:
Various Artists / All Stars Disco Disc 11
Дисковод: TEAC DV-W516GB Adapter: 0 ID: 2
Режим чтения: Достоверный (C2: нет, Точный поток: да, Отключение кэша: да)
Коррекция смещения при чтении: 12
Способность читать области Lead-in и Lead-out : Нет
Выходной формат: Внутренние WAV-операции
44.100 Гц; 16 бит; стерео
Другие параметры:
Заполнение пропущенных сэмплов тишиной : Да
Удаление блоков с тишиной в начале и конце : Нет
Установленный внешний ASPI-интерфейс
Характеристики диапазона извлечения и сообщения об ошибках
Выбранный диапазон
Имя файла D:\RELEASE\Various Artists - All Stars Disco Disc 11\Various Artists - All Stars Disco Disc 11.wav
Пиковый уровень 100.0 %
Качество диапазона 99.9 %
CRC 6598A9F8
Копирование... OK
Ошибок не произошло
Конец отчёта
 Отчёт EAC об извлечении, выполненном 30. марта 2008, 19:09 для диска:
All Stars Disco / CD12
Дисковод: TEAC DV-W516GB Adapter: 0 ID: 2
Режим чтения: Достоверный (C2: нет, Точный поток: да, Отключение кэша: да)
Коррекция смещения при чтении: 12
Способность читать области Lead-in и Lead-out : Нет
Выходной формат: Внутренние WAV-операции
44.100 Гц; 16 бит; стерео
Другие параметры:
Заполнение пропущенных сэмплов тишиной : Да
Удаление блоков с тишиной в начале и конце : Нет
Установленный внешний ASPI-интерфейс
Характеристики диапазона извлечения и сообщения об ошибках
Выбранный диапазон
Имя файла D:\RELEASE\Various Artists - All Stars Disco Disc 12\All Stars Disco - CD12.wav
Пиковый уровень 100.0 %
Качество диапазона 99.9 %
CRC 12DA0704
Копирование... OK
Ошибок не произошло
Конец отчёта
 Exact Audio Copy V0.99 prebeta 5 from 4. May 2009
Отчёт EAC об извлечении, выполненном 12. августа 2009, 21:50
All Stars Disco / CD13
Дисковод: LITE-ON DVDRW LH-16A1S Adapter: 2 ID: 2
Режим чтения : Достоверность
Использование точного потока : Да
Отключение кэша аудио : Да
Использование указателей C2 : Нет
Коррекция смещения при чтении : 6
Способность читать области Lead-in и Lead-out : Нет
Заполнение пропущенных сэмплов тишиной : Да
Удаление блоков с тишиной в начале и конце : Нет
При вычислениях CRC использовались нулевые сэмплы : Да
Интерфейс : Установленный внешний ASPI-интерфейс
Выходной формат : Внутренние WAV-операции
Формат сэмплов : 44.100 Гц; 16 бит; стерео
TOC извлечённого CD
Трек | Старт | Длительность | Начальный сектор | Конечный сектор
---------------------------------------------------------------------
1 | 0:00.00 | 3:25.30 | 0 | 15404
2 | 3:25.30 | 3:27.70 | 15405 | 30999
3 | 6:53.25 | 4:32.50 | 31000 | 51449
4 | 11:26.00 | 2:45.05 | 51450 | 63829
5 | 14:11.05 | 3:23.00 | 63830 | 79054
6 | 17:34.05 | 2:54.55 | 79055 | 92159
7 | 20:28.60 | 5:35.35 | 92160 | 117319
8 | 26:04.20 | 3:36.05 | 117320 | 133524
9 | 29:40.25 | 3:31.40 | 133525 | 149389
10 | 33:11.65 | 3:10.20 | 149390 | 163659
11 | 36:22.10 | 4:50.45 | 163660 | 185454
12 | 41:12.55 | 3:52.10 | 185455 | 202864
13 | 45:04.65 | 6:10.60 | 202865 | 230674
14 | 51:15.50 | 3:41.15 | 230675 | 247264
15 | 54:56.65 | 3:50.00 | 247265 | 264514
16 | 58:46.65 | 3:15.60 | 264515 | 279199
17 | 62:02.50 | 3:48.60 | 279200 | 296359
18 | 65:51.35 | 3:51.70 | 296360 | 313754
19 | 69:43.30 | 4:14.40 | 313755 | 332844
Характеристики диапазона извлечения и сообщения об ошибках
Выбранный диапазон
Имя файла C:\Program Files\Wainakh Corporation\Easy CD-DA Extractor\Various - All Stars Disco13.wav
Пиковый уровень 100.0 %
Качество диапазона 100.0 %
CRC копии 97CD7495
Копирование... OK
Ошибок не произошло
Конец отчёта
 Exact Audio Copy V0.99 prebeta 5 from 4. May 2009
Отчёт EAC об извлечении, выполненном 12. августа 2009, 22:36
All Stars Disco / CD14
Дисковод: LITE-ON DVDRW LH-16A1S Adapter: 2 ID: 2
Режим чтения : Достоверность
Использование точного потока : Да
Отключение кэша аудио : Да
Использование указателей C2 : Нет
Коррекция смещения при чтении : 6
Способность читать области Lead-in и Lead-out : Нет
Заполнение пропущенных сэмплов тишиной : Да
Удаление блоков с тишиной в начале и конце : Нет
При вычислениях CRC использовались нулевые сэмплы : Да
Интерфейс : Установленный внешний ASPI-интерфейс
Выходной формат : Внутренние WAV-операции
Формат сэмплов : 44.100 Гц; 16 бит; стерео
TOC извлечённого CD
Трек | Старт | Длительность | Начальный сектор | Конечный сектор
---------------------------------------------------------------------
1 | 0:00.00 | 3:59.62 | 0 | 17986
2 | 3:59.62 | 4:03.48 | 17987 | 36259
3 | 8:03.35 | 3:18.05 | 36260 | 51114
4 | 11:21.40 | 4:31.37 | 51115 | 71476
5 | 15:53.02 | 3:55.38 | 71477 | 89139
6 | 19:48.40 | 3:47.47 | 89140 | 106211
7 | 23:36.12 | 3:50.00 | 106212 | 123461
8 | 27:26.12 | 5:56.55 | 123462 | 150216
9 | 33:22.67 | 3:27.33 | 150217 | 165774
10 | 36:50.25 | 3:52.32 | 165775 | 183206
11 | 40:42.57 | 3:42.63 | 183207 | 199919
12 | 44:25.45 | 6:01.25 | 199920 | 227019
13 | 50:26.70 | 3:57.32 | 227020 | 244826
14 | 54:24.27 | 3:44.45 | 244827 | 261671
15 | 58:08.72 | 3:36.20 | 261672 | 277891
16 | 61:45.17 | 4:12.15 | 277892 | 296806
17 | 65:57.32 | 4:12.25 | 296807 | 315731
18 | 70:09.57 | 3:52.48 | 315732 | 333179
Характеристики диапазона извлечения и сообщения об ошибках
Выбранный диапазон
Имя файла C:\Program Files\Wainakh Corporation\Easy CD-DA Extractor\All Stars Disco - CD14.wav
Пиковый уровень 98.8 %
Качество диапазона 100.0 %
CRC копии ECBC6E9F
Копирование... OK
Ошибок не произошло
Конец отчёта
 Exact Audio Copy V0.99 prebeta 4 from 23. January 2008
Отчёт EAC об извлечении, выполненном 2. марта 2009, 8:23
Various / All Stars Disco CD15
Дисковод: Optiarc DVD RW AD-7173A Adapter: 3 ID: 0
Режим чтения : Достоверность
Использование точного потока : Да
Отключение кэша аудио : Да
Использование указателей C2 : Нет
Коррекция смещения при чтении : 48
Способность читать области Lead-in и Lead-out : Нет
Заполнение пропущенных сэмплов тишиной : Да
Удаление блоков с тишиной в начале и конце : Нет
При вычислениях CRC использовались нулевые сэмплы : Да
Интерфейс : Встроенный Win32-интерфейс для Win NT/2000
Выходной формат : Monkey's Audio Lossless Encoder v3.99 DLL
Формат сэмплов : Fast Lossless Compression
Смещение при сжатии : 0
TOC извлечённого CD
Трек | Старт | Длительность | Начальный сектор | Конечный сектор
---------------------------------------------------------------------
1 | 0:00.00 | 4:03.35 | 0 | 18259
2 | 4:03.35 | 3:37.70 | 18260 | 34604
3 | 7:41.30 | 2:44.45 | 34605 | 46949
4 | 10:26.00 | 3:54.20 | 46950 | 64519
5 | 14:20.20 | 4:19.35 | 64520 | 83979
6 | 18:39.55 | 3:03.05 | 83980 | 97709
7 | 21:42.60 | 4:49.40 | 97710 | 119424
8 | 26:32.25 | 4:35.30 | 119425 | 140079
9 | 31:07.55 | 2:36.00 | 140080 | 151779
10 | 33:43.55 | 2:19.30 | 151780 | 162234
11 | 36:03.10 | 6:17.35 | 162235 | 190544
12 | 42:20.45 | 4:50.65 | 190545 | 212359
13 | 47:11.35 | 1:57.40 | 212360 | 221174
14 | 49:09.00 | 3:56.15 | 221175 | 238889
15 | 53:05.15 | 2:12.35 | 238890 | 248824
16 | 55:17.50 | 3:46.15 | 248825 | 265789
17 | 59:03.65 | 5:34.05 | 265790 | 290844
18 | 64:37.70 | 3:30.15 | 290845 | 306609
Характеристики диапазона извлечения и сообщения об ошибках
Выбранный диапазон
Имя файла D:\Мои документы\Downloads\All Stars Disco_15_16\Various - All Stars Disco CD15.ape
Пиковый уровень 100.0 %
Качество диапазона 100.0 %
CRC копии F079975B
Копирование... OK
Ошибок не произошло
Конец отчёта
 Exact Audio Copy V0.99 prebeta 4 from 23. January 2008
Отчёт EAC об извлечении, выполненном 2. марта 2009, 8:51
Various / All Stars Disco CD16
Дисковод: Optiarc DVD RW AD-7173A Adapter: 3 ID: 0
Режим чтения : Достоверность
Использование точного потока : Да
Отключение кэша аудио : Да
Использование указателей C2 : Нет
Коррекция смещения при чтении : 48
Способность читать области Lead-in и Lead-out : Нет
Заполнение пропущенных сэмплов тишиной : Да
Удаление блоков с тишиной в начале и конце : Нет
При вычислениях CRC использовались нулевые сэмплы : Да
Интерфейс : Встроенный Win32-интерфейс для Win NT/2000
Выходной формат : Monkey's Audio Lossless Encoder v3.99 DLL
Формат сэмплов : Fast Lossless Compression
Смещение при сжатии : 0
TOC извлечённого CD
Трек | Старт | Длительность | Начальный сектор | Конечный сектор
---------------------------------------------------------------------
1 | 0:00.00 | 4:22.00 | 0 | 19649
2 | 4:22.00 | 5:55.47 | 19650 | 46321
3 | 10:17.47 | 3:47.45 | 46322 | 63391
4 | 14:05.17 | 4:02.03 | 63392 | 81544
5 | 18:07.20 | 4:01.60 | 81545 | 99679
6 | 22:09.05 | 2:53.55 | 99680 | 112709
7 | 25:02.60 | 3:57.32 | 112710 | 130516
8 | 29:00.17 | 3:33.00 | 130517 | 146491
9 | 32:33.17 | 6:41.48 | 146492 | 176614
10 | 39:14.65 | 3:00.60 | 176615 | 190174
11 | 42:15.50 | 4:02.35 | 190175 | 208359
12 | 46:18.10 | 3:21.27 | 208360 | 223461
13 | 49:39.37 | 4:27.48 | 223462 | 243534
14 | 54:07.10 | 3:53.10 | 243535 | 261019
15 | 58:00.20 | 4:38.10 | 261020 | 281879
16 | 62:38.30 | 4:12.02 | 281880 | 300781
Характеристики диапазона извлечения и сообщения об ошибках
Выбранный диапазон
Имя файла D:\Мои документы\Downloads\All Stars Disco_15_16\Various - All Stars Disco CD16.ape
Пиковый уровень 100.0 %
Качество диапазона 100.0 %
CRC копии 8660E7F0
Копирование... OK
Ошибок не произошло
Конец отчёта
 Отчёт EAC об извлечении, выполненном 30. марта 2008, 20:09 для диска:
Various Artists / All Stars Disco CD17
Дисковод: TEAC DV-W516GB Adapter: 0 ID: 2
Режим чтения: Достоверный (C2: нет, Точный поток: да, Отключение кэша: да)
Коррекция смещения при чтении: 12
Способность читать области Lead-in и Lead-out : Нет
Выходной формат: Внутренние WAV-операции
44.100 Гц; 16 бит; стерео
Другие параметры:
Заполнение пропущенных сэмплов тишиной : Да
Удаление блоков с тишиной в начале и конце : Нет
Установленный внешний ASPI-интерфейс
Характеристики диапазона извлечения и сообщения об ошибках
Выбранный диапазон
Имя файла D:\RELEASE\Various Artists - All Stars Disco Disc 17\Various Artists - All Stars Disco CD17.wav
Пиковый уровень 97.9 %
Качество диапазона 100.0 %
CRC 3B285446
Копирование... OK
Ошибок не произошло
Конец отчёта
 Отчёт EAC об извлечении, выполненном 30. марта 2008, 20:32 для диска:
Various Artists / All Stars Disco CD18
Дисковод: TEAC DV-W516GB Adapter: 0 ID: 2
Режим чтения: Достоверный (C2: нет, Точный поток: да, Отключение кэша: да)
Коррекция смещения при чтении: 12
Способность читать области Lead-in и Lead-out : Нет
Выходной формат: Внутренние WAV-операции
44.100 Гц; 16 бит; стерео
Другие параметры:
Заполнение пропущенных сэмплов тишиной : Да
Удаление блоков с тишиной в начале и конце : Нет
Установленный внешний ASPI-интерфейс
Характеристики диапазона извлечения и сообщения об ошибках
Выбранный диапазон
Имя файла D:\RELEASE\Various Artists - All Stars Disco Disc 18\Various Artists - All Stars Disco CD18.wav
Пиковый уровень 100.0 %
Качество диапазона 99.9 %
CRC EC7E5B02
Копирование... OK
Ошибок не произошло
Конец отчёта
 Exact Audio Copy V0.99 prebeta 4 from 23. January 2008
Отчёт EAC об извлечении, выполненном 15. января 2009, 10:04
Various Artists / All Stars Disco - CD19
Дисковод: Optiarc DVD RW AD-7630A Adapter: 1 ID: 0
Режим чтения : Достоверность
Использование точного потока : Да
Отключение кэша аудио : Да
Использование указателей C2 : Нет
Коррекция смещения при чтении : 48
Способность читать области Lead-in и Lead-out : Да
Заполнение пропущенных сэмплов тишиной : Да
Удаление блоков с тишиной в начале и конце : Нет
При вычислениях CRC использовались нулевые сэмплы : Нет
Интерфейс : Встроенный Win32-интерфейс для Win NT/2000
Выходной формат : Внутренние WAV-операции
Формат сэмплов : 44.100 Гц; 16 бит; стерео
TOC извлечённого CD
Трек | Старт | Длительность | Начальный сектор | Конечный сектор
---------------------------------------------------------------------
1 | 0:00.00 | 3:42.27 | 0 | 16676
2 | 3:42.27 | 3:59.48 | 16677 | 34649
3 | 7:42.00 | 3:23.65 | 34650 | 49939
4 | 11:05.65 | 4:11.30 | 49940 | 68794
5 | 15:17.20 | 3:36.72 | 68795 | 85066
6 | 18:54.17 | 3:13.68 | 85067 | 99609
7 | 22:08.10 | 5:04.22 | 99610 | 122431
8 | 27:12.32 | 6:01.73 | 122432 | 149579
9 | 33:14.30 | 3:57.67 | 149580 | 167421
10 | 37:12.22 | 4:54.35 | 167422 | 189506
11 | 42:06.57 | 3:15.55 | 189507 | 204186
12 | 45:22.37 | 4:06.03 | 204187 | 222639
13 | 49:28.40 | 3:04.32 | 222640 | 236471
14 | 52:32.72 | 6:21.73 | 236472 | 265119
15 | 58:54.70 | 2:28.05 | 265120 | 276224
16 | 61:23.00 | 5:51.50 | 276225 | 302599
Характеристики диапазона извлечения и сообщения об ошибках
Выбранный диапазон
Имя файла G:\Downloads\TORRENTS\Мои закачки\All Stars Disco 19&20\диск 19\Various Artists - All Stars Disco - CD19.wav
Пиковый уровень 92.8 %
Качество диапазона 99.7 %
CRC копии 327F8BA0
Копирование... OK
Ошибок не произошло
Конец отчёта
 Exact Audio Copy V0.99 prebeta 4 from 23. January 2008
Отчёт EAC об извлечении, выполненном 15. января 2009, 11:05
Various Artists / All Stars Disco - CD20
Дисковод: Optiarc DVD RW AD-7630A Adapter: 1 ID: 0
Режим чтения : Достоверность
Использование точного потока : Да
Отключение кэша аудио : Да
Использование указателей C2 : Нет
Коррекция смещения при чтении : 48
Способность читать области Lead-in и Lead-out : Да
Заполнение пропущенных сэмплов тишиной : Да
Удаление блоков с тишиной в начале и конце : Нет
При вычислениях CRC использовались нулевые сэмплы : Нет
Интерфейс : Встроенный Win32-интерфейс для Win NT/2000
Выходной формат : Внутренние WAV-операции
Формат сэмплов : 44.100 Гц; 16 бит; стерео
TOC извлечённого CD
Трек | Старт | Длительность | Начальный сектор | Конечный сектор
---------------------------------------------------------------------
1 | 0:00.00 | 5:14.40 | 0 | 23589
2 | 5:14.40 | 4:10.32 | 23590 | 42371
3 | 9:24.72 | 3:17.65 | 42372 | 57211
4 | 12:42.62 | 5:47.68 | 57212 | 83304
5 | 18:30.55 | 5:25.10 | 83305 | 107689
6 | 23:55.65 | 5:03.42 | 107690 | 130456
7 | 28:59.32 | 3:53.40 | 130457 | 147971
8 | 32:52.72 | 3:55.68 | 147972 | 165664
9 | 36:48.65 | 3:37.70 | 165665 | 182009
10 | 40:26.60 | 2:09.25 | 182010 | 191709
11 | 42:36.10 | 6:06.10 | 191710 | 219169
12 | 48:42.20 | 4:51.42 | 219170 | 241036
13 | 53:33.62 | 4:38.28 | 241037 | 261914
14 | 58:12.15 | 3:17.62 | 261915 | 276751
15 | 61:30.02 | 3:04.08 | 276752 | 290559
16 | 64:34.10 | 6:01.65 | 290560 | 317699
Характеристики диапазона извлечения и сообщения об ошибках
Выбранный диапазон
Имя файла G:\Downloads\TORRENTS\Мои закачки\All Stars Disco 19&20\диск 20\Various Artists - All Stars Disco - CD20.wav
Пиковый уровень 93.2 %
Качество диапазона 99.7 %
CRC копии 7838F613
Копирование... OK
Ошибок не произошло
Конец отчёта
 Exact Audio Copy V1.0 beta 3 from 29. August 2011
EAC extraction logfile from 12. December 2011, 19:35
VA / All Stars Disco vol.21
Used drive : ASUS DRW-24B1LT Adapter: 1 ID: 0
Read mode : Secure
Utilize accurate stream : Yes
Defeat audio cache : Yes
Make use of C2 pointers : No
Read offset correction : 6
Overread into Lead-In and Lead-Out : No
Fill up missing offset samples with silence : Yes
Delete leading and trailing silent blocks : No
Null samples used in CRC calculations : Yes
Used interface : Native Win32 interface for Win NT & 2000
Used output format : Internal WAV Routines
Sample format : 44.100 Hz; 16 Bit; Stereo
TOC of the extracted CD
Track | Start | Length | Start sector | End sector
---------------------------------------------------------
1 | 0:00.00 | 4:09.54 | 0 | 18728
2 | 4:09.54 | 3:54.65 | 18729 | 36343
3 | 8:04.44 | 5:14.44 | 36344 | 59937
4 | 13:19.13 | 4:24.25 | 59938 | 79762
5 | 17:43.38 | 5:19.40 | 79763 | 103727
6 | 23:03.03 | 3:49.11 | 103728 | 120913
7 | 26:52.14 | 4:47.70 | 120914 | 142508
8 | 31:40.09 | 3:54.14 | 142509 | 160072
9 | 35:34.23 | 5:27.36 | 160073 | 184633
10 | 41:01.59 | 3:18.30 | 184634 | 199513
11 | 44:20.14 | 3:07.51 | 199514 | 213589
12 | 47:27.65 | 4:21.61 | 213590 | 233225
13 | 51:49.51 | 4:15.05 | 233226 | 252355
14 | 56:04.56 | 3:45.44 | 252356 | 269274
15 | 59:50.25 | 2:55.15 | 269275 | 282414
16 | 62:45.40 | 6:11.00 | 282415 | 310239
17 | 68:56.40 | 3:35.00 | 310240 | 326364
Range status and errors
Selected range
Filename G:\VA - All Stars Disco vol.21.wav
Peak level 100.0 %
Extraction speed 3.3 X
Range quality 99.9 %
Test CRC 76AF34D5
Copy CRC 76AF34D5
Copy OK
No errors occurred
AccurateRip summary
Track 1 not present in database
Track 2 not present in database
Track 3 not present in database
Track 4 not present in database
Track 5 not present in database
Track 6 not present in database
Track 7 not present in database
Track 8 not present in database
Track 9 not present in database
Track 10 not present in database
Track 11 not present in database
Track 12 not present in database
Track 13 not present in database
Track 14 not present in database
Track 15 not present in database
Track 16 not present in database
Track 17 not present in database
None of the tracks are present in the AccurateRip database
End of status report
==== Log checksum FEF1D1DFFA9AE18425093B2F27CAD218A8CFEB67B5CEB2D4D7586B15CFBEB992 ====
 Exact Audio Copy V1.0 beta 3 from 29. August 2011
EAC extraction logfile from 12. December 2011, 20:17
VA / All Stars Disco vol.22
Used drive : ASUS DRW-24B1LT Adapter: 1 ID: 0
Read mode : Secure
Utilize accurate stream : Yes
Defeat audio cache : Yes
Make use of C2 pointers : No
Read offset correction : 6
Overread into Lead-In and Lead-Out : No
Fill up missing offset samples with silence : Yes
Delete leading and trailing silent blocks : No
Null samples used in CRC calculations : Yes
Used interface : Native Win32 interface for Win NT & 2000
Used output format : Internal WAV Routines
Sample format : 44.100 Hz; 16 Bit; Stereo
TOC of the extracted CD
Track | Start | Length | Start sector | End sector
---------------------------------------------------------
1 | 0:00.00 | 4:12.15 | 0 | 18914
2 | 4:12.15 | 3:40.12 | 18915 | 35426
3 | 7:52.27 | 3:43.57 | 35427 | 52208
4 | 11:36.09 | 3:37.07 | 52209 | 68490
5 | 15:13.16 | 3:31.39 | 68491 | 84354
6 | 18:44.55 | 3:28.32 | 84355 | 99986
7 | 22:13.12 | 3:41.12 | 99987 | 116573
8 | 25:54.24 | 3:59.28 | 116574 | 134526
9 | 29:53.52 | 3:30.43 | 134527 | 150319
10 | 33:24.20 | 4:19.28 | 150320 | 169772
11 | 37:43.48 | 4:23.56 | 169773 | 189553
12 | 42:07.29 | 2:58.30 | 189554 | 202933
13 | 45:05.59 | 4:00.42 | 202934 | 220975
14 | 49:06.26 | 5:50.25 | 220976 | 247250
15 | 54:56.51 | 3:32.00 | 247251 | 263150
16 | 58:28.51 | 3:51.13 | 263151 | 280488
17 | 62:19.64 | 3:41.07 | 280489 | 297070
18 | 66:00.71 | 3:25.00 | 297071 | 312445
Range status and errors
Selected range
Filename G:\ASD\VA - All Stars Disco vol.22.wav
Peak level 100.0 %
Extraction speed 3.2 X
Range quality 99.9 %
Test CRC 5FD2F640
Copy CRC 5FD2F640
Copy OK
No errors occurred
AccurateRip summary
Track 1 not present in database
Track 2 not present in database
Track 3 not present in database
Track 4 not present in database
Track 5 not present in database
Track 6 not present in database
Track 7 not present in database
Track 8 not present in database
Track 9 not present in database
Track 10 not present in database
Track 11 not present in database
Track 12 not present in database
Track 13 not present in database
Track 14 not present in database
Track 15 not present in database
Track 16 not present in database
Track 17 not present in database
Track 18 not present in database
None of the tracks are present in the AccurateRip database
End of status report
==== Log checksum EB526178E84AFFE6CC20560C76C7AE18DDD2571770E82E76CAF42558F7431747 ====
------------------------------------------------------------
Exact Audio Copy V1.0 beta 3 from 29. August 2011
EAC extraction logfile from 12. December 2011, 20:17
VA / All Stars Disco vol.22
Used drive : ASUS DRW-24B1LT Adapter: 1 ID: 0
Read mode : Secure
Utilize accurate stream : Yes
Defeat audio cache : Yes
Make use of C2 pointers : No
Read offset correction : 6
Overread into Lead-In and Lead-Out : No
Fill up missing offset samples with silence : Yes
Delete leading and trailing silent blocks : No
Null samples used in CRC calculations : Yes
Used interface : Native Win32 interface for Win NT & 2000
Used output format : Internal WAV Routines
Sample format : 44.100 Hz; 16 Bit; Stereo
TOC of the extracted CD
Track | Start | Length | Start sector | End sector
---------------------------------------------------------
1 | 0:00.00 | 4:12.15 | 0 | 18914
2 | 4:12.15 | 3:40.12 | 18915 | 35426
3 | 7:52.27 | 3:43.57 | 35427 | 52208
4 | 11:36.09 | 3:37.07 | 52209 | 68490
5 | 15:13.16 | 3:31.39 | 68491 | 84354
6 | 18:44.55 | 3:28.32 | 84355 | 99986
7 | 22:13.12 | 3:41.12 | 99987 | 116573
8 | 25:54.24 | 3:59.28 | 116574 | 134526
9 | 29:53.52 | 3:30.43 | 134527 | 150319
10 | 33:24.20 | 4:19.28 | 150320 | 169772
11 | 37:43.48 | 4:23.56 | 169773 | 189553
12 | 42:07.29 | 2:58.30 | 189554 | 202933
13 | 45:05.59 | 4:00.42 | 202934 | 220975
14 | 49:06.26 | 5:50.25 | 220976 | 247250
15 | 54:56.51 | 3:32.00 | 247251 | 263150
16 | 58:28.51 | 3:51.13 | 263151 | 280488
17 | 62:19.64 | 3:41.07 | 280489 | 297070
18 | 66:00.71 | 3:25.00 | 297071 | 312445
Range status and errors
Selected range
Filename G:\ASD\VA - All Stars Disco vol.22.wav
Peak level 100.0 %
Extraction speed 3.2 X
Range quality 99.9 %
Test CRC 5FD2F640
Copy CRC 5FD2F640
Copy OK
No errors occurred
AccurateRip summary
Track 1 not present in database
Track 2 not present in database
Track 3 not present in database
Track 4 not present in database
Track 5 not present in database
Track 6 not present in database
Track 7 not present in database
Track 8 not present in database
Track 9 not present in database
Track 10 not present in database
Track 11 not present in database
Track 12 not present in database
Track 13 not present in database
Track 14 not present in database
Track 15 not present in database
Track 16 not present in database
Track 17 not present in database
Track 18 not present in database
None of the tracks are present in the AccurateRip database
End of status report
==== Log checksum EB526178E84AFFE6CC20560C76C7AE18DDD2571770E82E76CAF42558F7431747 ====
DISC 1
DISC 2
DISC 3
DISC 4
DISC 5
DISC 6
DISC 7
DISC 8
DISC 9
DISC 10
DISC 11
DISC 12
DISC 13
DISC 14
DISC 15
DISC 16
DISC 17
DISC 18
DISC 19
DISC 20
DISC 21
DISC 22

[10.27 GB] Скачать / Download