(Italo-Disco/Euro-Disco/Synth-Pop) VA - I Love Disco Presents - Rewind To The Disco Vol.1 (2 CD) - 2009, FLAC (image+.cue), lossless - Скачать

Жанр:Italo-Disco/Euro-Disco/Synth-Pop
Страна-производитель диска:Spain
Год издания диска: 2009
Издатель (лейбл): Blanco Y Negro
Номер по каталогу: MXCD 1980 (CB)
Аудио кодек: FLAC (*.flac)
Тип рипа: image+.cue
Битрейт аудио: lossless
Продолжительность: 01:18:26+01:18:28
Источник (релизер): собственный рип
Наличие сканов в содержимом раздачи: да
Трэклист:
CD 1 :
01. Club House - Do It Again (Medley With Billie Jean) 7:41
02. Digital Game - Please Don't Go 7:11
03. Marx & Spencer - Stay 7:02
04. Nicky & Nicky - Souvenir 5:59
05. Robey - One Night In Bangkok 5:09
06. Creative Connection - You're My Heart, You're My Soul 6:46
07. M.C.Miker ''G'' & Deejay Sven - Holiday Rap 6:24
08. P4F - Notorious (Medley With Le Freak) 5:49
09. Round One - In Zaire 6:42
10. Moskwa Tv - Tekno Talk 6:21
11. Stag - Black Betty 5:12
12. Hypnosis - Pulstar 8:10

CD 2 :
01. Replay - Michael Mania Medley 6:37
02. Green Lights - Every Breath You Take (Medley With Moonlight Shadow) 6:25
03. Micaela - La Isla Bonita 5:19
04. Cockroach - Get Back 5:22
05. Control D - Vision In The Mirror 6:22
06. Samoa Park - Monkey Latino (Medley Monkey Chop With Paris Latino) 7:05
07. Local Boy - Thriller (Medley With Owner Of A Lonely Heart) 6:23
08. R.Bais - Take The Love 7:06
09. Sky Creackers - You Should Be Dancing 6:00
10. Max Gang - Automatic Lover 7:47
11. The Nasty Boys - I Was Made For Lovin' You 7:46
12. The Gangstars - Dancing In The Street 6:17

Доп. информация:
Абсолютно все рипы сделаны с оригинальных CD из моей коллекции !!!
Полные сканы обложек и дисков прилагаются (600dpi, PNG) !!!
- Blanco Y Negro Music -

альбом, pop, трек, torrent, lossless, торрент, soundtrack, cd, музыка, песни, скачать, поп, download, mp3, высокое качество, композиции, pop-music, дискография, поп-музыка, альбом, бесплатно

Обратите внимание !!!
Материал выложен ИСКЛЮЧИТЕЛЬНО для ознакомления, так что не забудьте, пожалуйста,
удалить его с жёсткого диска после ознакомления, пойти в магазин и купить оригинальное издание !!!
VA - I Love Disco Presents - Rewind To The Disco Vol.1 From Discogs
Back
Отчеты EAC
Отчет EAC - VA - I Love Disco Presents - Rewind To The Disco Vol.1 CD 1
Exact Audio Copy V0.99 prebeta 5 from 4. May 2009
Отчёт EAC об извлечении, выполненном 13. марта 2011, 22:44
Various / I Love Disco Presents - Rewind To The Disco Vol.1 CD 1
Дисковод: Optiarc DVD RW AD-5200A Adapter: 0 ID: 0
Режим чтения : Достоверность
Использование точного потока : Да
Отключение кэша аудио : Да
Использование указателей C2 : Нет
Коррекция смещения при чтении : 48
Способность читать области Lead-in и Lead-out : Нет
Заполнение пропущенных сэмплов тишиной : Да
Удаление блоков с тишиной в начале и конце : Нет
При вычислениях CRC использовались нулевые сэмплы : Да
Интерфейс : Встроенный Win32-интерфейс для Win NT/2000
Выходной формат : Внутренние WAV-операции
Формат сэмплов : 44.100 Гц; 16 бит; стерео
TOC извлечённого CD
Трек | Старт | Длительность | Начальный сектор | Конечный сектор
---------------------------------------------------------------------
1 | 0:00.00 | 7:40.74 | 0 | 34573
2 | 7:40.74 | 7:11.17 | 34574 | 66915
3 | 14:52.16 | 7:02.08 | 66916 | 98573
4 | 21:54.24 | 5:58.47 | 98574 | 125470
5 | 27:52.71 | 5:08.74 | 125471 | 148644
6 | 33:01.70 | 6:45.40 | 148645 | 179059
7 | 39:47.35 | 6:24.37 | 179060 | 207896
8 | 46:11.72 | 5:48.74 | 207897 | 234070
9 | 52:00.71 | 6:41.63 | 234071 | 264208
10 | 58:42.59 | 6:20.71 | 264209 | 292779
11 | 65:03.55 | 5:11.74 | 292780 | 316178
12 | 70:15.54 | 8:10.31 | 316179 | 352959
Характеристики диапазона извлечения и сообщения об ошибках
Выбранный диапазон
Имя файла D:\All\Music\Various - I Love Disco Presents - Rewind To The Disco Vol.1\Various - I Love Disco Presents - Rewind To The Disco Vol.1 CD 1\Various - I Love Disco Presents - Rewind To The Disco Vol.1 CD 1.wav
Пиковый уровень 96.8 %
Качество диапазона 100.0 %
CRC теста E5CA152C
CRC копии E5CA152C
Копирование... OK
Ошибок не произошло
AccurateRip: сводка
Трек 1 нет в базе данных
Трек 2 нет в базе данных
Трек 3 нет в базе данных
Трек 4 нет в базе данных
Трек 5 нет в базе данных
Трек 6 нет в базе данных
Трек 7 нет в базе данных
Трек 8 нет в базе данных
Трек 9 нет в базе данных
Трек 10 нет в базе данных
Трек 11 нет в базе данных
Трек 12 нет в базе данных
Ни одного трека нет в базе AccurateRip
Конец отчёта
Отчет EAC - VA - I Love Disco Presents - Rewind To The Disco Vol.1 CD 2
Exact Audio Copy V0.99 prebeta 5 from 4. May 2009
Отчёт EAC об извлечении, выполненном 13. марта 2011, 23:30
Various / I Love Disco Presents - Rewind To The Disco Vol.1 CD 2
Дисковод: Optiarc DVD RW AD-5200A Adapter: 0 ID: 0
Режим чтения : Достоверность
Использование точного потока : Да
Отключение кэша аудио : Да
Использование указателей C2 : Нет
Коррекция смещения при чтении : 48
Способность читать области Lead-in и Lead-out : Нет
Заполнение пропущенных сэмплов тишиной : Да
Удаление блоков с тишиной в начале и конце : Нет
При вычислениях CRC использовались нулевые сэмплы : Да
Интерфейс : Встроенный Win32-интерфейс для Win NT/2000
Выходной формат : Внутренние WAV-операции
Формат сэмплов : 44.100 Гц; 16 бит; стерео
TOC извлечённого CD
Трек | Старт | Длительность | Начальный сектор | Конечный сектор
---------------------------------------------------------------------
1 | 0:00.00 | 6:36.62 | 0 | 29761
2 | 6:36.62 | 6:24.74 | 29762 | 58635
3 | 13:01.61 | 5:18.74 | 58636 | 82559
4 | 18:20.60 | 5:21.74 | 82560 | 106708
5 | 23:42.59 | 6:21.74 | 106709 | 135357
6 | 30:04.58 | 7:04.51 | 135358 | 167208
7 | 37:09.34 | 6:23.08 | 167209 | 195941
8 | 43:32.42 | 7:05.74 | 195942 | 227890
9 | 50:38.41 | 6:00.00 | 227891 | 254890
10 | 56:38.41 | 7:46.74 | 254891 | 289914
11 | 64:25.40 | 7:45.74 | 289915 | 324863
12 | 72:11.39 | 6:17.02 | 324864 | 353140
Характеристики диапазона извлечения и сообщения об ошибках
Выбранный диапазон
Имя файла D:\All\Music\Various - I Love Disco Presents - Rewind To The Disco Vol.1\Various - I Love Disco Presents - Rewind To The Disco Vol.1 CD 2\Various - I Love Disco Presents - Rewind To The Disco Vol.1 CD 2.wav
Пиковый уровень 96.7 %
Качество диапазона 100.0 %
CRC теста D43227F8
CRC копии D43227F8
Копирование... OK
Ошибок не произошло
AccurateRip: сводка
Трек 1 нет в базе данных
Трек 2 нет в базе данных
Трек 3 нет в базе данных
Трек 4 нет в базе данных
Трек 5 нет в базе данных
Трек 6 нет в базе данных
Трек 7 нет в базе данных
Трек 8 нет в базе данных
Трек 9 нет в базе данных
Трек 10 нет в базе данных
Трек 11 нет в базе данных
Трек 12 нет в базе данных
Ни одного трека нет в базе AccurateRip
Конец отчёта
Материал выложен ИСКЛЮЧИТЕЛЬНО для ознакомления, так что не забудьте, пожалуйста,
удалить его с жёсткого диска после ознакомления, пойти в магазин и купить оригинальное издание !!!
Отчет EAC - VA - I Love Disco Presents - Rewind To The Disco Vol.1 CD 1
Exact Audio Copy V0.99 prebeta 5 from 4. May 2009
Отчёт EAC об извлечении, выполненном 13. марта 2011, 22:44
Various / I Love Disco Presents - Rewind To The Disco Vol.1 CD 1
Дисковод: Optiarc DVD RW AD-5200A Adapter: 0 ID: 0
Режим чтения : Достоверность
Использование точного потока : Да
Отключение кэша аудио : Да
Использование указателей C2 : Нет
Коррекция смещения при чтении : 48
Способность читать области Lead-in и Lead-out : Нет
Заполнение пропущенных сэмплов тишиной : Да
Удаление блоков с тишиной в начале и конце : Нет
При вычислениях CRC использовались нулевые сэмплы : Да
Интерфейс : Встроенный Win32-интерфейс для Win NT/2000
Выходной формат : Внутренние WAV-операции
Формат сэмплов : 44.100 Гц; 16 бит; стерео
TOC извлечённого CD
Трек | Старт | Длительность | Начальный сектор | Конечный сектор
---------------------------------------------------------------------
1 | 0:00.00 | 7:40.74 | 0 | 34573
2 | 7:40.74 | 7:11.17 | 34574 | 66915
3 | 14:52.16 | 7:02.08 | 66916 | 98573
4 | 21:54.24 | 5:58.47 | 98574 | 125470
5 | 27:52.71 | 5:08.74 | 125471 | 148644
6 | 33:01.70 | 6:45.40 | 148645 | 179059
7 | 39:47.35 | 6:24.37 | 179060 | 207896
8 | 46:11.72 | 5:48.74 | 207897 | 234070
9 | 52:00.71 | 6:41.63 | 234071 | 264208
10 | 58:42.59 | 6:20.71 | 264209 | 292779
11 | 65:03.55 | 5:11.74 | 292780 | 316178
12 | 70:15.54 | 8:10.31 | 316179 | 352959
Характеристики диапазона извлечения и сообщения об ошибках
Выбранный диапазон
Имя файла D:\All\Music\Various - I Love Disco Presents - Rewind To The Disco Vol.1\Various - I Love Disco Presents - Rewind To The Disco Vol.1 CD 1\Various - I Love Disco Presents - Rewind To The Disco Vol.1 CD 1.wav
Пиковый уровень 96.8 %
Качество диапазона 100.0 %
CRC теста E5CA152C
CRC копии E5CA152C
Копирование... OK
Ошибок не произошло
AccurateRip: сводка
Трек 1 нет в базе данных
Трек 2 нет в базе данных
Трек 3 нет в базе данных
Трек 4 нет в базе данных
Трек 5 нет в базе данных
Трек 6 нет в базе данных
Трек 7 нет в базе данных
Трек 8 нет в базе данных
Трек 9 нет в базе данных
Трек 10 нет в базе данных
Трек 11 нет в базе данных
Трек 12 нет в базе данных
Ни одного трека нет в базе AccurateRip
Конец отчёта
Отчет EAC - VA - I Love Disco Presents - Rewind To The Disco Vol.1 CD 2
Exact Audio Copy V0.99 prebeta 5 from 4. May 2009
Отчёт EAC об извлечении, выполненном 13. марта 2011, 23:30
Various / I Love Disco Presents - Rewind To The Disco Vol.1 CD 2
Дисковод: Optiarc DVD RW AD-5200A Adapter: 0 ID: 0
Режим чтения : Достоверность
Использование точного потока : Да
Отключение кэша аудио : Да
Использование указателей C2 : Нет
Коррекция смещения при чтении : 48
Способность читать области Lead-in и Lead-out : Нет
Заполнение пропущенных сэмплов тишиной : Да
Удаление блоков с тишиной в начале и конце : Нет
При вычислениях CRC использовались нулевые сэмплы : Да
Интерфейс : Встроенный Win32-интерфейс для Win NT/2000
Выходной формат : Внутренние WAV-операции
Формат сэмплов : 44.100 Гц; 16 бит; стерео
TOC извлечённого CD
Трек | Старт | Длительность | Начальный сектор | Конечный сектор
---------------------------------------------------------------------
1 | 0:00.00 | 6:36.62 | 0 | 29761
2 | 6:36.62 | 6:24.74 | 29762 | 58635
3 | 13:01.61 | 5:18.74 | 58636 | 82559
4 | 18:20.60 | 5:21.74 | 82560 | 106708
5 | 23:42.59 | 6:21.74 | 106709 | 135357
6 | 30:04.58 | 7:04.51 | 135358 | 167208
7 | 37:09.34 | 6:23.08 | 167209 | 195941
8 | 43:32.42 | 7:05.74 | 195942 | 227890
9 | 50:38.41 | 6:00.00 | 227891 | 254890
10 | 56:38.41 | 7:46.74 | 254891 | 289914
11 | 64:25.40 | 7:45.74 | 289915 | 324863
12 | 72:11.39 | 6:17.02 | 324864 | 353140
Характеристики диапазона извлечения и сообщения об ошибках
Выбранный диапазон
Имя файла D:\All\Music\Various - I Love Disco Presents - Rewind To The Disco Vol.1\Various - I Love Disco Presents - Rewind To The Disco Vol.1 CD 2\Various - I Love Disco Presents - Rewind To The Disco Vol.1 CD 2.wav
Пиковый уровень 96.7 %
Качество диапазона 100.0 %
CRC теста D43227F8
CRC копии D43227F8
Копирование... OK
Ошибок не произошло
AccurateRip: сводка
Трек 1 нет в базе данных
Трек 2 нет в базе данных
Трек 3 нет в базе данных
Трек 4 нет в базе данных
Трек 5 нет в базе данных
Трек 6 нет в базе данных
Трек 7 нет в базе данных
Трек 8 нет в базе данных
Трек 9 нет в базе данных
Трек 10 нет в базе данных
Трек 11 нет в базе данных
Трек 12 нет в базе данных
Ни одного трека нет в базе AccurateRip
Конец отчёта
Exact Audio Copy V0.99 prebeta 5 from 4. May 2009
Отчёт EAC об извлечении, выполненном 13. марта 2011, 22:44
Various / I Love Disco Presents - Rewind To The Disco Vol.1 CD 1
Дисковод: Optiarc DVD RW AD-5200A Adapter: 0 ID: 0
Режим чтения : Достоверность
Использование точного потока : Да
Отключение кэша аудио : Да
Использование указателей C2 : Нет
Коррекция смещения при чтении : 48
Способность читать области Lead-in и Lead-out : Нет
Заполнение пропущенных сэмплов тишиной : Да
Удаление блоков с тишиной в начале и конце : Нет
При вычислениях CRC использовались нулевые сэмплы : Да
Интерфейс : Встроенный Win32-интерфейс для Win NT/2000
Выходной формат : Внутренние WAV-операции
Формат сэмплов : 44.100 Гц; 16 бит; стерео
TOC извлечённого CD
Трек | Старт | Длительность | Начальный сектор | Конечный сектор
---------------------------------------------------------------------
1 | 0:00.00 | 7:40.74 | 0 | 34573
2 | 7:40.74 | 7:11.17 | 34574 | 66915
3 | 14:52.16 | 7:02.08 | 66916 | 98573
4 | 21:54.24 | 5:58.47 | 98574 | 125470
5 | 27:52.71 | 5:08.74 | 125471 | 148644
6 | 33:01.70 | 6:45.40 | 148645 | 179059
7 | 39:47.35 | 6:24.37 | 179060 | 207896
8 | 46:11.72 | 5:48.74 | 207897 | 234070
9 | 52:00.71 | 6:41.63 | 234071 | 264208
10 | 58:42.59 | 6:20.71 | 264209 | 292779
11 | 65:03.55 | 5:11.74 | 292780 | 316178
12 | 70:15.54 | 8:10.31 | 316179 | 352959
Характеристики диапазона извлечения и сообщения об ошибках
Выбранный диапазон
Имя файла D:\All\Music\Various - I Love Disco Presents - Rewind To The Disco Vol.1\Various - I Love Disco Presents - Rewind To The Disco Vol.1 CD 1\Various - I Love Disco Presents - Rewind To The Disco Vol.1 CD 1.wav
Пиковый уровень 96.8 %
Качество диапазона 100.0 %
CRC теста E5CA152C
CRC копии E5CA152C
Копирование... OK
Ошибок не произошло
AccurateRip: сводка
Трек 1 нет в базе данных
Трек 2 нет в базе данных
Трек 3 нет в базе данных
Трек 4 нет в базе данных
Трек 5 нет в базе данных
Трек 6 нет в базе данных
Трек 7 нет в базе данных
Трек 8 нет в базе данных
Трек 9 нет в базе данных
Трек 10 нет в базе данных
Трек 11 нет в базе данных
Трек 12 нет в базе данных
Ни одного трека нет в базе AccurateRip
Конец отчёта
Exact Audio Copy V0.99 prebeta 5 from 4. May 2009
Отчёт EAC об извлечении, выполненном 13. марта 2011, 23:30
Various / I Love Disco Presents - Rewind To The Disco Vol.1 CD 2
Дисковод: Optiarc DVD RW AD-5200A Adapter: 0 ID: 0
Режим чтения : Достоверность
Использование точного потока : Да
Отключение кэша аудио : Да
Использование указателей C2 : Нет
Коррекция смещения при чтении : 48
Способность читать области Lead-in и Lead-out : Нет
Заполнение пропущенных сэмплов тишиной : Да
Удаление блоков с тишиной в начале и конце : Нет
При вычислениях CRC использовались нулевые сэмплы : Да
Интерфейс : Встроенный Win32-интерфейс для Win NT/2000
Выходной формат : Внутренние WAV-операции
Формат сэмплов : 44.100 Гц; 16 бит; стерео
TOC извлечённого CD
Трек | Старт | Длительность | Начальный сектор | Конечный сектор
---------------------------------------------------------------------
1 | 0:00.00 | 6:36.62 | 0 | 29761
2 | 6:36.62 | 6:24.74 | 29762 | 58635
3 | 13:01.61 | 5:18.74 | 58636 | 82559
4 | 18:20.60 | 5:21.74 | 82560 | 106708
5 | 23:42.59 | 6:21.74 | 106709 | 135357
6 | 30:04.58 | 7:04.51 | 135358 | 167208
7 | 37:09.34 | 6:23.08 | 167209 | 195941
8 | 43:32.42 | 7:05.74 | 195942 | 227890
9 | 50:38.41 | 6:00.00 | 227891 | 254890
10 | 56:38.41 | 7:46.74 | 254891 | 289914
11 | 64:25.40 | 7:45.74 | 289915 | 324863
12 | 72:11.39 | 6:17.02 | 324864 | 353140
Характеристики диапазона извлечения и сообщения об ошибках
Выбранный диапазон
Имя файла D:\All\Music\Various - I Love Disco Presents - Rewind To The Disco Vol.1\Various - I Love Disco Presents - Rewind To The Disco Vol.1 CD 2\Various - I Love Disco Presents - Rewind To The Disco Vol.1 CD 2.wav
Пиковый уровень 96.7 %
Качество диапазона 100.0 %
CRC теста D43227F8
CRC копии D43227F8
Копирование... OK
Ошибок не произошло
AccurateRip: сводка
Трек 1 нет в базе данных
Трек 2 нет в базе данных
Трек 3 нет в базе данных
Трек 4 нет в базе данных
Трек 5 нет в базе данных
Трек 6 нет в базе данных
Трек 7 нет в базе данных
Трек 8 нет в базе данных
Трек 9 нет в базе данных
Трек 10 нет в базе данных
Трек 11 нет в базе данных
Трек 12 нет в базе данных
Ни одного трека нет в базе AccurateRip
Конец отчёта

[1.15 GB] Скачать / Download