(Italo-Disco, Euro-Disco) VA - Italo Boot Mix / Italo Boot Mix Vol. 2 - 1998, 2000, APE (image+.cue), lossless - Скачать

Жанр: Italo-Disco, Eurodisco
Год выпуска диска: 1998, 2000
Производитель диска: ZYX Music, Germany
Аудио кодек: APE
Тип рипа: image+.cue
Битрейт аудио: lossless
Продолжительность: 3:57:09Доп. информация:
Рип фирменных дисков (Test+Copy). Сканы прилагаются.
Italo Boot Mix Vol.2 CD2 track 17 напечатан ошибочно: Brian Ice - Talking To The Night вместо Wish Key - Last Summer
EAC Log:

cd, торрент, поп, альбом, поп-музыка, бесплатно, дискография, музыка, torrent, mp3, download, lossless, pop, pop-music, песни, альбом, высокое качество, композиции, soundtrack, скачать, трек

CD1 (44:43)
01. Sandy Marton / People From Ibiza [0:02:48.46]
02. Kano / Another Life [0:01:40.35]
03. Gazebo / Dolce Vita [0:02:29.03]
04. Silent Circle / Touch In The Night [0:02:40.41]
05. Koto / Jabdah [0:02:24.44]
06. Alisha / Baby Talk [0:02:30.14]
07. Hypnosis / Pulstar [0:02:07.73]
08. Michael Bedford / More Than A Kiss [0:01:55.12]
09. K.B. Caps / Do You Really Need Me [0:02:05.69]
10. Linda Jo Rizzo / You're My First [0:01:44.53]
11. Cliff Turner / Moonlight Affair [0:02:24.46]
12. Hugh Bullen / Alisand [0:01:50.63]
13. Dc Tools / Space Boys [0:02:24.39]
14. Mike Mareen / Dancing In The Dark [0:02:01.15]
15. Grant Miller / Colder Than Ice [0:02:42.53]
16. Lian Ross / Fantasy [0:02:13.70]
17. Rofo / Rofos Theme [0:01:53.13]
18. Mike Mareen / Love Spy [0:02:18.66]
19. Laserdance / Humanoid Invasion [0:02:00.22]
20. Fun Fun / Baila Bolero [0:02:25.69]
CD2 (45:04)
01. Eddie Huntington / USSR [0:02:06.70]
02. Valerie Dore / The Night [0:02:52.47]
03. Silver Pozzoli / Around My Dreams [0:02:12.67]
04. Scotch / Delirio Mind [0:02:16.40]
05. Savage / Don't Cry Tonight [0:01:49.05]
06. Lee Marrow / Sayonara [0:02:18.61]
07. Radiorama / Aliens [0:01:47.35]
08. Miko Mission / How Old Are You? [0:02:18.19]
09. P. Lion / Happy Children [0:02:32.56]
10. Valerie Dore / Get Closer [0:02:26.19]
11. Swan / Don't Talk About It [0:02:17.14]
12. Radiorama / Change To Desire [0:02:07.10]
13. G.J. Lunghi / Acapulco Nights [0:02:00.16]
14. Joe Yellow / I'm Your Lover [0:02:40.35]
15. Chiceria / Sunset Rendezvous [0:02:25.08]
16. Miko Mission / The World Is You [0:01:51.02]
17. Joy Peters / Don't Loose [0:02:09.13]
18. Patty Ryan / You're My Love, You're My Life [0:02:07.60]
19. J.D. Jaber / Don't Wake Me Up [0:02:33.00]
20. Albert One / Heart On Fire [0:02:11.40]
CD1 (73:33)
01. Gazebo / Masterpiece '98 [0:02:16.65]
02. Miko Mission / Two For Love [0:02:17.34]
03. Scotch / Take Me Up [0:02:02.27]
04. Joe Yellow / Lover To Lover [0:02:11.39]
05. Fun Fun / Color My Love [0:01:54.72]
06. Paul Sharada / Boxers [0:02:07.47]
07. Baby's Gang / Challenger [0:02:16.30]
08. Koto / Visitors [0:02:02.60]
09. Albert One / Hopes And Dreams [0:03:20.45]
10. Mike Mareen / Agent Of Liberty [0:02:23.26]
11. F.P.I. Project / Rich In Paradise [0:02:15.53]
12. Scotch / Penguins' Invasion [0:03:07.63]
13. Baby's Gang / Happy Song [0:01:46.17]
14. Max Him / Japanese Girl [0:03:50.20]
15. Koto / Time [0:02:38.43]
16. Laserdance / Shotgun [0:02:42.44]
17. Den Harrow / Future Brain 98 [0:02:42.47]
18. Kano / Another Life 2000 [0:01:34.51]
19. Sabrina / Angel Boy [0:02:56.64]
20. Cruising Gang / America [0:03:05.43]
21. Fun Fun / Give Me Your Love [0:02:34.44]
22. Mike Mareen / Love Spy [0:02:25.73]
23. Cyber People / Polaris [0:02:42.54]
24. Doctors Cat / Feel The Drive [0:02:39.32]
25. Ken Laszlo / Hey Hey Guy [0:02:46.58]
26. Brian Ice / Over Again [0:03:50.74]
27. Alan Ross / Valentino Mon Amour [0:03:14.59]
28. Hipnosis / Oxygene [0:03:43.08]
CD2 (73:49)
01. Brian Ice / Talking To The Night [0:03:18.64]
02. Lee Marrow / Shanghai [0:03:09.58]
03. Savage / Only You [0:02:01.53]
04. P. Lion / Dream [0:02:28.46]
05. Visions / Everybody [0:03:41.40]
06. Valerie Dore / It's So Easy [0:02:00.23]
07. Radiorama / Desire [0:01:53.34]
08. Roger Meno / I Find The Way [0:02:03.12]
09. Fred Ventura / One Day [0:02:07.11]
10. Den Harrow / To Meet Me [0:03:02.66]
11. Grant Miller / Doctor For My Heart [0:02:51.09]
12. Max Coveri / One More Time [0:01:35.13]
13. Roxanne / Show Me [0:02:05.13]
14. Mozzart / Money [0:02:58.02]
15. Rofo / Rofo's Theme [0:01:48.01]
16. Interface / Plastic Age [0:02:15.41]
17. Wish Key / Last Summer [0:02:42.63]
18. Radiorama / Vampires [0:04:26.61]
19. Valerie Dore / Lancelot [0:02:01.68]
20. Tullio De Piscopo / Stop Bajon [0:02:03.39]
21. Ryan Paris / Dolce Vita [0:03:19.30]
22. KWS / Please Don't Go [0:03:13.15]
23. F.P.I. Project / Going Back To My Roots [0:01:48.52]
24. Albert One / For Your Love [0:02:58.07]
25. Max Him / Lady Fantasy [0:03:03.36]
26. Mike Rogers / Just A Story [0:02:22.11]
27. Italian Boys / Forever Lovers [0:03:48.27]
28. Aleph / Fly To Me [0:02:40.20]
Exact Audio Copy V0.99 prebeta 5 from 4. May 2009
Отчёт EAC об извлечении, выполненном 29. марта 2010, 17:09
Various / Italo Boot Mix CD1
Дисковод: HL-DT-STDVD-RAM GH22NS30 Adapter: 2 ID: 1
Режим чтения : Достоверность
Использование точного потока : Да
Отключение кэша аудио : Да
Использование указателей C2 : Нет
Коррекция смещения при чтении : 102
Способность читать области Lead-in и Lead-out : Нет
Заполнение пропущенных сэмплов тишиной : Да
Удаление блоков с тишиной в начале и конце : Нет
При вычислениях CRC использовались нулевые сэмплы : Да
Интерфейс : Установленный внешний ASPI-интерфейс
Выходной формат : Внутренние WAV-операции
Формат сэмплов : 44.100 Гц; 16 бит; стерео
Смещение при сжатии : 0
TOC извлечённого CD
Трек | Старт | Длительность | Начальный сектор | Конечный сектор
---------------------------------------------------------------------
1 | 0:00.00 | 2:48.46 | 0 | 12645
2 | 2:48.46 | 1:40.35 | 12646 | 20180
3 | 4:29.06 | 2:29.03 | 20181 | 31358
4 | 6:58.09 | 2:40.41 | 31359 | 43399
5 | 9:38.50 | 2:24.44 | 43400 | 54243
6 | 12:03.19 | 2:30.14 | 54244 | 65507
7 | 14:33.33 | 2:07.73 | 65508 | 75105
8 | 16:41.31 | 1:55.12 | 75106 | 83742
9 | 18:36.43 | 2:05.69 | 83743 | 93186
10 | 20:42.37 | 1:44.53 | 93187 | 101039
11 | 22:27.15 | 2:24.46 | 101040 | 111885
12 | 24:51.61 | 1:50.63 | 111886 | 120198
13 | 26:42.49 | 2:24.39 | 120199 | 131037
14 | 29:07.13 | 2:01.15 | 131038 | 140127
15 | 31:08.28 | 2:42.53 | 140128 | 152330
16 | 33:51.06 | 2:13.70 | 152331 | 162375
17 | 36:05.01 | 1:53.13 | 162376 | 170863
18 | 37:58.14 | 2:18.66 | 170864 | 181279
19 | 40:17.05 | 2:00.22 | 181280 | 190301
20 | 42:17.27 | 2:25.69 | 190302 | 201245
Характеристики диапазона извлечения и сообщения об ошибках
Выбранный диапазон
Имя файла C:\Downloads\Italo Boot Mix\Italo Boot Mix\Various - Italo Boot Mix CD1.wav
Пиковый уровень 100.0 %
Качество диапазона 100.0 %
CRC теста B529EFB6
CRC копии B529EFB6
Копирование... OK
Ошибок не произошло
AccurateRip: сводка
Трек 1 точное извлечение (доверие 2) [549BA779]
Трек 2 точное извлечение (доверие 2) [411D8784]
Трек 3 точное извлечение (доверие 2) [4E344712]
Трек 4 точное извлечение (доверие 2) [D46A5892]
Трек 5 точное извлечение (доверие 2) [5C2EAAC4]
Трек 6 точное извлечение (доверие 2) [2E854EDA]
Трек 7 точное извлечение (доверие 2) [41E53709]
Трек 8 точное извлечение (доверие 2) [424A8289]
Трек 9 точное извлечение (доверие 2) [35FB0B45]
Трек 10 точное извлечение (доверие 2) [ECD29027]
Трек 11 точное извлечение (доверие 2) [B15F5BC6]
Трек 12 точное извлечение (доверие 2) [DAD1E987]
Трек 13 точное извлечение (доверие 2) [8FA4AF0F]
Трек 14 точное извлечение (доверие 2) [AFABA844]
Трек 15 точное извлечение (доверие 2) [E4E402E1]
Трек 16 точное извлечение (доверие 2) [7021DFF9]
Трек 17 точное извлечение (доверие 2) [D3B39F75]
Трек 18 точное извлечение (доверие 2) [E06DC4AB]
Трек 19 точное извлечение (доверие 2) [35D98FCB]
Трек 20 точное извлечение (доверие 2) [3F5FB807]
Все треки извлечены точно
Конец отчёта
Exact Audio Copy V0.99 prebeta 5 from 4. May 2009
Отчёт EAC об извлечении, выполненном 29. марта 2010, 17:52
Various / Italo Boot Mix CD2
Дисковод: HL-DT-STDVD-RAM GH22NS30 Adapter: 2 ID: 1
Режим чтения : Достоверность
Использование точного потока : Да
Отключение кэша аудио : Да
Использование указателей C2 : Нет
Коррекция смещения при чтении : 102
Способность читать области Lead-in и Lead-out : Нет
Заполнение пропущенных сэмплов тишиной : Да
Удаление блоков с тишиной в начале и конце : Нет
При вычислениях CRC использовались нулевые сэмплы : Да
Интерфейс : Установленный внешний ASPI-интерфейс
Выходной формат : Внутренние WAV-операции
Формат сэмплов : 44.100 Гц; 16 бит; стерео
Смещение при сжатии : 0
TOC извлечённого CD
Трек | Старт | Длительность | Начальный сектор | Конечный сектор
---------------------------------------------------------------------
1 | 0:00.00 | 2:06.70 | 0 | 9519
2 | 2:06.70 | 2:52.47 | 9520 | 22466
3 | 4:59.42 | 2:12.67 | 22467 | 32433
4 | 7:12.34 | 2:16.40 | 32434 | 42673
5 | 9:28.74 | 1:49.05 | 42674 | 50853
6 | 11:18.04 | 2:18.61 | 50854 | 61264
7 | 13:36.65 | 1:47.35 | 61265 | 69324
8 | 15:24.25 | 2:18.19 | 69325 | 79693
9 | 17:42.44 | 2:32.56 | 79694 | 91149
10 | 20:15.25 | 2:26.19 | 91150 | 102118
11 | 22:41.44 | 2:17.14 | 102119 | 112407
12 | 24:58.58 | 2:07.10 | 112408 | 121942
13 | 27:05.68 | 2:00.16 | 121943 | 130958
14 | 29:06.09 | 2:40.35 | 130959 | 142993
15 | 31:46.44 | 2:25.08 | 142994 | 153876
16 | 34:11.52 | 1:51.02 | 153877 | 162203
17 | 36:02.54 | 2:09.13 | 162204 | 171891
18 | 38:11.67 | 2:07.60 | 171892 | 181476
19 | 40:19.52 | 2:33.00 | 181477 | 192951
20 | 42:52.52 | 2:11.40 | 192952 | 202816
Характеристики диапазона извлечения и сообщения об ошибках
Выбранный диапазон
Имя файла C:\Downloads\Italo Boot Mix\Italo Boot Mix\Various - Italo Boot Mix CD2.wav
Пиковый уровень 99.4 %
Качество диапазона 100.0 %
CRC теста 56E9FDBB
CRC копии 56E9FDBB
Копирование... OK
Ошибок не произошло
AccurateRip: сводка
Трек 1 точное извлечение (доверие 1) [F1B4CB14]
Трек 2 точное извлечение (доверие 1) [4B43C811]
Трек 3 точное извлечение (доверие 1) [6033CEBB]
Трек 4 точное извлечение (доверие 1) [418ECD94]
Трек 5 точное извлечение (доверие 1) [974F3677]
Трек 6 точное извлечение (доверие 1) [5F6EC213]
Трек 7 точное извлечение (доверие 1) [984C1049]
Трек 8 точное извлечение (доверие 1) [9310B9C7]
Трек 9 точное извлечение (доверие 1) [41FBB13A]
Трек 10 точное извлечение (доверие 1) [CB2D8271]
Трек 11 точное извлечение (доверие 1) [B852768E]
Трек 12 точное извлечение (доверие 1) [F17FEDDD]
Трек 13 точное извлечение (доверие 1) [5A107D23]
Трек 14 точное извлечение (доверие 1) [21BC57A5]
Трек 15 точное извлечение (доверие 1) [BB76E2DB]
Трек 16 точное извлечение (доверие 1) [E1939FE2]
Трек 17 точное извлечение (доверие 1) [5C03DAF9]
Трек 18 точное извлечение (доверие 1) [A7C34FC8]
Трек 19 точное извлечение (доверие 1) [1CE4BB5A]
Трек 20 точное извлечение (доверие 1) [0D50FD94]
Все треки извлечены точно
Конец отчёта
Exact Audio Copy V0.99 prebeta 5 from 4. May 2009
Отчёт EAC об извлечении, выполненном 29. марта 2010, 18:48
Various / Italo Boot Mix Vol.2 CD1
Дисковод: HL-DT-STDVD-RAM GH22NS30 Adapter: 2 ID: 1
Режим чтения : Достоверность
Использование точного потока : Да
Отключение кэша аудио : Да
Использование указателей C2 : Нет
Коррекция смещения при чтении : 102
Способность читать области Lead-in и Lead-out : Нет
Заполнение пропущенных сэмплов тишиной : Да
Удаление блоков с тишиной в начале и конце : Нет
При вычислениях CRC использовались нулевые сэмплы : Да
Интерфейс : Установленный внешний ASPI-интерфейс
Выходной формат : Внутренние WAV-операции
Формат сэмплов : 44.100 Гц; 16 бит; стерео
Смещение при сжатии : 0
TOC извлечённого CD
Трек | Старт | Длительность | Начальный сектор | Конечный сектор
---------------------------------------------------------------------
1 | 0:00.00 | 2:16.65 | 0 | 10264
2 | 2:16.65 | 2:17.34 | 10265 | 20573
3 | 4:34.24 | 2:02.27 | 20574 | 29750
4 | 6:36.51 | 2:11.39 | 29751 | 39614
5 | 8:48.15 | 1:54.72 | 39615 | 48236
6 | 10:43.12 | 2:07.47 | 48237 | 57808
7 | 12:50.59 | 2:16.30 | 57809 | 68038
8 | 15:07.14 | 2:02.60 | 68039 | 77248
9 | 17:09.74 | 3:20.45 | 77249 | 92293
10 | 20:30.44 | 2:23.26 | 92294 | 103044
11 | 22:53.70 | 2:15.53 | 103045 | 113222
12 | 25:09.48 | 3:07.63 | 113223 | 127310
13 | 28:17.36 | 1:46.17 | 127311 | 135277
14 | 30:03.53 | 3:50.20 | 135278 | 152547
15 | 33:53.73 | 2:38.43 | 152548 | 164440
16 | 36:32.41 | 2:42.44 | 164441 | 176634
17 | 39:15.10 | 2:42.47 | 176635 | 188831
18 | 41:57.57 | 1:34.51 | 188832 | 195932
19 | 43:32.33 | 2:56.64 | 195933 | 209196
20 | 46:29.22 | 3:05.43 | 209197 | 223114
21 | 49:34.65 | 2:34.44 | 223115 | 234708
22 | 52:09.34 | 2:25.73 | 234709 | 245656
23 | 54:35.32 | 2:42.54 | 245657 | 257860
24 | 57:18.11 | 2:39.32 | 257861 | 269817
25 | 59:57.43 | 2:46.58 | 269818 | 282325
26 | 62:44.26 | 3:50.74 | 282326 | 299649
27 | 66:35.25 | 3:14.59 | 299650 | 314258
28 | 69:50.09 | 3:43.08 | 314259 | 330991
Характеристики диапазона извлечения и сообщения об ошибках
Выбранный диапазон
Имя файла C:\Downloads\Italo Boot Mix\Italo Boot Mix Vol.2\Various - Italo Boot Mix Vol.2 CD1.wav
Пиковый уровень 100.0 %
Качество диапазона 100.0 %
CRC теста CD07E49B
CRC копии CD07E49B
Копирование... OK
Ошибок не произошло
AccurateRip: сводка
Трек 1 нет в базе данных
Трек 2 нет в базе данных
Трек 3 нет в базе данных
Трек 4 нет в базе данных
Трек 5 нет в базе данных
Трек 6 нет в базе данных
Трек 7 нет в базе данных
Трек 8 нет в базе данных
Трек 9 нет в базе данных
Трек 10 нет в базе данных
Трек 11 нет в базе данных
Трек 12 нет в базе данных
Трек 13 нет в базе данных
Трек 14 нет в базе данных
Трек 15 нет в базе данных
Трек 16 нет в базе данных
Трек 17 нет в базе данных
Трек 18 нет в базе данных
Трек 19 нет в базе данных
Трек 20 нет в базе данных
Трек 21 нет в базе данных
Трек 22 нет в базе данных
Трек 23 нет в базе данных
Трек 24 нет в базе данных
Трек 25 нет в базе данных
Трек 26 нет в базе данных
Трек 27 нет в базе данных
Трек 28 нет в базе данных
Ни одного трека нет в базе AccurateRip
Конец отчёта
Exact Audio Copy V0.99 prebeta 5 from 4. May 2009
Отчёт EAC об извлечении, выполненном 29. марта 2010, 22:13
Various / Italo Boot Mix Vol.2 CD2
Дисковод: HL-DT-STDVD-RAM GH22NS30 Adapter: 2 ID: 1
Режим чтения : Достоверность
Использование точного потока : Да
Отключение кэша аудио : Да
Использование указателей C2 : Нет
Коррекция смещения при чтении : 102
Способность читать области Lead-in и Lead-out : Нет
Заполнение пропущенных сэмплов тишиной : Да
Удаление блоков с тишиной в начале и конце : Нет
При вычислениях CRC использовались нулевые сэмплы : Да
Интерфейс : Установленный внешний ASPI-интерфейс
Выходной формат : Внутренние WAV-операции
Формат сэмплов : 44.100 Гц; 16 бит; стерео
Смещение при сжатии : 0
TOC извлечённого CD
Трек | Старт | Длительность | Начальный сектор | Конечный сектор
---------------------------------------------------------------------
1 | 0:00.00 | 3:18.64 | 0 | 14913
2 | 3:18.64 | 3:09.58 | 14914 | 29146
3 | 6:28.47 | 2:01.53 | 29147 | 38274
4 | 8:30.25 | 2:28.46 | 38275 | 49420
5 | 10:58.71 | 3:41.40 | 49421 | 66035
6 | 14:40.36 | 2:00.23 | 66036 | 75058
7 | 16:40.59 | 1:53.34 | 75059 | 83567
8 | 18:34.18 | 2:03.12 | 83568 | 92804
9 | 20:37.30 | 2:07.11 | 92805 | 102340
10 | 22:44.41 | 3:02.66 | 102341 | 116056
11 | 25:47.32 | 2:51.09 | 116057 | 128890
12 | 28:38.41 | 1:35.13 | 128891 | 136028
13 | 30:13.54 | 2:05.13 | 136029 | 145416
14 | 32:18.67 | 2:58.02 | 145417 | 158768
15 | 35:16.69 | 1:48.01 | 158769 | 166869
16 | 37:04.70 | 2:15.41 | 166870 | 177035
17 | 39:20.36 | 2:42.63 | 177036 | 189248
18 | 42:03.24 | 4:26.61 | 189249 | 209259
19 | 46:30.10 | 2:01.68 | 209260 | 218402
20 | 48:32.03 | 2:03.39 | 218403 | 227666
21 | 50:35.42 | 3:19.30 | 227667 | 242621
22 | 53:54.72 | 3:13.15 | 242622 | 257111
23 | 57:08.12 | 1:48.52 | 257112 | 265263
24 | 58:56.64 | 2:58.07 | 265264 | 278620
25 | 61:54.71 | 3:03.36 | 278621 | 292381
26 | 64:58.32 | 2:22.11 | 292382 | 303042
27 | 67:20.43 | 3:48.27 | 303043 | 320169
28 | 71:08.70 | 2:40.20 | 320170 | 332189
Характеристики диапазона извлечения и сообщения об ошибках
Выбранный диапазон
Имя файла C:\Downloads\Italo Boot Mix\Italo Boot Mix Vol.2\Various - Italo Boot Mix Vol.2 CD2.wav
Пиковый уровень 100.0 %
Качество диапазона 100.0 %
CRC теста F2A7E271
CRC копии F2A7E271
Копирование... OK
Ошибок не произошло
AccurateRip: сводка
Трек 1 нет в базе данных
Трек 2 нет в базе данных
Трек 3 нет в базе данных
Трек 4 нет в базе данных
Трек 5 нет в базе данных
Трек 6 нет в базе данных
Трек 7 нет в базе данных
Трек 8 нет в базе данных
Трек 9 нет в базе данных
Трек 10 нет в базе данных
Трек 11 нет в базе данных
Трек 12 нет в базе данных
Трек 13 нет в базе данных
Трек 14 нет в базе данных
Трек 15 нет в базе данных
Трек 16 нет в базе данных
Трек 17 нет в базе данных
Трек 18 нет в базе данных
Трек 19 нет в базе данных
Трек 20 нет в базе данных
Трек 21 нет в базе данных
Трек 22 нет в базе данных
Трек 23 нет в базе данных
Трек 24 нет в базе данных
Трек 25 нет в базе данных
Трек 26 нет в базе данных
Трек 27 нет в базе данных
Трек 28 нет в базе данных
Ни одного трека нет в базе AccurateRip
Конец отчёта

[1.84 GB] Скачать / Download