(Italo-Disco/Euro-House) Scotch Vs. Disco DJ - Disco Band 2003 (Maxi CD Single) - 2003, FLAC (tracks+.cue), lossless - Скачать

Жанр: Italo-Disco/Euro-House
Носитель: CDM
Страна-производитель диска (релиза): Germany
Год издания: 2003
Издатель (лейбл): ZYX Music
Номер по каталогу: ZYX 9703-8
Аудиокодек: FLAC (*.flac)
Тип рипа: tracks+.cue
Битрейт аудио: lossless
Продолжительность: 00:20:41
Источник (релизер): own rip
Наличие сканов в содержимом раздачи: да

1. Scotch vs. Disco Dj -Disco Band 2003(Radio Edit) (3:35)
2. Scotch vs. Disco Dj -Disco Band 2003(Extended Version) (6:14)
3. Scotch vs. Disco Dj -Disco Band 2003(Club Mix) (5:27)
4. Scotch vs. Disco Dj -Disco Band 2003(Original Version) (5:25)

бесплатно, lossless, композиции, cd, альбом, высокое качество, torrent, pop, музыка, download, скачать, песни, дискография, торрент, soundtrack, альбом, трек, mp3, поп-музыка, поп, pop-music

 Exact Audio Copy V1.0 beta 3 from 29. August 2011
EAC extraction logfile from 22. June 2015, 22:59
Scotch vs. Disco Dj / Disco Band 2003
Used drive : TSSTcorpCDDVDW SN-208BB Adapter: 0 ID: 0
Read mode : Secure
Utilize accurate stream : Yes
Defeat audio cache : Yes
Make use of C2 pointers : No
Read offset correction : 6
Overread into Lead-In and Lead-Out : No
Fill up missing offset samples with silence : Yes
Delete leading and trailing silent blocks : No
Null samples used in CRC calculations : Yes
Used interface : Native Win32 interface for Win NT & 2000
Gap handling : Appended to previous track
Used output format : User Defined Encoder
Selected bitrate : 1024 kBit/s
Quality : High
Add ID3 tag : No
Command line compressor : C:\Program Files (x86)\Exact Audio Copy\Flac\flac.exe
Additional command line options : -8 -V -T "artist=%artist%" -T "title=%title%" -T "album=%albumtitle%" -T "date=%year%" -T "tracknumber=%tracknr%" -T "genre=%genre%" %source%
TOC of the extracted CD
Track | Start | Length | Start sector | End sector
---------------------------------------------------------
1 | 0:00.00 | 3:34.57 | 0 | 16106
2 | 3:34.57 | 6:13.50 | 16107 | 44131
3 | 9:48.32 | 5:27.16 | 44132 | 68672
4 | 15:15.48 | 5:25.16 | 68673 | 93063
Track 1
Filename E:\Torrent\Scotch Vs. Disco DJ - Disco Band 2003 (Maxi CD Single)\01 Disco Band 2003 (Radio Edit).wav
Pre-gap length 0:00:02.00
Peak level 96.6 %
Extraction speed 1.4 X
Track quality 99.9 %
Test CRC C9F2200C
Copy CRC C9F2200C
Accurately ripped (confidence 1) [82E03DAA] (AR v2)
Copy OK
Track 2
Filename E:\Torrent\Scotch Vs. Disco DJ - Disco Band 2003 (Maxi CD Single)\02 Disco Band 2003 (Extended Version).wav
Pre-gap length 0:00:02.00
Peak level 91.1 %
Extraction speed 2.0 X
Track quality 100.0 %
Test CRC 17951E95
Copy CRC 17951E95
Accurately ripped (confidence 1) [61A04123] (AR v2)
Copy OK
Track 3
Filename E:\Torrent\Scotch Vs. Disco DJ - Disco Band 2003 (Maxi CD Single)\03 Disco Band 2003 (Club Mix).wav
Pre-gap length 0:00:02.00
Peak level 96.6 %
Extraction speed 2.2 X
Track quality 100.0 %
Test CRC EDD94F87
Copy CRC EDD94F87
Accurately ripped (confidence 1) [F30969EA] (AR v2)
Copy OK
Track 4
Filename E:\Torrent\Scotch Vs. Disco DJ - Disco Band 2003 (Maxi CD Single)\04 Disco Band (Original Version).wav
Pre-gap length 0:00:02.00
Peak level 96.6 %
Extraction speed 2.4 X
Track quality 100.0 %
Test CRC 8A0398DD
Copy CRC 8A0398DD
Accurately ripped (confidence 1) [909FB69E] (AR v2)
Copy OK
All tracks accurately ripped
No errors occurred
End of status report
 REM GENRE Dance
REM DATE 2003
REM DISCID 2A04D804
REM COMMENT "ExactAudioCopy v1.0b3"
PERFORMER "Scotch vs. Disco Dj"
TITLE "Disco Band 2003"
FILE "01 Disco Band 2003 (Radio Edit).wav" WAVE
TRACK 01 AUDIO
TITLE "Disco Band 2003 (Radio Edit)"
PERFORMER "Scotch vs. Disco Dj"
ISRC DEA310300892
INDEX 01 00:00:00
TRACK 02 AUDIO
TITLE "Disco Band 2003 (Extended Version)"
PERFORMER "Scotch vs. Disco Dj"
ISRC DEA310300893
INDEX 00 03:32:57
FILE "02 Disco Band 2003 (Extended Version).wav" WAVE
INDEX 01 00:00:00
TRACK 03 AUDIO
TITLE "Disco Band 2003 (Club Mix)"
PERFORMER "Scotch vs. Disco Dj"
ISRC DEA310300894
INDEX 00 06:11:50
FILE "03 Disco Band 2003 (Club Mix).wav" WAVE
INDEX 01 00:00:00
TRACK 04 AUDIO
TITLE "Disco Band (Original Version)"
PERFORMER "Scotch vs. Disco Dj"
ISRC DEA310300895
INDEX 00 05:25:16
FILE "04 Disco Band (Original Version).wav" WAVE
INDEX 01 00:00:00

[158.3 MB] Скачать / Download