(Italo-Disco, Europop, Hi NRG, Synth-pop, Disco) VA - 80's Revolution - Italo Disco Volume 5 (2CD) - 2013, FLAC (image+.cue), lossless - Скачать

Жанр: Italo-Disco, Europop, Hi NRG, Synth-pop, Disco
Страна-производитель диска: Germany
Год издания: 2013
Издатель (лейбл): PMS
Номер по каталогу: PMS 010
Страна: Germany
Аудиокодек: FLAC (*.flac)
Тип рипа: image+.cue
Битрейт аудио: lossless
Продолжительность: 1:17:34+1:17:26
Источник (релизер): 风中劲草
Наличие сканов в содержимом раздачи: да
Треклист:
CD1
01 Colors – Lonely Night (Vocal Version) 6:12
02 Kristal – Love In Stereo (12" Version) 5:29
03 Max Him– Japanese Girl (Vocal Remix) 6:29
04 Sir Valentine - And I Love Her (Mix Version) 5:20
05 Mex – Yummy Giver (Medley: Yummy, Yummy, Yummy - Indian Giver) 6:00
06 Joy Michael – Dancin' (Vocal Version) 5:47
07 Digital Game – Please Don't Go (12" Version) 7:12
08 Diego – Walk In The Night (12" Version) 9:29
09 Fabrizio Simoncioni – Susy Oh! (Dance Version) 6:52
10 Daryl Scott – I Need You Now (Vocal Version) 7:29
11 Ken Laszlo – Red Man (12" Version) 5:53
12 New Company, The – Tomorrow (Vocal Version) 5:27
CD2
01 Diva – No More In Love (Vocal Version) 5:53
02 Dorian Gray – Cry (Vocal Version) 5:32
03 Radiorama – I Don't Wanna Lose You (12" Version) 7:23
04 Imhan – One Million (12" Version) 6:19
05 R. Bais – Dial My Number (12" Version) 5:50
06 Dario Dell'Aere – Eagles In The Night (12" Version) 8:21
07 Paul Faber – Only One (Mix Version) 6:35
08 Scotch – Pictures (12" Version) 5:24
09 Venus) – Caballeros (Vocal Version) 6:44
10 Chip Chip – Everything You Love (Extended Version) 6:11
11 Valerie Dore – Get Closer (Vocal Version) 6:15
12 Carrara – Disco King (Instrumental) 6:59

pop, поп, lossless, скачать, альбом, pop-music, торрент, download, поп-музыка, mp3, высокое качество, музыка, альбом, бесплатно, soundtrack, torrent, песни, композиции, трек, дискография, cd

 
CD1
Exact Audio Copy V1.0 beta 3 from 29. August 2011
EAC extraction logfile from 2. July 2013, 13:12
VA / 80's Revolution - Italo Disco Volume 5 - CD1
Used drive : TSSTcorpCDDVDW SH-224BB Adapter: 4 ID: 1
Read mode : Secure
Utilize accurate stream : Yes
Defeat audio cache : Yes
Make use of C2 pointers : No
Read offset correction : 6
Overread into Lead-In and Lead-Out : No
Fill up missing offset samples with silence : Yes
Delete leading and trailing silent blocks : No
Null samples used in CRC calculations : Yes
Used interface : Native Win32 interface for Win NT & 2000
Used output format : User Defined Encoder
Selected bitrate : 1024 kBit/s
Quality : High
Add ID3 tag : No
Command line compressor : D:\EAC---强版\Exact Audio Copy\FLAC\FLAC.EXE
Additional command line options : -6 -V -T "ARTIST=%artist%" -T "TITLE=%title%" -T "ALBUM=%albumtitle%" -T "DATE=%year%" -T "TRACKNUMBER=%tracknr%" -T "GENRE=%genre%" -T "COMMENT=%comment%" -T "BAND=%albuminterpret%" -T "ALBUMARTIST=%albuminterpret%" -T "COMPOSER=%composer%" %haslyrics%--tag-from-file=LYRICS="%lyricsfile%"%haslyrics% -T "DISCNUMBER=%cdnumber%" -T "TOTALDISCS=%totalcds%" -T "TOTALTRACKS=%numtracks%" %hascover%--picture="%coverfile%"%hascover% %source% -o %dest%
TOC of the extracted CD
Track | Start | Length | Start sector | End sector
---------------------------------------------------------
1 | 0:00.00 | 6:12.00 | 0 | 27899
2 | 6:12.00 | 5:29.00 | 27900 | 52574
3 | 11:41.00 | 6:29.00 | 52575 | 81749
4 | 18:10.00 | 5:20.00 | 81750 | 105749
5 | 23:30.00 | 5:55.00 | 105750 | 132374
6 | 29:25.00 | 5:47.00 | 132375 | 158399
7 | 35:12.00 | 7:12.00 | 158400 | 190799
8 | 42:24.00 | 9:29.00 | 190800 | 233474
9 | 51:53.00 | 6:52.00 | 233475 | 264374
10 | 58:45.00 | 7:29.00 | 264375 | 298049
11 | 66:14.00 | 5:53.00 | 298050 | 324524
12 | 72:07.00 | 5:27.00 | 324525 | 349049
Range status and errors
Selected range
Filename E:\VA - 80's Revolution - Italo Disco Volume 5 - CD1.wav
Peak level 97.6 %
Extraction speed 6.4 X
Range quality 99.9 %
Copy CRC 83DFFDE6
Copy OK
No errors occurred
End of status report[pre]
CD2
Exact Audio Copy V1.0 beta 3 from 29. August 2011
EAC extraction logfile from 2. July 2013, 13:51
VA / 80's Revolution - Italo Disco Volume 5 - CD2
Used drive : TSSTcorpCDDVDW SH-224BB Adapter: 4 ID: 1
Read mode : Secure
Utilize accurate stream : Yes
Defeat audio cache : Yes
Make use of C2 pointers : No
Read offset correction : 6
Overread into Lead-In and Lead-Out : No
Fill up missing offset samples with silence : Yes
Delete leading and trailing silent blocks : No
Null samples used in CRC calculations : Yes
Used interface : Native Win32 interface for Win NT & 2000
Used output format : User Defined Encoder
Selected bitrate : 1024 kBit/s
Quality : High
Add ID3 tag : No
Command line compressor : D:\EAC---强版\Exact Audio Copy\FLAC\FLAC.EXE
Additional command line options : -6 -V -T "ARTIST=%artist%" -T "TITLE=%title%" -T "ALBUM=%albumtitle%" -T "DATE=%year%" -T "TRACKNUMBER=%tracknr%" -T "GENRE=%genre%" -T "COMMENT=%comment%" -T "BAND=%albuminterpret%" -T "ALBUMARTIST=%albuminterpret%" -T "COMPOSER=%composer%" %haslyrics%--tag-from-file=LYRICS="%lyricsfile%"%haslyrics% -T "DISCNUMBER=%cdnumber%" -T "TOTALDISCS=%totalcds%" -T "TOTALTRACKS=%numtracks%" %hascover%--picture="%coverfile%"%hascover% %source% -o %dest%
TOC of the extracted CD
Track | Start | Length | Start sector | End sector
---------------------------------------------------------
1 | 0:00.00 | 5:53.00 | 0 | 26474
2 | 5:53.00 | 5:32.00 | 26475 | 51374
3 | 11:25.00 | 7:23.00 | 51375 | 84599
4 | 18:48.00 | 6:19.00 | 84600 | 113024
5 | 25:07.00 | 5:50.00 | 113025 | 139274
6 | 30:57.00 | 8:21.00 | 139275 | 176849
7 | 39:18.00 | 6:35.00 | 176850 | 206474
8 | 45:53.00 | 5:24.00 | 206475 | 230774
9 | 51:17.00 | 6:44.00 | 230775 | 261074
10 | 58:01.00 | 6:11.00 | 261075 | 288899
11 | 64:12.00 | 6:15.00 | 288900 | 317024
12 | 70:27.00 | 6:59.00 | 317025 | 348449
Range status and errors
Selected range
Filename E:\VA - 80's Revolution - Italo Disco Volume 5 - CD2.wav
Peak level 97.0 %
Extraction speed 8.2 X
Range quality 99.9 %
Copy CRC 6E42D057
Copy OK
No errors occurred
End of status report
Exact Audio Copy V1.0 beta 3 from 29. August 2011
EAC extraction logfile from 2. July 2013, 13:12
VA / 80's Revolution - Italo Disco Volume 5 - CD1
Used drive : TSSTcorpCDDVDW SH-224BB Adapter: 4 ID: 1
Read mode : Secure
Utilize accurate stream : Yes
Defeat audio cache : Yes
Make use of C2 pointers : No
Read offset correction : 6
Overread into Lead-In and Lead-Out : No
Fill up missing offset samples with silence : Yes
Delete leading and trailing silent blocks : No
Null samples used in CRC calculations : Yes
Used interface : Native Win32 interface for Win NT & 2000
Used output format : User Defined Encoder
Selected bitrate : 1024 kBit/s
Quality : High
Add ID3 tag : No
Command line compressor : D:\EAC---强版\Exact Audio Copy\FLAC\FLAC.EXE
Additional command line options : -6 -V -T "ARTIST=%artist%" -T "TITLE=%title%" -T "ALBUM=%albumtitle%" -T "DATE=%year%" -T "TRACKNUMBER=%tracknr%" -T "GENRE=%genre%" -T "COMMENT=%comment%" -T "BAND=%albuminterpret%" -T "ALBUMARTIST=%albuminterpret%" -T "COMPOSER=%composer%" %haslyrics%--tag-from-file=LYRICS="%lyricsfile%"%haslyrics% -T "DISCNUMBER=%cdnumber%" -T "TOTALDISCS=%totalcds%" -T "TOTALTRACKS=%numtracks%" %hascover%--picture="%coverfile%"%hascover% %source% -o %dest%
TOC of the extracted CD
Track | Start | Length | Start sector | End sector
---------------------------------------------------------
1 | 0:00.00 | 6:12.00 | 0 | 27899
2 | 6:12.00 | 5:29.00 | 27900 | 52574
3 | 11:41.00 | 6:29.00 | 52575 | 81749
4 | 18:10.00 | 5:20.00 | 81750 | 105749
5 | 23:30.00 | 5:55.00 | 105750 | 132374
6 | 29:25.00 | 5:47.00 | 132375 | 158399
7 | 35:12.00 | 7:12.00 | 158400 | 190799
8 | 42:24.00 | 9:29.00 | 190800 | 233474
9 | 51:53.00 | 6:52.00 | 233475 | 264374
10 | 58:45.00 | 7:29.00 | 264375 | 298049
11 | 66:14.00 | 5:53.00 | 298050 | 324524
12 | 72:07.00 | 5:27.00 | 324525 | 349049
Range status and errors
Selected range
Filename E:\VA - 80's Revolution - Italo Disco Volume 5 - CD1.wav
Peak level 97.6 %
Extraction speed 6.4 X
Range quality 99.9 %
Copy CRC 83DFFDE6
Copy OK
No errors occurred
End of status report[pre]
Exact Audio Copy V1.0 beta 3 from 29. August 2011
EAC extraction logfile from 2. July 2013, 13:51
VA / 80's Revolution - Italo Disco Volume 5 - CD2
Used drive : TSSTcorpCDDVDW SH-224BB Adapter: 4 ID: 1
Read mode : Secure
Utilize accurate stream : Yes
Defeat audio cache : Yes
Make use of C2 pointers : No
Read offset correction : 6
Overread into Lead-In and Lead-Out : No
Fill up missing offset samples with silence : Yes
Delete leading and trailing silent blocks : No
Null samples used in CRC calculations : Yes
Used interface : Native Win32 interface for Win NT & 2000
Used output format : User Defined Encoder
Selected bitrate : 1024 kBit/s
Quality : High
Add ID3 tag : No
Command line compressor : D:\EAC---强版\Exact Audio Copy\FLAC\FLAC.EXE
Additional command line options : -6 -V -T "ARTIST=%artist%" -T "TITLE=%title%" -T "ALBUM=%albumtitle%" -T "DATE=%year%" -T "TRACKNUMBER=%tracknr%" -T "GENRE=%genre%" -T "COMMENT=%comment%" -T "BAND=%albuminterpret%" -T "ALBUMARTIST=%albuminterpret%" -T "COMPOSER=%composer%" %haslyrics%--tag-from-file=LYRICS="%lyricsfile%"%haslyrics% -T "DISCNUMBER=%cdnumber%" -T "TOTALDISCS=%totalcds%" -T "TOTALTRACKS=%numtracks%" %hascover%--picture="%coverfile%"%hascover% %source% -o %dest%
TOC of the extracted CD
Track | Start | Length | Start sector | End sector
---------------------------------------------------------
1 | 0:00.00 | 5:53.00 | 0 | 26474
2 | 5:53.00 | 5:32.00 | 26475 | 51374
3 | 11:25.00 | 7:23.00 | 51375 | 84599
4 | 18:48.00 | 6:19.00 | 84600 | 113024
5 | 25:07.00 | 5:50.00 | 113025 | 139274
6 | 30:57.00 | 8:21.00 | 139275 | 176849
7 | 39:18.00 | 6:35.00 | 176850 | 206474
8 | 45:53.00 | 5:24.00 | 206475 | 230774
9 | 51:17.00 | 6:44.00 | 230775 | 261074
10 | 58:01.00 | 6:11.00 | 261075 | 288899
11 | 64:12.00 | 6:15.00 | 288900 | 317024
12 | 70:27.00 | 6:59.00 | 317025 | 348449
Range status and errors
Selected range
Filename E:\VA - 80's Revolution - Italo Disco Volume 5 - CD2.wav
Peak level 97.0 %
Extraction speed 8.2 X
Range quality 99.9 %
Copy CRC 6E42D057
Copy OK
No errors occurred
End of status report
 
CD1
REM GENRE Disco
REM DATE 2013
REM DISCID A2122E0C
REM COMMENT "ExactAudioCopy v1.0b3"
PERFORMER "VA"
TITLE "80's Revolution - Italo Disco Volume 5 - CD1"
FILE "VA - 80's Revolution - Italo Disco Volume 5 - CD1.flac" WAVE
TRACK 01 AUDIO
TITLE "Lonely Night (Vocal Version)"
PERFORMER "Colors"
INDEX 01 00:00:00
TRACK 02 AUDIO
TITLE "Love In Stereo (12' Version)"
PERFORMER "Kristal"
INDEX 01 06:12:00
TRACK 03 AUDIO
TITLE "Japanese Girl (Vocal Remix)"
PERFORMER "Max Him"
INDEX 01 11:41:00
TRACK 04 AUDIO
TITLE "And I Love Her (Mix Version)"
PERFORMER "Sir Valentine"
INDEX 01 18:10:00
TRACK 05 AUDIO
TITLE "Yummy Giver (Medley: Yummy, Yummy, Yummy - Indian Giver)"
PERFORMER "Mex"
INDEX 01 23:30:00
TRACK 06 AUDIO
TITLE "Dancin' (Vocal Version)"
PERFORMER "Joy Michael"
INDEX 01 29:25:00
TRACK 07 AUDIO
TITLE "Please Don't Go (12' Version)"
PERFORMER "Digital Game"
INDEX 01 35:12:00
TRACK 08 AUDIO
TITLE "Walk In The Night (12' Version)"
PERFORMER "Diego"
INDEX 01 42:24:00
TRACK 09 AUDIO
TITLE "Susy Oh! (Dance Version)"
PERFORMER "Fabrizio Simoncioni"
INDEX 01 51:53:00
TRACK 10 AUDIO
TITLE "I Need You Now (Vocal Version)"
PERFORMER "Daryl Scott"
INDEX 01 58:45:00
TRACK 11 AUDIO
TITLE "Red Man (12' Version)"
PERFORMER "Ken Laszlo"
INDEX 01 66:14:00
TRACK 12 AUDIO
TITLE "Tomorrow (Vocal Version)"
PERFORMER "New Company, The"
INDEX 01 72:07:00
CD2
REM GENRE Disco
REM DATE 2013
REM DISCID B712260C
REM COMMENT "ExactAudioCopy v1.0b3"
PERFORMER "VA"
TITLE "80's Revolution - Italo Disco Volume 5 - CD2"
FILE "VA - 80's Revolution - Italo Disco Volume 5 - CD2.flac" WAVE
TRACK 01 AUDIO
TITLE "No More In Love (Vocal Version)"
PERFORMER "Diva"
INDEX 01 00:00:00
TRACK 02 AUDIO
TITLE "Cry (Vocal Version)"
PERFORMER "Dorian Gray"
INDEX 01 05:53:00
TRACK 03 AUDIO
TITLE "I Don't Wanna Lose You (12' Version)"
PERFORMER "Radiorama"
INDEX 01 11:25:00
TRACK 04 AUDIO
TITLE "One Million (12' Version)"
PERFORMER "Imhan"
INDEX 01 18:48:00
TRACK 05 AUDIO
TITLE "Dial My Number (12' Version)"
PERFORMER "R. Bais"
INDEX 01 25:07:00
TRACK 06 AUDIO
TITLE "Eagles In The Night (12' Version)"
PERFORMER "Dario Dell'Aere"
INDEX 01 30:57:00
TRACK 07 AUDIO
TITLE "Only One (Mix Version)"
PERFORMER "Paul Faber"
INDEX 01 39:18:00
TRACK 08 AUDIO
TITLE "Pictures (12' Version)"
PERFORMER "Scotch"
INDEX 01 45:53:00
TRACK 09 AUDIO
TITLE "Caballeros (Vocal Version)"
PERFORMER "Venus"
INDEX 01 51:17:00
TRACK 10 AUDIO
TITLE "Everything You Love (Extended Version)"
PERFORMER "Chip Chip"
INDEX 01 58:01:00
TRACK 11 AUDIO
TITLE "Get Closer (Vocal Version)"
PERFORMER "Valerie Dore"
INDEX 01 64:12:00
TRACK 12 AUDIO
TITLE "Disco King (Instrumental)"
PERFORMER "Carrara"
INDEX 01 70:27:00
REM GENRE Disco
REM DATE 2013
REM DISCID A2122E0C
REM COMMENT "ExactAudioCopy v1.0b3"
PERFORMER "VA"
TITLE "80's Revolution - Italo Disco Volume 5 - CD1"
FILE "VA - 80's Revolution - Italo Disco Volume 5 - CD1.flac" WAVE
TRACK 01 AUDIO
TITLE "Lonely Night (Vocal Version)"
PERFORMER "Colors"
INDEX 01 00:00:00
TRACK 02 AUDIO
TITLE "Love In Stereo (12' Version)"
PERFORMER "Kristal"
INDEX 01 06:12:00
TRACK 03 AUDIO
TITLE "Japanese Girl (Vocal Remix)"
PERFORMER "Max Him"
INDEX 01 11:41:00
TRACK 04 AUDIO
TITLE "And I Love Her (Mix Version)"
PERFORMER "Sir Valentine"
INDEX 01 18:10:00
TRACK 05 AUDIO
TITLE "Yummy Giver (Medley: Yummy, Yummy, Yummy - Indian Giver)"
PERFORMER "Mex"
INDEX 01 23:30:00
TRACK 06 AUDIO
TITLE "Dancin' (Vocal Version)"
PERFORMER "Joy Michael"
INDEX 01 29:25:00
TRACK 07 AUDIO
TITLE "Please Don't Go (12' Version)"
PERFORMER "Digital Game"
INDEX 01 35:12:00
TRACK 08 AUDIO
TITLE "Walk In The Night (12' Version)"
PERFORMER "Diego"
INDEX 01 42:24:00
TRACK 09 AUDIO
TITLE "Susy Oh! (Dance Version)"
PERFORMER "Fabrizio Simoncioni"
INDEX 01 51:53:00
TRACK 10 AUDIO
TITLE "I Need You Now (Vocal Version)"
PERFORMER "Daryl Scott"
INDEX 01 58:45:00
TRACK 11 AUDIO
TITLE "Red Man (12' Version)"
PERFORMER "Ken Laszlo"
INDEX 01 66:14:00
TRACK 12 AUDIO
TITLE "Tomorrow (Vocal Version)"
PERFORMER "New Company, The"
INDEX 01 72:07:00
REM GENRE Disco
REM DATE 2013
REM DISCID B712260C
REM COMMENT "ExactAudioCopy v1.0b3"
PERFORMER "VA"
TITLE "80's Revolution - Italo Disco Volume 5 - CD2"
FILE "VA - 80's Revolution - Italo Disco Volume 5 - CD2.flac" WAVE
TRACK 01 AUDIO
TITLE "No More In Love (Vocal Version)"
PERFORMER "Diva"
INDEX 01 00:00:00
TRACK 02 AUDIO
TITLE "Cry (Vocal Version)"
PERFORMER "Dorian Gray"
INDEX 01 05:53:00
TRACK 03 AUDIO
TITLE "I Don't Wanna Lose You (12' Version)"
PERFORMER "Radiorama"
INDEX 01 11:25:00
TRACK 04 AUDIO
TITLE "One Million (12' Version)"
PERFORMER "Imhan"
INDEX 01 18:48:00
TRACK 05 AUDIO
TITLE "Dial My Number (12' Version)"
PERFORMER "R. Bais"
INDEX 01 25:07:00
TRACK 06 AUDIO
TITLE "Eagles In The Night (12' Version)"
PERFORMER "Dario Dell'Aere"
INDEX 01 30:57:00
TRACK 07 AUDIO
TITLE "Only One (Mix Version)"
PERFORMER "Paul Faber"
INDEX 01 39:18:00
TRACK 08 AUDIO
TITLE "Pictures (12' Version)"
PERFORMER "Scotch"
INDEX 01 45:53:00
TRACK 09 AUDIO
TITLE "Caballeros (Vocal Version)"
PERFORMER "Venus"
INDEX 01 51:17:00
TRACK 10 AUDIO
TITLE "Everything You Love (Extended Version)"
PERFORMER "Chip Chip"
INDEX 01 58:01:00
TRACK 11 AUDIO
TITLE "Get Closer (Vocal Version)"
PERFORMER "Valerie Dore"
INDEX 01 64:12:00
TRACK 12 AUDIO
TITLE "Disco King (Instrumental)"
PERFORMER "Carrara"
INDEX 01 70:27:00

[1.04 GB] Скачать / Download