(Italo-Disco, Funk, Disco) VA - Disco Discharge: Euro Disco - 2009, FLAC (image+.cue), lossless - Скачать

Жанр: Italo-Disco, Funk, Disco
Год выпуска диска: 2009
Производитель диска: UK, Harmless
Аудио кодек: FLAC
Тип рипа: image+.cue
Битрейт аудио: lossless
Продолжительность: 2:35:14
Трэклист:

CD1
:
01. Don Ray - Garden Of Love (4:39)
02. Change - Angel In My Pocket (6:08)
03. Silver Convention - Love In A Sleeper (5:33)
04. Beautiful Bend - That's The Meaning-Boogie Motion (13:19)
05. Massara - Margherita (7:54)
06. Space - Magic Fly (4:17)
07. Giorgio Moroder - From Here To Eternity (5:53)
08. Sylvia Love - Extraterrestrial Lover (6:58)
09. Sparks - The Number One Song In Heaven (7:26)
10. Easy Going - Fear (7:53)
11. Vivien Vee - Give Me A Break (8:52)

CD2
:
01. Gaz Nevada - I. C. Love Affair (6:30)
02. Advance - Take Me To The Top (6:18)
03. Change - Change Of Heart (7:05)
04. Kano - I'm Ready (7:15)
05. Laura Branigan - Self Control (5:01)
06. Eighth Wonder - I'm Not Scared (Disco Mix) (8:00)
07. Propaganda - P Machinery (Polish) (9:23)
08. Mike Mareen - Dancing In The Dark (5:36)
09. Fun Fun - Happy Station (Scratch Mix) (5:57)
10. Time Bandits - Live It Up (Album Version) (7:25)
11. Yvonne Kay - Rise Up (For My Love) (Club Mix) (7:52)avax,ws

поп, композиции, бесплатно, download, альбом, pop-music, музыка, дискография, cd, высокое качество, torrent, альбом, скачать, трек, soundtrack, торрент, поп-музыка, lossless, pop, mp3, песни

e
 Exact Audio Copy V0.99 prebeta 5 from 4. May 2009
EAC extraction logfile from 7. November 2009, 16:21
Various / Disco Discharge: Euro Disco CD1
Used drive : HP DVD Writer 1040r Adapter: 1 ID: 0
Read mode : Secure
Utilize accurate stream : Yes
Defeat audio cache : Yes
Make use of C2 pointers : No
Read offset correction : 6
Overread into Lead-In and Lead-Out : No
Fill up missing offset samples with silence : Yes
Delete leading and trailing silent blocks : No
Null samples used in CRC calculations : Yes
Used interface : Native Win32 interface for Win NT & 2000
Used output format : User Defined Encoder
Selected bitrate : 1024 kBit/s
Quality : High
Add ID3 tag : No
Command line compressor : C:\Program Files\Exact Audio Copy\FLAC\FLAC.EXE
Additional command line options : -5 -V -T "ARTIST=%a" -T "TITLE=%t" -T "ALBUM=%g" -T "DATE=%y" -T "TRACKNUMBER=%n" -T "GENRE=%m" -T "COMMENT=EAC Flac 1.1.2 -5" %s
TOC of the extracted CD
Track | Start | Length | Start sector | End sector
---------------------------------------------------------
1 | 0:00.00 | 4:39.34 | 0 | 20958
2 | 4:39.34 | 6:08.26 | 20959 | 48584
3 | 10:47.60 | 5:33.06 | 48585 | 73565
4 | 16:20.66 | 13:19.56 | 73566 | 133546
5 | 29:40.47 | 7:54.02 | 133547 | 169098
6 | 37:34.49 | 4:17.30 | 169099 | 188403
7 | 41:52.04 | 5:53.00 | 188404 | 214878
8 | 47:45.04 | 6:58.70 | 214879 | 246298
9 | 54:43.74 | 7:26.56 | 246299 | 279804
10 | 62:10.55 | 7:53.52 | 279805 | 315331
11 | 70:04.32 | 8:52.07 | 315332 | 355238
Range status and errors
Selected range
Filename C:\Users\Mike3\Desktop\Disco Discharge - Euro Disco (Flac)\Disc 1\Various - Disco Discharge Euro Disco CD1.wav
Suspicious position 1:18:56
Peak level 100.0 %
Range quality 99.9 %
Copy CRC E9B7F646
Copy finished
There were errors
AccurateRip summary
Track 1 not present in database
Track 2 not present in database
Track 3 not present in database
Track 4 not present in database
Track 5 not present in database
Track 6 not present in database
Track 7 not present in database
Track 8 not present in database
Track 9 not present in database
Track 10 not present in database
Track 11 not present in database
None of the tracks are present in the AccurateRip database
End of status report
e
 Exact Audio Copy V0.99 prebeta 5 from 4. May 2009
EAC extraction logfile from 7. November 2009, 15:36
Various / Disco Discharge: Euro Disco CD2
Used drive : HP DVD Writer 1040r Adapter: 1 ID: 0
Read mode : Secure
Utilize accurate stream : Yes
Defeat audio cache : Yes
Make use of C2 pointers : No
Read offset correction : 6
Overread into Lead-In and Lead-Out : No
Fill up missing offset samples with silence : Yes
Delete leading and trailing silent blocks : No
Null samples used in CRC calculations : Yes
Used interface : Native Win32 interface for Win NT & 2000
Used output format : User Defined Encoder
Selected bitrate : 1024 kBit/s
Quality : High
Add ID3 tag : No
Command line compressor : C:\Program Files\Exact Audio Copy\FLAC\FLAC.EXE
Additional command line options : -5 -V -T "ARTIST=%a" -T "TITLE=%t" -T "ALBUM=%g" -T "DATE=%y" -T "TRACKNUMBER=%n" -T "GENRE=%m" -T "COMMENT=EAC Flac 1.1.2 -5" %s
TOC of the extracted CD
Track | Start | Length | Start sector | End sector
---------------------------------------------------------
1 | 0:00.00 | 6:30.17 | 0 | 29266
2 | 6:30.17 | 6:18.16 | 29267 | 57632
3 | 12:48.33 | 7:05.51 | 57633 | 89558
4 | 19:54.09 | 7:15.26 | 89559 | 122209
5 | 27:09.35 | 5:01.00 | 122210 | 144784
6 | 32:10.35 | 8:00.25 | 144785 | 180809
7 | 40:10.60 | 9:23.53 | 180810 | 223087
8 | 49:34.38 | 5:35.73 | 223088 | 248285
9 | 55:10.36 | 5:57.05 | 248286 | 275065
10 | 61:07.41 | 7:25.71 | 275066 | 308511
11 | 68:33.37 | 7:52.71 | 308512 | 343982
Range status and errors
Selected range
Filename C:\Users\Mike3\Desktop\Disco Discharge - Euro Disco (Flac)\Disc 2\Various - Disco Discharge Euro Disco CD2.wav
Peak level 100.0 %
Range quality 100.0 %
Copy CRC 813BB491
Copy OK
No errors occurred
AccurateRip summary
Track 1 not present in database
Track 2 not present in database
Track 3 not present in database
Track 4 not present in database
Track 5 not present in database
Track 6 not present in database
Track 7 not present in database
Track 8 not present in database
Track 9 not present in database
Track 10 not present in database
Track 11 not present in database
None of the tracks are present in the AccurateRip database
End of status report
a
 AUDIOCHECKER v2.0 beta (build 457) - by Dester - [email protected]
~~~~~~~~~~~~~~~~~~~~~~~~~~~~~~~~~~
-=== DO NOT EDIT THIS FILE! ===-
Path: ...\Disc 1
001 -=- Various - Disco Discharge Euro Disco CD1.flac -=- CDDA (100%)
263922004
a
 AUDIOCHECKER v2.0 beta (build 457) - by Dester - [email protected]
~~~~~~~~~~~~~~~~~~~~~~~~~~~~~~~~~~
-=== DO NOT EDIT THIS FILE! ===-
Path: ...\Disc 2
001 -=- Various - Disco Discharge Euro Disco CD2.flac -=- CDDA (100%)
241357140
 Exact Audio Copy V0.99 prebeta 5 from 4. May 2009
EAC extraction logfile from 7. November 2009, 16:21
Various / Disco Discharge: Euro Disco CD1
Used drive : HP DVD Writer 1040r Adapter: 1 ID: 0
Read mode : Secure
Utilize accurate stream : Yes
Defeat audio cache : Yes
Make use of C2 pointers : No
Read offset correction : 6
Overread into Lead-In and Lead-Out : No
Fill up missing offset samples with silence : Yes
Delete leading and trailing silent blocks : No
Null samples used in CRC calculations : Yes
Used interface : Native Win32 interface for Win NT & 2000
Used output format : User Defined Encoder
Selected bitrate : 1024 kBit/s
Quality : High
Add ID3 tag : No
Command line compressor : C:\Program Files\Exact Audio Copy\FLAC\FLAC.EXE
Additional command line options : -5 -V -T "ARTIST=%a" -T "TITLE=%t" -T "ALBUM=%g" -T "DATE=%y" -T "TRACKNUMBER=%n" -T "GENRE=%m" -T "COMMENT=EAC Flac 1.1.2 -5" %s
TOC of the extracted CD
Track | Start | Length | Start sector | End sector
---------------------------------------------------------
1 | 0:00.00 | 4:39.34 | 0 | 20958
2 | 4:39.34 | 6:08.26 | 20959 | 48584
3 | 10:47.60 | 5:33.06 | 48585 | 73565
4 | 16:20.66 | 13:19.56 | 73566 | 133546
5 | 29:40.47 | 7:54.02 | 133547 | 169098
6 | 37:34.49 | 4:17.30 | 169099 | 188403
7 | 41:52.04 | 5:53.00 | 188404 | 214878
8 | 47:45.04 | 6:58.70 | 214879 | 246298
9 | 54:43.74 | 7:26.56 | 246299 | 279804
10 | 62:10.55 | 7:53.52 | 279805 | 315331
11 | 70:04.32 | 8:52.07 | 315332 | 355238
Range status and errors
Selected range
Filename C:\Users\Mike3\Desktop\Disco Discharge - Euro Disco (Flac)\Disc 1\Various - Disco Discharge Euro Disco CD1.wav
Suspicious position 1:18:56
Peak level 100.0 %
Range quality 99.9 %
Copy CRC E9B7F646
Copy finished
There were errors
AccurateRip summary
Track 1 not present in database
Track 2 not present in database
Track 3 not present in database
Track 4 not present in database
Track 5 not present in database
Track 6 not present in database
Track 7 not present in database
Track 8 not present in database
Track 9 not present in database
Track 10 not present in database
Track 11 not present in database
None of the tracks are present in the AccurateRip database
End of status report
 Exact Audio Copy V0.99 prebeta 5 from 4. May 2009
EAC extraction logfile from 7. November 2009, 15:36
Various / Disco Discharge: Euro Disco CD2
Used drive : HP DVD Writer 1040r Adapter: 1 ID: 0
Read mode : Secure
Utilize accurate stream : Yes
Defeat audio cache : Yes
Make use of C2 pointers : No
Read offset correction : 6
Overread into Lead-In and Lead-Out : No
Fill up missing offset samples with silence : Yes
Delete leading and trailing silent blocks : No
Null samples used in CRC calculations : Yes
Used interface : Native Win32 interface for Win NT & 2000
Used output format : User Defined Encoder
Selected bitrate : 1024 kBit/s
Quality : High
Add ID3 tag : No
Command line compressor : C:\Program Files\Exact Audio Copy\FLAC\FLAC.EXE
Additional command line options : -5 -V -T "ARTIST=%a" -T "TITLE=%t" -T "ALBUM=%g" -T "DATE=%y" -T "TRACKNUMBER=%n" -T "GENRE=%m" -T "COMMENT=EAC Flac 1.1.2 -5" %s
TOC of the extracted CD
Track | Start | Length | Start sector | End sector
---------------------------------------------------------
1 | 0:00.00 | 6:30.17 | 0 | 29266
2 | 6:30.17 | 6:18.16 | 29267 | 57632
3 | 12:48.33 | 7:05.51 | 57633 | 89558
4 | 19:54.09 | 7:15.26 | 89559 | 122209
5 | 27:09.35 | 5:01.00 | 122210 | 144784
6 | 32:10.35 | 8:00.25 | 144785 | 180809
7 | 40:10.60 | 9:23.53 | 180810 | 223087
8 | 49:34.38 | 5:35.73 | 223088 | 248285
9 | 55:10.36 | 5:57.05 | 248286 | 275065
10 | 61:07.41 | 7:25.71 | 275066 | 308511
11 | 68:33.37 | 7:52.71 | 308512 | 343982
Range status and errors
Selected range
Filename C:\Users\Mike3\Desktop\Disco Discharge - Euro Disco (Flac)\Disc 2\Various - Disco Discharge Euro Disco CD2.wav
Peak level 100.0 %
Range quality 100.0 %
Copy CRC 813BB491
Copy OK
No errors occurred
AccurateRip summary
Track 1 not present in database
Track 2 not present in database
Track 3 not present in database
Track 4 not present in database
Track 5 not present in database
Track 6 not present in database
Track 7 not present in database
Track 8 not present in database
Track 9 not present in database
Track 10 not present in database
Track 11 not present in database
None of the tracks are present in the AccurateRip database
End of status report
 AUDIOCHECKER v2.0 beta (build 457) - by Dester - [email protected]
~~~~~~~~~~~~~~~~~~~~~~~~~~~~~~~~~~
-=== DO NOT EDIT THIS FILE! ===-
Path: ...\Disc 1
001 -=- Various - Disco Discharge Euro Disco CD1.flac -=- CDDA (100%)
263922004
 AUDIOCHECKER v2.0 beta (build 457) - by Dester - [email protected]
~~~~~~~~~~~~~~~~~~~~~~~~~~~~~~~~~~
-=== DO NOT EDIT THIS FILE! ===-
Path: ...\Disc 2
001 -=- Various - Disco Discharge Euro Disco CD2.flac -=- CDDA (100%)
241357140

[1.04 GB] Скачать / Download