(Italo-Disco) Gazebo - Greatest Hits (Bootleg) - 1991, FLAC (image+.cue), lossless - Скачать

Жанр: Italo Disco
Год издания: 1991
Издатель (лейбл): BABY RECORDS
Номер по каталогу: 80079-2
Страна: Italy
Аудиокодек: FLAC (*.flac)
Тип рипа: image+.cue
Битрейт аудио: lossless
Продолжительность: 72:46
Источник (релизер): Собственный рип
Наличие сканов в содержимом раздачи: да
Треклист:
01. I Like Chopin
02. Love In Your Eyes
03. Lunatic (Long Version)
04. Masterpiece (Long Version)
05. Telephone Mama
06. Alice In Wonderland
07. Coincidence
08. Dolce Vita
09. For Anita
10. The Sun Goes Down On Milky Way
11. First!
12. Alphabet

торрент, cd, pop-music, дискография, высокое качество, download, lossless, музыка, композиции, поп, поп-музыка, soundtrack, скачать, альбом, бесплатно, pop, песни, трек, mp3, torrent, альбом

 Exact Audio Copy V1.0 beta 3 from 29. August 2011
Отчёт EAC об извлечении, выполненном 17. июня 2012, 0:27
Gazebo / Greatest Hits
Дисковод: PIONEER DVD-RW DVR-118L Adapter: 0 ID: 0
Режим чтения : Достоверность
Использование точного потока : Да
Отключение кэша аудио : Да
Использование указателей C2 : Нет
Коррекция смещения при чтении : 6
Способность читать области Lead-in и Lead-out : Нет
Заполнение пропущенных сэмплов тишиной : Да
Удаление блоков с тишиной в начале и конце : Нет
При вычислениях CRC использовались нулевые сэмплы : Да
Интерфейс : Встроенный Win32-интерфейс для Win NT/2000
Выходной формат : Пользовательский кодировщик
Выбранный битрейт : 1024 kBit/s
Качество : Высокий
Добавление ID3-тега : Нет
Утилита сжатия : C:\Program Files\FLAC\flac.exe
Дополнительные параметры : -V -8 -T "Date=%year%" -T "Genre=%genre%" %source%
TOC извлечённого CD
Трек | Старт | Длительность | Начальный сектор | Конечный сектор
---------------------------------------------------------------------
1 | 0:00.00 | 7:41.02 | 0 | 34576
2 | 7:41.02 | 7:49.23 | 34577 | 69774
3 | 15:30.25 | 6:11.67 | 69775 | 97666
4 | 21:42.17 | 9:26.50 | 97667 | 140166
5 | 31:08.67 | 5:45.60 | 140167 | 166101
6 | 36:54.52 | 5:56.18 | 166102 | 192819
7 | 42:50.70 | 8:01.07 | 192820 | 228901
8 | 50:52.02 | 5:35.08 | 228902 | 254034
9 | 56:27.10 | 5:45.42 | 254035 | 279951
10 | 62:12.52 | 4:22.03 | 279952 | 299604
11 | 66:34.55 | 3:33.35 | 299605 | 315614
12 | 70:08.15 | 2:38.10 | 315615 | 327474
Характеристики диапазона извлечения и сообщения об ошибках
Выбранный диапазон
Имя файла J:\Раздачи 2\GAZEBO_Greatest Hits_1991_by ikatsuro.EW8A_\Gazebo - Greatest Hits.wav
Пиковый уровень 98.8 %
Скорость извлечения 1.6 X
Качество диапазона 100.0 %
CRC теста C53A0A0A
CRC копии C53A0A0A
Копирование... OK
Ошибок не произошло
AccurateRip: сводка
Трек 1 отсутствует в базе данных
Трек 2 отсутствует в базе данных
Трек 3 отсутствует в базе данных
Трек 4 отсутствует в базе данных
Трек 5 отсутствует в базе данных
Трек 6 отсутствует в базе данных
Трек 7 отсутствует в базе данных
Трек 8 отсутствует в базе данных
Трек 9 отсутствует в базе данных
Трек 10 отсутствует в базе данных
Трек 11 отсутствует в базе данных
Трек 12 отсутствует в базе данных
Ни одного трека нет в базе AccurateRip
Конец отчёта
==== Контрольная сумма отчёта 269E0BE1FD4ADCE89AB8FE6B2233ACFD0A101725AF457CEF60B4B2A9C9CF7DEC ====
 REM GENRE Italodisco
REM DATE 1991
REM DISCID A6110E0C
REM COMMENT "ExactAudioCopy v1.0b3"
PERFORMER "Gazebo"
TITLE "Greatest Hits"
FILE "Gazebo - Greatest Hits.flac" WAVE
TRACK 01 AUDIO
TITLE "I Like Chopin"
PERFORMER "Gazebo"
INDEX 01 00:00:00
TRACK 02 AUDIO
TITLE "Love In Your Eyes"
PERFORMER "Gazebo"
INDEX 00 07:35:62
INDEX 01 07:41:02
TRACK 03 AUDIO
TITLE "Lunatic (Long Version)"
PERFORMER "Gazebo"
INDEX 00 15:24:38
INDEX 01 15:30:25
TRACK 04 AUDIO
TITLE "Masterpiece (Long Version)"
PERFORMER "Gazebo"
INDEX 00 21:38:60
INDEX 01 21:42:17
TRACK 05 AUDIO
TITLE "Telephone Mama"
PERFORMER "Gazebo"
INDEX 00 31:04:52
INDEX 01 31:08:67
TRACK 06 AUDIO
TITLE "Alice In Wonderland"
PERFORMER "Gazebo"
INDEX 00 36:51:55
INDEX 01 36:54:52
TRACK 07 AUDIO
TITLE "Coincidence"
PERFORMER "Gazebo"
INDEX 00 42:47:40
INDEX 01 42:50:70
TRACK 08 AUDIO
TITLE "Dolce Vita"
PERFORMER "Gazebo"
INDEX 00 50:48:25
INDEX 01 50:52:02
TRACK 09 AUDIO
TITLE "For Anita"
PERFORMER "Gazebo"
INDEX 00 56:23:37
INDEX 01 56:27:10
TRACK 10 AUDIO
TITLE "The Sun Goes Down On Milky Way"
PERFORMER "Gazebo"
INDEX 00 62:09:20
INDEX 01 62:12:52
TRACK 11 AUDIO
TITLE "First!"
PERFORMER "Gazebo"
INDEX 00 66:31:17
INDEX 01 66:34:55
TRACK 12 AUDIO
TITLE "Alphabet"
PERFORMER "Gazebo"
INDEX 00 70:05:22
INDEX 01 70:08:15
 AUDIOCHECKER v2.0 beta (build 457) - by Dester - [email protected]
~~~~~~~~~~~~~~~~~~~~~~~~~~~~~~~~~~
Начато: воскресенье, 17. 06. 2012. - 0:27.40
Найдено файлов: 1
1 -===- J:\Раздачи 2\GAZEBO_Greatest Hits_1991_by ikatsuro.EW8A_\Gazebo - Greatest Hits.flac
Извлечение успешно выполнено
Заключение: этот трек - CDDA с вероятностью 100%
Временный файл удалён.
Завершено: воскресенье, 17. 06. 2012. - 0:43.27 (Время операции: 0:15.46)

[433.7 MB] Скачать / Download