(Italo-Disco) Gazebo - The Rainbow Tales - 1988, APE (image + .cue), lossless - Скачать

Страна: Italy
Жанр: Italo-Disco
Год выпуска: 1988
Формат: APE (image + .cue)
Битрейт аудио: lossless
Трэклист:
01. Ordinary Life [0:03:56.50]
02. Coincidence [0:04:46.10]
03. God Bless The Moonshade [0:04:40.13]
04. Rain On Alexanderplatz [0:04:26.02]
05. Blindfold [0:03:45.31]
06. Alice In Wonderland [0:06:04.37]
07. 1997 [0:03:29.08]
08. Alcoholiday [0:04:49.07]
09. Got To Believe [0:04:02.55]
10. Tycoon [0:04:14.38]
Доп. информация:

mp3, поп-музыка, torrent, поп, скачать, soundtrack, музыка, трек, дискография, альбом, высокое качество, pop-music, композиции, альбом, download, cd, торрент, бесплатно, песни, pop, lossless

Exact Audio Copy V0.99 prebeta 3 from 28. July 2007
EAC extraction logfile from 30. May 2008, 20:11
Gazebo / The Rainbow Tales
Used drive : TSSTcorpCDDVDW SH-S203B Adapter: 4 ID: 0
Read mode : Secure
Utilize accurate stream : Yes
Defeat audio cache : Yes
Make use of C2 pointers : No
Read offset correction : 6
Overread into Lead-In and Lead-Out : No
Fill up missing offset samples with silence : Yes
Delete leading and trailing silent blocks : No
Null samples used in CRC calculations : Yes
Used interface : Native Win32 interface for Win NT & 2000
Used output format : Internal WAV Routines
Sample format : 44.100 Hz; 16 Bit; Stereo
TOC of the extracted CD
Track | Start | Length | Start sector | End sector
---------------------------------------------------------
1 | 0:00.00 | 3:56.50 | 0 | 17749
2 | 3:56.50 | 4:46.10 | 17750 | 39209
3 | 8:42.60 | 4:40.13 | 39210 | 60222
4 | 13:22.73 | 4:26.02 | 60223 | 80174
5 | 17:49.00 | 3:45.31 | 80175 | 97080
6 | 21:34.31 | 6:04.37 | 97081 | 124417
7 | 27:38.68 | 3:29.08 | 124418 | 140100
8 | 31:08.01 | 4:49.07 | 140101 | 161782
9 | 35:57.08 | 4:02.55 | 161783 | 179987
10 | 39:59.63 | 4:14.38 | 179988 | 199075
Range status and errors
Selected range
Filename E:\01 Audio\CD IMAGES\Gazebo - The Rainbow Tales 1998\Gazebo - The Rainbow Tales.wav
Peak level 99.9 %
Range quality 100.0 %
Copy CRC 513BA6E4
Copy OK
No errors occurred
AccurateRip summary
Track 1 not present in database
Track 2 not present in database
Track 3 not present in database
Track 4 not present in database
Track 5 not present in database
Track 6 not present in database
Track 7 not present in database
Track 8 not present in database
Track 9 not present in database
Track 10 not present in database
None of the tracks are present in the AccurateRip database
End of status report

[267.4 MB] Скачать / Download