(Italo-Disco / Hi-NRG) Coo Coo - Boogie Woogie Dance - 1991, FLAC (image+.cue), lossless - Скачать

Жанр: Italodisco / Hi Nrg
Год выпуска диска: 1991
Производитель диска: Japan
Аудио кодек: FLAC
Тип рипа: image+.cue
Битрейт аудио: lossless
Продолжительность: 00:44:06
Источник: CD-R
Треклист:
1. You And Me (Mix Version) (4:06)
2. Easy Lover (Mix Version) (3:33)
3. Loving You (Mix Version) (4:28)
4. Energy (Mix Version) (4:20)
5. Boogie Woogie (Mix Version) (3:55)
6. Walkin' On Music (Mix Version) (4:57)
7. Winner (Mix Version) (3:37)
8. Hey Hey (Mix Version) (3:13)
9. Special DJ's Medley (11:58)Доп. информация:http://www.discogs.com/Coo-Coo-Boogie-Woogie-Dance/release/556375

дискография, pop, бесплатно, скачать, высокое качество, pop-music, soundtrack, торрент, альбом, музыка, lossless, трек, torrent, поп-музыка, download, композиции, альбом, поп, cd, песни, mp3

Exact Audio Copy V0.99 prebeta 5 from 4. May 2009
Отчёт EAC об извлечении, выполненном 19. июля 2010, 16:25
Coo Coo / Boogie Woogie Dance
Дисковод: PIONEER DVD-RW DVR-111 Adapter: 0 ID: 1
Режим чтения : Достоверность
Использование точного потока : Да
Отключение кэша аудио : Да
Использование указателей C2 : Нет
Коррекция смещения при чтении : 48
Способность читать области Lead-in и Lead-out : Нет
Заполнение пропущенных сэмплов тишиной : Да
Удаление блоков с тишиной в начале и конце : Нет
При вычислениях CRC использовались нулевые сэмплы : Да
Интерфейс : Встроенный Win32-интерфейс для Win NT/2000
Выходной формат : Внутренние WAV-операции
Формат сэмплов : 44.100 Гц; 16 бит; стерео
TOC извлечённого CD
Трек | Старт | Длительность | Начальный сектор | Конечный сектор
---------------------------------------------------------------------
1 | 0:00.00 | 4:06.65 | 0 | 18514
2 | 4:06.65 | 3:32.64 | 18515 | 34478
3 | 7:39.54 | 4:27.37 | 34479 | 54540
4 | 12:07.16 | 4:20.03 | 54541 | 74043
5 | 16:27.19 | 3:55.24 | 74044 | 91692
6 | 20:22.43 | 4:57.28 | 91693 | 113995
7 | 25:19.71 | 3:36.70 | 113996 | 130265
8 | 28:56.66 | 3:12.19 | 130266 | 144684
9 | 32:09.10 | 11:57.65 | 144685 | 198524
Характеристики диапазона извлечения и сообщения об ошибках
Выбранный диапазон
Имя файла D:\MUSIC\Coo Coo - 1991 - Boogie Woogie Dance\Coo Coo - Boogie Woogie Dance.wav
Пиковый уровень 100.0 %
Качество диапазона 99.9 %
CRC теста 40018B37
CRC копии 40018B37
Копирование... OK
Ошибок не произошло
AccurateRip: сводка
Трек 1 нет в базе данных
Трек 2 нет в базе данных
Трек 3 нет в базе данных
Трек 4 нет в базе данных
Трек 5 нет в базе данных
Трек 6 нет в базе данных
Трек 7 нет в базе данных
Трек 8 нет в базе данных
Трек 9 нет в базе данных
Ни одного трека нет в базе AccurateRip
Конец отчёта
AUDIOCHECKER v2.0 beta (build 457) - by Dester - [email protected]
~~~~~~~~~~~~~~~~~~~~~~~~~~~~~~~~~~
-=== НЕ РЕДАКТИРУЙТЕ ЭТОТ ФАЙЛ! ===-
Путь: ...\Coo Coo - 1991 - Boogie Woogie Dance
1 -=- Coo Coo - Boogie Woogie Dance.flac -=- CDDA (100%)
256453716

[312.8 MB] Скачать / Download