(Italo-Disco, Hi NRG) Coo Coo - Fun Bun - 1990, FLAC (image+.cue), lossless - Скачать

Жанр: Italo-Disco, Hi NRG
Страна-производитель диска: Japan
Год издания диска: 1990
Издатель (лейбл): Alfa International
Номер по каталогу: ALCB 42
Аудиокодек: FLAC (*.flac)
Тип рипа: image+.cue
Битрейт аудио: lossless
Продолжительность: 1:04:32
Источник (релизер): собственный рип
Наличие сканов в содержимом раздачи: да
Треклист:
1. Upside Down 2:57
2. You Can Set Me Free 3:57
3. All You Need Is Love 3:08
4. Wild In The City 3:20
5. Upside Down (Reprise) 4:18
6. Happy Days 3:59
7. Daydream 4:12
8. Uiah Eiah 3:25
9. Medley 7:32
10. Upside Down (Full Power D.J. Mix) 7:57
11. You Can Set Me Free (Dance Version) 6:31
12. All You Need Is Love (Extended) 6:36
13. Happy Days (Happy Club Mix) 6:38
-----------------------------------------------------
Arranged By – G. Crivellente, M. Farina
Engineer – J.J. Nesty, Laurent G. Newfield
Producer – F.C.F.
Written-By – C. Accatino (tracks: 2, 4, 11),
G. Crivellente (tracks: 1 to 6, 8, 10 to 13),
M. Farina (tracks: 1 to 6, 8, 10 to 13)

бесплатно, песни, альбом, скачать, soundtrack, lossless, mp3, download, cd, альбом, торрент, pop, дискография, pop-music, композиции, музыка, torrent, трек, высокое качество, поп-музыка, поп

 Exact Audio Copy V0.99 prebeta 5 from 4. May 2009
Отчёт EAC об извлечении, выполненном 16. октября 2011, 13:22
Coo Coo / Fun Bun
Дисковод: PLEXTOR DVDR PX-860A Adapter: 5 ID: 1
Режим чтения : Достоверность
Использование точного потока : Да
Отключение кэша аудио : Да
Использование указателей C2 : Нет
Коррекция смещения при чтении : 96
Способность читать области Lead-in и Lead-out : Нет
Заполнение пропущенных сэмплов тишиной : Да
Удаление блоков с тишиной в начале и конце : Нет
При вычислениях CRC использовались нулевые сэмплы : Да
Интерфейс : Встроенный Win32-интерфейс для Win NT/2000
Выходной формат : Внутренние WAV-операции
Формат сэмплов : 44.100 Гц; 16 бит; стерео
TOC извлечённого CD
Трек | Старт | Длительность | Начальный сектор | Конечный сектор
---------------------------------------------------------------------
1 | 0:00.00 | 2:57.25 | 0 | 13299
2 | 2:57.25 | 3:57.37 | 13300 | 31111
3 | 6:54.62 | 3:07.63 | 31112 | 45199
4 | 10:02.50 | 3:19.62 | 45200 | 60186
5 | 13:22.37 | 4:18.05 | 60187 | 79541
6 | 17:40.42 | 3:59.73 | 79542 | 97539
7 | 21:40.40 | 4:11.47 | 97540 | 116411
8 | 25:52.12 | 3:24.63 | 116412 | 131774
9 | 29:17.00 | 7:32.52 | 131775 | 165726
10 | 36:49.52 | 7:57.20 | 165727 | 201521
11 | 44:46.72 | 6:30.33 | 201522 | 230804
12 | 51:17.30 | 6:35.70 | 230805 | 260499
13 | 57:53.25 | 6:38.42 | 260500 | 290391
Характеристики диапазона извлечения и сообщения об ошибках
Выбранный диапазон
Имя файла C:\Coo Coo - Fun Bun.wav
Пиковый уровень 100.0 %
Качество диапазона 99.9 %
CRC теста 771427AD
CRC копии 771427AD
Копирование... OK
Ошибок не произошло
AccurateRip: сводка
Трек 1 точность не определена (достоверность 1) [87E0FA3B], AccurateRip вернул [55E11F0D]
Трек 2 точность не определена (достоверность 1) [D1F76E33], AccurateRip вернул [4832AA16]
Трек 3 точность не определена (достоверность 1) [4546EAE8], AccurateRip вернул [64294BAF]
Трек 4 точность не определена (достоверность 1) [E96F9715], AccurateRip вернул [FA99D120]
Трек 5 точность не определена (достоверность 1) [258F2A8A], AccurateRip вернул [FA778DDC]
Трек 6 точность не определена (достоверность 1) [21A7F728], AccurateRip вернул [F9321219]
Трек 7 точность не определена (достоверность 1) [B2A020C9], AccurateRip вернул [4C37A84C]
Трек 8 точность не определена (достоверность 1) [8BB16D37], AccurateRip вернул [3E671EE5]
Трек 9 точность не определена (достоверность 1) [E9BB82CE], AccurateRip вернул [69DDA9C4]
Трек 10 точность не определена (достоверность 1) [89333714], AccurateRip вернул [A9179CB3]
Трек 11 точность не определена (достоверность 1) [F7EFAD84], AccurateRip вернул [B29FD8F5]
Трек 12 точность не определена (достоверность 1) [D8F686C4], AccurateRip вернул [B28EC6D9]
Трек 13 точность не определена (достоверность 1) [F0C8B748], AccurateRip вернул [2A2F8CF8]
Ни один трек не прошёл проверки на точность
В вашей базе может быть иной вариант штамповки диска
Конец отчёта
 REM GENRE Italo-Disco, Hi NRG
REM DATE 1990
REM DISCID AC0F1F0D
REM COMMENT "ExactAudioCopy v0.99pb5"
PERFORMER "Coo Coo"
TITLE "Fun Bun"
FILE "Coo Coo - Fun Bun.FLAC" WAVE
TRACK 01 AUDIO
TITLE "Upside Down"
PERFORMER "Coo Coo"
INDEX 01 00:00:00
TRACK 02 AUDIO
TITLE "You Can Set Me Free"
PERFORMER "Coo Coo"
INDEX 00 02:55:25
INDEX 01 02:57:25
TRACK 03 AUDIO
TITLE "All You Need Is Love"
PERFORMER "Coo Coo"
INDEX 00 06:52:50
INDEX 01 06:54:62
TRACK 04 AUDIO
TITLE "Wild In The City"
PERFORMER "Coo Coo"
INDEX 00 10:00:30
INDEX 01 10:02:50
TRACK 05 AUDIO
TITLE "Upside Down (Reprise)"
PERFORMER "Coo Coo"
INDEX 00 13:20:25
INDEX 01 13:22:37
TRACK 06 AUDIO
TITLE "Happy Days"
PERFORMER "Coo Coo"
INDEX 01 17:40:42
TRACK 07 AUDIO
TITLE "Daydream"
PERFORMER "Coo Coo"
INDEX 00 21:38:02
INDEX 01 21:40:40
TRACK 08 AUDIO
TITLE "Uiah Eiah"
PERFORMER "Coo Coo"
INDEX 00 25:50:05
INDEX 01 25:52:12
TRACK 09 AUDIO
TITLE "Medley With - Upside Down - You Can Set Me Free - Happy Days - All You Need Is Love"
PERFORMER "Coo Coo"
INDEX 00 29:14:45
INDEX 01 29:17:00
TRACK 10 AUDIO
TITLE "Upside Down (Full Power D.J. Mix)"
PERFORMER "Coo Coo"
INDEX 00 36:47:50
INDEX 01 36:49:52
TRACK 11 AUDIO
TITLE "You Can Set Me Free (Dance Version)"
PERFORMER "Coo Coo"
INDEX 00 44:45:22
INDEX 01 44:46:72
TRACK 12 AUDIO
TITLE "All You Need Is Love (Extended)"
PERFORMER "Coo Coo"
INDEX 00 51:15:57
INDEX 01 51:17:30
TRACK 13 AUDIO
TITLE "Happy Days (Happy Club Mix)"
PERFORMER "Coo Coo"
INDEX 00 57:51:17
INDEX 01 57:53:25

[461.2 MB] Скачать / Download