(Italo-Disco, Hi NRG) Domino - Tora Tora Tora (Japan) - 1996, FLAC (image+.cue), lossless - Скачать

Жанр: Italo-Disco, Hi NRG
Страна-производитель диска: Japan
Год издания диска: 1996
Издатель (лейбл): Avex Trax
Номер по каталогу: AVCD-11447
Аудиокодек: FLAC (*.flac)
Тип рипа: image+.cue
Битрейт аудио: lossless
Продолжительность: 59:54
Источник (релизер): собственный рип
Наличие сканов в содержимом раздачи: да
Треклист:
1. Tora Tora Tora
2. Euroboy
3. Talking Hads
4. Behind You
5. Domino Dancing
6. You Freedom
7. Forever Young
8. Fall In Love
9. Hot Confession
10. Hot & Soul
11. Hot Stuff
12. Beat Beat freak
13. My Love Is Still Alive
14. Tora Tora Tora (B4 Za Beat Remix)

альбом, torrent, альбом, скачать, композиции, поп, pop, soundtrack, mp3, дискография, торрент, поп-музыка, трек, песни, pop-music, cd, высокое качество, download, lossless, бесплатно, музыка

 Exact Audio Copy V0.99 prebeta 5 from 4. May 2009
Отчёт EAC об извлечении, выполненном 13. октября 2011, 1:11
Domino / Tora Tora Tora
Дисковод: PLEXTOR DVDR PX-860A Adapter: 1 ID: 1
Режим чтения : Достоверность
Использование точного потока : Да
Отключение кэша аудио : Да
Использование указателей C2 : Нет
Коррекция смещения при чтении : 96
Способность читать области Lead-in и Lead-out : Нет
Заполнение пропущенных сэмплов тишиной : Да
Удаление блоков с тишиной в начале и конце : Нет
При вычислениях CRC использовались нулевые сэмплы : Да
Интерфейс : Встроенный Win32-интерфейс для Win NT/2000
Выходной формат : Внутренние WAV-операции
Формат сэмплов : 44.100 Гц; 16 бит; стерео
TOC извлечённого CD
Трек | Старт | Длительность | Начальный сектор | Конечный сектор
---------------------------------------------------------------------
1 | 0:00.00 | 4:16.20 | 0 | 19219
2 | 4:16.20 | 4:17.22 | 19220 | 38516
3 | 8:33.42 | 4:03.40 | 38517 | 56781
4 | 12:37.07 | 3:57.00 | 56782 | 74556
5 | 16:34.07 | 4:26.73 | 74557 | 94579
6 | 21:01.05 | 4:10.60 | 94580 | 113389
7 | 25:11.65 | 4:14.25 | 113390 | 132464
8 | 29:26.15 | 3:39.02 | 132465 | 148891
9 | 33:05.17 | 4:10.68 | 148892 | 167709
10 | 37:16.10 | 4:02.12 | 167710 | 185871
11 | 41:18.22 | 4:15.15 | 185872 | 205011
12 | 45:33.37 | 4:02.48 | 205012 | 223209
13 | 49:36.10 | 4:15.62 | 223210 | 242396
14 | 53:51.72 | 6:02.65 | 242397 | 269611
Характеристики диапазона извлечения и сообщения об ошибках
Выбранный диапазон
Имя файла C:\Domino - Tora Tora Tora.wav
Пиковый уровень 99.2 %
Качество диапазона 100.0 %
CRC теста EEA45C87
CRC копии EEA45C87
Копирование... OK
Ошибок не произошло
AccurateRip: сводка
Трек 1 нет в базе данных
Трек 2 нет в базе данных
Трек 3 нет в базе данных
Трек 4 нет в базе данных
Трек 5 нет в базе данных
Трек 6 нет в базе данных
Трек 7 нет в базе данных
Трек 8 нет в базе данных
Трек 9 нет в базе данных
Трек 10 нет в базе данных
Трек 11 нет в базе данных
Трек 12 нет в базе данных
Трек 13 нет в базе данных
Трек 14 нет в базе данных
Ни одного трека нет в базе AccurateRip
Конец отчёта
 REM GENRE Eurodance
REM DATE 1996
REM DISCID E10E0A0E
REM COMMENT "ExactAudioCopy v0.99pb5"
PERFORMER "Domino"
TITLE "Tora Tora Tora"
FILE "Domino - Tora Tora Tora.wav" WAVE
TRACK 01 AUDIO
TITLE "Tora Tora Tora"
PERFORMER "Domino"
INDEX 01 00:00:00
TRACK 02 AUDIO
TITLE "Euroboy"
PERFORMER "Domino"
INDEX 00 04:15:70
INDEX 01 04:16:20
TRACK 03 AUDIO
TITLE "Talking Hands"
PERFORMER "Domino"
INDEX 00 08:32:57
INDEX 01 08:33:42
TRACK 04 AUDIO
TITLE "Behind You"
PERFORMER "Domino"
INDEX 00 12:36:45
INDEX 01 12:37:07
TRACK 05 AUDIO
TITLE "Domino Dancing"
PERFORMER "Domino"
INDEX 00 16:33:20
INDEX 01 16:34:07
TRACK 06 AUDIO
TITLE "Your Freedom"
PERFORMER "Domino"
INDEX 00 20:59:60
INDEX 01 21:01:05
TRACK 07 AUDIO
TITLE "Forever Young"
PERFORMER "Domino"
INDEX 00 25:10:47
INDEX 01 25:11:65
TRACK 08 AUDIO
TITLE "Fall In Love"
PERFORMER "Domino"
INDEX 00 29:24:65
INDEX 01 29:26:15
TRACK 09 AUDIO
TITLE "Hot Confession"
PERFORMER "Domino"
INDEX 00 33:04:12
INDEX 01 33:05:17
TRACK 10 AUDIO
TITLE "Hot & Soul"
PERFORMER "Domino"
INDEX 00 37:15:37
INDEX 01 37:16:10
TRACK 11 AUDIO
TITLE "Hot Stuff"
PERFORMER "Domino"
INDEX 00 41:17:52
INDEX 01 41:18:22
TRACK 12 AUDIO
TITLE "Beat Beat Freak"
PERFORMER "Domino"
INDEX 00 45:32:00
INDEX 01 45:33:37
TRACK 13 AUDIO
TITLE "My Love Is Still Alive"
PERFORMER "Domino"
INDEX 00 49:35:02
INDEX 01 49:36:10
TRACK 14 AUDIO
TITLE "Tora Tora Tora (B4 Za Beat Remix)"
PERFORMER "Domino"
INDEX 00 53:51:10
INDEX 01 53:51:72

[564.2 MB] Скачать / Download