(Italo-Disco, Hi NRG, Euro-Disco) VA - ZYX Italo Disco New Generation 5 (2CD) - 2014, FLAC (image+.cue), lossless - Скачать

для:

download, бесплатно, lossless, торрент, музыка, альбом, поп, высокое качество, torrent, mp3, soundtrack, альбом, pop-music, скачать, cd, композиции, pop, дискография, поп-музыка, песни, трек






Треклист
01. Miko Mission - Universal Feeling (Vocal Version) [05:56]
02. Boris Zhivago - Love In Russia (ZYX Extended Mix) [07:19]
03. Siberian Heat - Pick Up The Phone (ZYX Summer Mix) [07:22]
04. TQ Feat. Ken Laszlo & Fred Ventura - In The Night (Extended) [06:45]
05. Aldo Lesina - Goodbye (Extended Power Mix) [07:21]
06. [email protected] Feat. Mode-One - My Love In Your Heart (Disco Version) [05:31]
07. Raf Coney - I See You Later (Vocal Version) [07:29]
08. Fred Ventura - Don't Give Up (Italo Connection Remix) [05:22]
09. The Sweeps - Voices (Extended Version) [04:52]
10. Casanova - I Love You (Long Mix) [06:35]
11. Linda Jo Rizzo - USSR (ZYX Italo Mix) [05:54]
Лог EAC
 Exact Audio Copy V1.0 beta 6 from 9. April 2015
Отчёт EAC об извлечении, выполненном 23. мая 2015, 8:24
Various Artists / ZYX Italo Disco New Generation 5 (CD1)
Дисковод: PIONEER BD-RW BDR-206 Adapter: 1 ID: 1
Режим чтения : Достоверность
Использование точного потока : Да
Отключение кэша аудио : Да
Использование указателей C2 : Нет
Коррекция смещения при чтении : 667
Способность читать области Lead-in и Lead-out : Нет
Заполнение пропущенных сэмплов тишиной : Да
Удаление блоков с тишиной в начале и конце : Нет
При вычислениях CRC использовались нулевые сэмплы : Да
Интерфейс : Встроенный Win32-интерфейс для Win NT/2000
Выходной формат : Пользовательский кодировщик
Выбранный битрейт : 1024 kBit/s
Качество : Высокий
Добавление ID3-тега : Нет
Утилита сжатия : C:\Program Files (x86)\Exact Audio Copy\FLAC\FLAC.EXE
Дополнительные параметры : -T "COMMENT=Ripped by SergeyJD"-8 -V -T "ARTIST=%artist%" -T "TITLE=%title%" -T "ALBUM=%albumtitle%" -T "DATE=%year%" -T "TRACKNUMBER=%tracknr%" -T "GENRE=%genre%" -T "COMMENT=%comment%" -T "BAND=%albuminterpret%" -T "ALBUMARTIST=%albuminterpret%" -T "COMPOSER=%composer%" %haslyrics%--tag-from-file=LYRICS="%lyricsfile%"%haslyrics% -T "DISCNUMBER=%cdnumber%" -T "TOTALDISCS=%totalcds%" -T "TOTALTRACKS=%numtracks%" %hascover%--picture="%coverfile%"%hascover% %source% -o %dest%
TOC извлечённого CD
Трек | Старт | Длительность | Начальный сектор | Конечный сектор
---------------------------------------------------------------------
1 | 0:00.00 | 5:56.45 | 0 | 26744
2 | 5:56.45 | 7:19.20 | 26745 | 59689
3 | 13:15.65 | 7:22.51 | 59690 | 92890
4 | 20:38.41 | 6:45.14 | 92891 | 123279
5 | 27:23.55 | 7:21.69 | 123280 | 156423
6 | 34:45.49 | 5:31.54 | 156424 | 181302
7 | 40:17.28 | 7:29.27 | 181303 | 215004
8 | 47:46.55 | 5:22.63 | 215005 | 239217
9 | 53:09.43 | 4:52.44 | 239218 | 261161
10 | 58:02.12 | 6:35.54 | 261162 | 290840
11 | 64:37.66 | 5:54.15 | 290841 | 317405
Характеристики диапазона извлечения и сообщения об ошибках
Выбранный диапазон
Имя файла D:\РАЗДАЧИ!!!!\VA - ZYX Italo Disco New Generation 5 (2CD ZYX 82762-2) - 2014\Disc 1\Various Artists - ZYX Italo Disco New Generation 5 (CD1).wav
Пиковый уровень 96.6 %
Скорость извлечения 8.2 X
Качество диапазона 100.0 %
CRC теста D06E5BA0
CRC копии D06E5BA0
Копирование... OK
Ошибок не произошло
AccurateRip: сводка
Трек 1 : извлечено точно (доверие 1) [DB1591E0] (AR v2)
Трек 2 : извлечено точно (доверие 1) [C473FA2B] (AR v2)
Трек 3 : извлечено точно (доверие 1) [A2F9CF90] (AR v2)
Трек 4 : извлечено точно (доверие 1) [A1C51B98] (AR v2)
Трек 5 : извлечено точно (доверие 1) [0E3A6468] (AR v2)
Трек 6 : извлечено точно (доверие 1) [8FB62B2F] (AR v2)
Трек 7 : извлечено точно (доверие 1) [AF4680A3] (AR v2)
Трек 8 : извлечено точно (доверие 1) [688EDB32] (AR v2)
Трек 9 : извлечено точно (доверие 1) [E6D128BA] (AR v2)
Трек 10 : извлечено точно (доверие 1) [F0F92EF6] (AR v2)
Трек 11 : извлечено точно (доверие 1) [04EB4FBD] (AR v2)
Все треки извлечены точно
Конец отчёта
---- CUETools DB Plugin V2.1.6
[CTDB TOCID: QhTt9O9EGQuVeSFSsXj_efbuTt4-] found
Submit result: QhTt9O9EGQuVeSFSsXj_efbuTt4- has been confirmed
Track | CTDB Status
1 | (4/4) Accurately ripped
2 | (4/4) Accurately ripped
3 | (4/4) Accurately ripped
4 | (4/4) Accurately ripped
5 | (4/4) Accurately ripped
6 | (4/4) Accurately ripped
7 | (4/4) Accurately ripped
8 | (4/4) Accurately ripped
9 | (4/4) Accurately ripped
10 | (4/4) Accurately ripped
11 | (4/4) Accurately ripped
==== Контрольная сумма отчёта E161C6091334B7C6870349837594F16D01502B011B62AE016AFD57525E192B7C ====
Содержание индексной карты (.CUE)
 REM GENRE "Italo-Disco, Hi NRG, Euro-Disco"
REM DATE 2014
REM DISCID B510880B
REM COMMENT "ExactAudioCopy v1.0b6"
PERFORMER "Various Artists"
TITLE "ZYX Italo Disco New Generation 5 (CD1)"
FILE "Various Artists - ZYX Italo Disco New Generation 5 (CD1).flac" WAVE
TRACK 01 AUDIO
TITLE "Universal Feeling (Vocal Version)"
PERFORMER "Miko Mission"
FLAGS DCP
INDEX 01 00:00:00
TRACK 02 AUDIO
TITLE "Love In Russia (ZYX Extended Mix)"
PERFORMER "Boris Zhivago"
FLAGS DCP
INDEX 00 05:55:54
INDEX 01 05:56:45
TRACK 03 AUDIO
TITLE "Pick Up The Phone (ZYX Summer Mix)"
PERFORMER "Siberian Heat"
FLAGS DCP
INDEX 01 13:15:65
TRACK 04 AUDIO
TITLE "In The Night (Extended)"
PERFORMER "TQ Feat. Ken Laszlo & Fred Ventura"
FLAGS DCP
INDEX 00 20:37:41
INDEX 01 20:38:41
TRACK 05 AUDIO
TITLE "Goodbye (Extended Power Mix)"
PERFORMER "Aldo Lesina"
FLAGS DCP
INDEX 00 27:22:74
INDEX 01 27:23:55
TRACK 06 AUDIO
TITLE "My Love In Your Heart (Disco Version)"
PERFORMER "[email protected] Feat. Mode-One"
FLAGS DCP
INDEX 00 34:45:15
INDEX 01 34:45:49
TRACK 07 AUDIO
TITLE "I See You Later (Vocal Version)"
PERFORMER "Raf Coney"
FLAGS DCP
INDEX 00 40:16:47
INDEX 01 40:17:28
TRACK 08 AUDIO
TITLE "Don't Give Up (Italo Connection Remix)"
PERFORMER "Fred Ventura"
FLAGS DCP
INDEX 00 47:45:55
INDEX 01 47:46:55
TRACK 09 AUDIO
TITLE "Voices (Extended Version)"
PERFORMER "The Sweeps"
FLAGS DCP
INDEX 00 53:08:43
INDEX 01 53:09:43
TRACK 10 AUDIO
TITLE "I Love You (Long Mix)"
PERFORMER "Casanova"
FLAGS DCP
INDEX 00 58:01:12
INDEX 01 58:02:12
TRACK 11 AUDIO
TITLE "USSR (ZYX Italo Mix)"
PERFORMER "Linda Jo Rizzo"
FLAGS DCP
INDEX 00 64:36:67
INDEX 01 64:37:66
Лог auCDtect Task Manager
 -----------------------
DON'T MODIFY THIS FILE
-----------------------
PERFORMER: auCDtect Task Manager, ver. 1.5.1RC6 build 1.5.1.7
Copyright (c) 2008-2010 y-soft. All rights reserved
http://y-soft.org
ANALYZER: auCDtect: CD records authenticity detector, version 0.8.2
Copyright (c) 2004 Oleg Berngardt. All rights reserved.
Copyright (c) 2004 Alexander Djourik. All rights reserved.
FILE: Various Artists - ZYX Italo Disco New Generation 5 (CD1).flac
Size: 537986642 Hash: D63712D68EA5C543E8B13C1F6836EA85 Accuracy: -m0
Conclusion: CDDA 100%
Signature: D13D29B5573160DD700A58271B5CFDEBA52DC8C8
Замер динамического диапазона (DR)
 foobar2000 1.2.3 / Замер динамического диапазона (DR) 1.1.1
Дата отчёта: 2015-05-23 09:16:24
--------------------------------------------------------------------------------
Анализ: Boris Zhivago / ZYX Italo Disco New Generation 5 (CD1) (1)
Casanova / ZYX Italo Disco New Generation 5 (CD1) (2)
--------------------------------------------------------------------------------
DR Пики RMS Продолжительность трека
--------------------------------------------------------------------------------
DR7 -0.30 дБ -7.98 дБ 7:19 02-Love In Russia (ZYX Extended Mix)
DR8 -0.30 дБ -9.22 дБ 6:36 10-I Love You (Long Mix)
--------------------------------------------------------------------------------
Количество треков: 2
Реальные значения DR: DR7
Частота: 44100 Гц
Каналов: 2
Разрядность: 16
Битрейт: 1017 кбит/с
Кодек: FLAC
================================================================================
--------------------------------------------------------------------------------
Анализ: Fred Ventura / ZYX Italo Disco New Generation 5 (CD1) (1)
Linda Jo Rizzo / ZYX Italo Disco New Generation 5 (CD1) (2)
--------------------------------------------------------------------------------
DR Пики RMS Продолжительность трека
--------------------------------------------------------------------------------
DR8 -0.30 дБ -9.02 дБ 5:23 08-Don't Give Up (Italo Connection Remix)
DR7 -0.30 дБ -8.88 дБ 5:54 11-USSR (ZYX Italo Mix)
--------------------------------------------------------------------------------
Количество треков: 2
Реальные значения DR: DR7
Частота: 44100 Гц
Каналов: 2
Разрядность: 16
Битрейт: 1017 кбит/с
Кодек: FLAC
================================================================================
--------------------------------------------------------------------------------
Статистика для: 06-My Love In Your Heart (Disco Version)
Количество сэмплов: 14628852
Продолжительность: 5:32
--------------------------------------------------------------------------------
Левый Правый
Пики: -0.77 дБ --- -0.77 дБ
Средний RMS: -7.60 дБ --- -7.83 дБ
DR канала: 5.65 дБ --- 5.91 дБ
--------------------------------------------------------------------------------
Реальные значения DR: DR6
Частота: 44100 Гц
Каналов: 2
Разрядность: 16
Битрейт: 1017 кбит/с
Кодек: FLAC
================================================================================
--------------------------------------------------------------------------------
Анализ: Miko Mission / ZYX Italo Disco New Generation 5 (CD1) (1)
Raf Coney / ZYX Italo Disco New Generation 5 (CD1) (2)
--------------------------------------------------------------------------------
DR Пики RMS Продолжительность трека
--------------------------------------------------------------------------------
DR8 -0.30 дБ -8.59 дБ 5:57 01-Universal Feeling (Vocal Version)
DR8 -0.30 дБ -9.19 дБ 7:29 07-I See You Later (Vocal Version)
--------------------------------------------------------------------------------
Количество треков: 2
Реальные значения DR: DR8
Частота: 44100 Гц
Каналов: 2
Разрядность: 16
Битрейт: 1017 кбит/с
Кодек: FLAC
================================================================================
--------------------------------------------------------------------------------
Анализ: Siberian Heat / ZYX Italo Disco New Generation 5 (CD1) (1)
The Sweeps / ZYX Italo Disco New Generation 5 (CD1) (2)
--------------------------------------------------------------------------------
DR Пики RMS Продолжительность трека
--------------------------------------------------------------------------------
DR7 -0.55 дБ -8.31 дБ 7:23 03-Pick Up The Phone (ZYX Summer Mix)
DR8 -0.30 дБ -8.93 дБ 4:53 09-Voices (Extended Version)
--------------------------------------------------------------------------------
Количество треков: 2
Реальные значения DR: DR7
Частота: 44100 Гц
Каналов: 2
Разрядность: 16
Битрейт: 1017 кбит/с
Кодек: FLAC
================================================================================
--------------------------------------------------------------------------------
Статистика для: 04-In The Night (Extended)
Количество сэмплов: 17868732
Продолжительность: 6:45
--------------------------------------------------------------------------------
Левый Правый
Пики: -0.30 дБ --- -0.30 дБ
Средний RMS: -8.64 дБ --- -8.57 дБ
DR канала: 7.23 дБ --- 7.15 дБ
--------------------------------------------------------------------------------
Реальные значения DR: DR7
Частота: 44100 Гц
Каналов: 2
Разрядность: 16
Битрейт: 1017 кбит/с
Кодек: FLAC
================================================================================
================================================================================
foobar2000 1.2.3 / Замер динамического диапазона (DR) 1.1.1
Дата отчёта: 2015-05-23 09:16:22
--------------------------------------------------------------------------------
Статистика для: 05-Goodbye (Extended Power Mix)
Количество сэмплов: 19488672
Продолжительность: 7:22
--------------------------------------------------------------------------------
Левый Правый
Пики: -0.30 дБ --- -0.30 дБ
Средний RMS: -7.91 дБ --- -7.98 дБ
DR канала: 6.88 дБ --- 6.95 дБ
--------------------------------------------------------------------------------
Реальные значения DR: DR7
Частота: 44100 Гц
Каналов: 2
Разрядность: 16
Битрейт: 1017 кбит/с
Кодек: FLAC
================================================================================
 Exact Audio Copy V1.0 beta 6 from 9. April 2015
Отчёт EAC об извлечении, выполненном 23. мая 2015, 8:24
Various Artists / ZYX Italo Disco New Generation 5 (CD1)
Дисковод: PIONEER BD-RW BDR-206 Adapter: 1 ID: 1
Режим чтения : Достоверность
Использование точного потока : Да
Отключение кэша аудио : Да
Использование указателей C2 : Нет
Коррекция смещения при чтении : 667
Способность читать области Lead-in и Lead-out : Нет
Заполнение пропущенных сэмплов тишиной : Да
Удаление блоков с тишиной в начале и конце : Нет
При вычислениях CRC использовались нулевые сэмплы : Да
Интерфейс : Встроенный Win32-интерфейс для Win NT/2000
Выходной формат : Пользовательский кодировщик
Выбранный битрейт : 1024 kBit/s
Качество : Высокий
Добавление ID3-тега : Нет
Утилита сжатия : C:\Program Files (x86)\Exact Audio Copy\FLAC\FLAC.EXE
Дополнительные параметры : -T "COMMENT=Ripped by SergeyJD"-8 -V -T "ARTIST=%artist%" -T "TITLE=%title%" -T "ALBUM=%albumtitle%" -T "DATE=%year%" -T "TRACKNUMBER=%tracknr%" -T "GENRE=%genre%" -T "COMMENT=%comment%" -T "BAND=%albuminterpret%" -T "ALBUMARTIST=%albuminterpret%" -T "COMPOSER=%composer%" %haslyrics%--tag-from-file=LYRICS="%lyricsfile%"%haslyrics% -T "DISCNUMBER=%cdnumber%" -T "TOTALDISCS=%totalcds%" -T "TOTALTRACKS=%numtracks%" %hascover%--picture="%coverfile%"%hascover% %source% -o %dest%
TOC извлечённого CD
Трек | Старт | Длительность | Начальный сектор | Конечный сектор
---------------------------------------------------------------------
1 | 0:00.00 | 5:56.45 | 0 | 26744
2 | 5:56.45 | 7:19.20 | 26745 | 59689
3 | 13:15.65 | 7:22.51 | 59690 | 92890
4 | 20:38.41 | 6:45.14 | 92891 | 123279
5 | 27:23.55 | 7:21.69 | 123280 | 156423
6 | 34:45.49 | 5:31.54 | 156424 | 181302
7 | 40:17.28 | 7:29.27 | 181303 | 215004
8 | 47:46.55 | 5:22.63 | 215005 | 239217
9 | 53:09.43 | 4:52.44 | 239218 | 261161
10 | 58:02.12 | 6:35.54 | 261162 | 290840
11 | 64:37.66 | 5:54.15 | 290841 | 317405
Характеристики диапазона извлечения и сообщения об ошибках
Выбранный диапазон
Имя файла D:\РАЗДАЧИ!!!!\VA - ZYX Italo Disco New Generation 5 (2CD ZYX 82762-2) - 2014\Disc 1\Various Artists - ZYX Italo Disco New Generation 5 (CD1).wav
Пиковый уровень 96.6 %
Скорость извлечения 8.2 X
Качество диапазона 100.0 %
CRC теста D06E5BA0
CRC копии D06E5BA0
Копирование... OK
Ошибок не произошло
AccurateRip: сводка
Трек 1 : извлечено точно (доверие 1) [DB1591E0] (AR v2)
Трек 2 : извлечено точно (доверие 1) [C473FA2B] (AR v2)
Трек 3 : извлечено точно (доверие 1) [A2F9CF90] (AR v2)
Трек 4 : извлечено точно (доверие 1) [A1C51B98] (AR v2)
Трек 5 : извлечено точно (доверие 1) [0E3A6468] (AR v2)
Трек 6 : извлечено точно (доверие 1) [8FB62B2F] (AR v2)
Трек 7 : извлечено точно (доверие 1) [AF4680A3] (AR v2)
Трек 8 : извлечено точно (доверие 1) [688EDB32] (AR v2)
Трек 9 : извлечено точно (доверие 1) [E6D128BA] (AR v2)
Трек 10 : извлечено точно (доверие 1) [F0F92EF6] (AR v2)
Трек 11 : извлечено точно (доверие 1) [04EB4FBD] (AR v2)
Все треки извлечены точно
Конец отчёта
---- CUETools DB Plugin V2.1.6
[CTDB TOCID: QhTt9O9EGQuVeSFSsXj_efbuTt4-] found
Submit result: QhTt9O9EGQuVeSFSsXj_efbuTt4- has been confirmed
Track | CTDB Status
1 | (4/4) Accurately ripped
2 | (4/4) Accurately ripped
3 | (4/4) Accurately ripped
4 | (4/4) Accurately ripped
5 | (4/4) Accurately ripped
6 | (4/4) Accurately ripped
7 | (4/4) Accurately ripped
8 | (4/4) Accurately ripped
9 | (4/4) Accurately ripped
10 | (4/4) Accurately ripped
11 | (4/4) Accurately ripped
==== Контрольная сумма отчёта E161C6091334B7C6870349837594F16D01502B011B62AE016AFD57525E192B7C ====
 REM GENRE "Italo-Disco, Hi NRG, Euro-Disco"
REM DATE 2014
REM DISCID B510880B
REM COMMENT "ExactAudioCopy v1.0b6"
PERFORMER "Various Artists"
TITLE "ZYX Italo Disco New Generation 5 (CD1)"
FILE "Various Artists - ZYX Italo Disco New Generation 5 (CD1).flac" WAVE
TRACK 01 AUDIO
TITLE "Universal Feeling (Vocal Version)"
PERFORMER "Miko Mission"
FLAGS DCP
INDEX 01 00:00:00
TRACK 02 AUDIO
TITLE "Love In Russia (ZYX Extended Mix)"
PERFORMER "Boris Zhivago"
FLAGS DCP
INDEX 00 05:55:54
INDEX 01 05:56:45
TRACK 03 AUDIO
TITLE "Pick Up The Phone (ZYX Summer Mix)"
PERFORMER "Siberian Heat"
FLAGS DCP
INDEX 01 13:15:65
TRACK 04 AUDIO
TITLE "In The Night (Extended)"
PERFORMER "TQ Feat. Ken Laszlo & Fred Ventura"
FLAGS DCP
INDEX 00 20:37:41
INDEX 01 20:38:41
TRACK 05 AUDIO
TITLE "Goodbye (Extended Power Mix)"
PERFORMER "Aldo Lesina"
FLAGS DCP
INDEX 00 27:22:74
INDEX 01 27:23:55
TRACK 06 AUDIO
TITLE "My Love In Your Heart (Disco Version)"
PERFORMER "[email protected] Feat. Mode-One"
FLAGS DCP
INDEX 00 34:45:15
INDEX 01 34:45:49
TRACK 07 AUDIO
TITLE "I See You Later (Vocal Version)"
PERFORMER "Raf Coney"
FLAGS DCP
INDEX 00 40:16:47
INDEX 01 40:17:28
TRACK 08 AUDIO
TITLE "Don't Give Up (Italo Connection Remix)"
PERFORMER "Fred Ventura"
FLAGS DCP
INDEX 00 47:45:55
INDEX 01 47:46:55
TRACK 09 AUDIO
TITLE "Voices (Extended Version)"
PERFORMER "The Sweeps"
FLAGS DCP
INDEX 00 53:08:43
INDEX 01 53:09:43
TRACK 10 AUDIO
TITLE "I Love You (Long Mix)"
PERFORMER "Casanova"
FLAGS DCP
INDEX 00 58:01:12
INDEX 01 58:02:12
TRACK 11 AUDIO
TITLE "USSR (ZYX Italo Mix)"
PERFORMER "Linda Jo Rizzo"
FLAGS DCP
INDEX 00 64:36:67
INDEX 01 64:37:66
 -----------------------
DON'T MODIFY THIS FILE
-----------------------
PERFORMER: auCDtect Task Manager, ver. 1.5.1RC6 build 1.5.1.7
Copyright (c) 2008-2010 y-soft. All rights reserved
http://y-soft.org
ANALYZER: auCDtect: CD records authenticity detector, version 0.8.2
Copyright (c) 2004 Oleg Berngardt. All rights reserved.
Copyright (c) 2004 Alexander Djourik. All rights reserved.
FILE: Various Artists - ZYX Italo Disco New Generation 5 (CD1).flac
Size: 537986642 Hash: D63712D68EA5C543E8B13C1F6836EA85 Accuracy: -m0
Conclusion: CDDA 100%
Signature: D13D29B5573160DD700A58271B5CFDEBA52DC8C8
 foobar2000 1.2.3 / Замер динамического диапазона (DR) 1.1.1
Дата отчёта: 2015-05-23 09:16:24
--------------------------------------------------------------------------------
Анализ: Boris Zhivago / ZYX Italo Disco New Generation 5 (CD1) (1)
Casanova / ZYX Italo Disco New Generation 5 (CD1) (2)
--------------------------------------------------------------------------------
DR Пики RMS Продолжительность трека
--------------------------------------------------------------------------------
DR7 -0.30 дБ -7.98 дБ 7:19 02-Love In Russia (ZYX Extended Mix)
DR8 -0.30 дБ -9.22 дБ 6:36 10-I Love You (Long Mix)
--------------------------------------------------------------------------------
Количество треков: 2
Реальные значения DR: DR7
Частота: 44100 Гц
Каналов: 2
Разрядность: 16
Битрейт: 1017 кбит/с
Кодек: FLAC
================================================================================
--------------------------------------------------------------------------------
Анализ: Fred Ventura / ZYX Italo Disco New Generation 5 (CD1) (1)
Linda Jo Rizzo / ZYX Italo Disco New Generation 5 (CD1) (2)
--------------------------------------------------------------------------------
DR Пики RMS Продолжительность трека
--------------------------------------------------------------------------------
DR8 -0.30 дБ -9.02 дБ 5:23 08-Don't Give Up (Italo Connection Remix)
DR7 -0.30 дБ -8.88 дБ 5:54 11-USSR (ZYX Italo Mix)
--------------------------------------------------------------------------------
Количество треков: 2
Реальные значения DR: DR7
Частота: 44100 Гц
Каналов: 2
Разрядность: 16
Битрейт: 1017 кбит/с
Кодек: FLAC
================================================================================
--------------------------------------------------------------------------------
Статистика для: 06-My Love In Your Heart (Disco Version)
Количество сэмплов: 14628852
Продолжительность: 5:32
--------------------------------------------------------------------------------
Левый Правый
Пики: -0.77 дБ --- -0.77 дБ
Средний RMS: -7.60 дБ --- -7.83 дБ
DR канала: 5.65 дБ --- 5.91 дБ
--------------------------------------------------------------------------------
Реальные значения DR: DR6
Частота: 44100 Гц
Каналов: 2
Разрядность: 16
Битрейт: 1017 кбит/с
Кодек: FLAC
================================================================================
--------------------------------------------------------------------------------
Анализ: Miko Mission / ZYX Italo Disco New Generation 5 (CD1) (1)
Raf Coney / ZYX Italo Disco New Generation 5 (CD1) (2)
--------------------------------------------------------------------------------
DR Пики RMS Продолжительность трека
--------------------------------------------------------------------------------
DR8 -0.30 дБ -8.59 дБ 5:57 01-Universal Feeling (Vocal Version)
DR8 -0.30 дБ -9.19 дБ 7:29 07-I See You Later (Vocal Version)
--------------------------------------------------------------------------------
Количество треков: 2
Реальные значения DR: DR8
Частота: 44100 Гц
Каналов: 2
Разрядность: 16
Битрейт: 1017 кбит/с
Кодек: FLAC
================================================================================
--------------------------------------------------------------------------------
Анализ: Siberian Heat / ZYX Italo Disco New Generation 5 (CD1) (1)
The Sweeps / ZYX Italo Disco New Generation 5 (CD1) (2)
--------------------------------------------------------------------------------
DR Пики RMS Продолжительность трека
--------------------------------------------------------------------------------
DR7 -0.55 дБ -8.31 дБ 7:23 03-Pick Up The Phone (ZYX Summer Mix)
DR8 -0.30 дБ -8.93 дБ 4:53 09-Voices (Extended Version)
--------------------------------------------------------------------------------
Количество треков: 2
Реальные значения DR: DR7
Частота: 44100 Гц
Каналов: 2
Разрядность: 16
Битрейт: 1017 кбит/с
Кодек: FLAC
================================================================================
--------------------------------------------------------------------------------
Статистика для: 04-In The Night (Extended)
Количество сэмплов: 17868732
Продолжительность: 6:45
--------------------------------------------------------------------------------
Левый Правый
Пики: -0.30 дБ --- -0.30 дБ
Средний RMS: -8.64 дБ --- -8.57 дБ
DR канала: 7.23 дБ --- 7.15 дБ
--------------------------------------------------------------------------------
Реальные значения DR: DR7
Частота: 44100 Гц
Каналов: 2
Разрядность: 16
Битрейт: 1017 кбит/с
Кодек: FLAC
================================================================================
================================================================================
foobar2000 1.2.3 / Замер динамического диапазона (DR) 1.1.1
Дата отчёта: 2015-05-23 09:16:22
--------------------------------------------------------------------------------
Статистика для: 05-Goodbye (Extended Power Mix)
Количество сэмплов: 19488672
Продолжительность: 7:22
--------------------------------------------------------------------------------
Левый Правый
Пики: -0.30 дБ --- -0.30 дБ
Средний RMS: -7.91 дБ --- -7.98 дБ
DR канала: 6.88 дБ --- 6.95 дБ
--------------------------------------------------------------------------------
Реальные значения DR: DR7
Частота: 44100 Гц
Каналов: 2
Разрядность: 16
Битрейт: 1017 кбит/с
Кодек: FLAC
================================================================================





Треклист
01. Modern Boots - Tears Of A Broken Heart (Extended Version) [07:38]
02. Helicon - The Net (Vocal Version) [06:50]
03. Estimado - Yes You One (Long Version) [08:31]
04. Jaco - Hey Operator (Rum Version) [06:24]
05. D.White - No Connect (Long Version) [07:03]
06. Amaya - New Ways [05:09]
07. Linda Jo Rizzo Feat. Ryan Paris - All Around (80s Mix Long Version) [05:27]
08. Dean Corporation - App Me (Italo Dance Mix) [05:42]
09. Digitalo - Digitalo (Extended Version) [07:06]
10. Laserdance - Cosmic Energy (Space Version) [07:36]
11. Tiziana Rivale - Just Hold Me Tight (Soft Version) [06:32]
Лог EAC
 Exact Audio Copy V1.0 beta 6 from 9. April 2015
Отчёт EAC об извлечении, выполненном 23. мая 2015, 8:55
Various Artists / ZYX Italo Disco New Generation 5 (CD 2)
Дисковод: PIONEER BD-RW BDR-206 Adapter: 1 ID: 1
Режим чтения : Достоверность
Использование точного потока : Да
Отключение кэша аудио : Да
Использование указателей C2 : Нет
Коррекция смещения при чтении : 667
Способность читать области Lead-in и Lead-out : Нет
Заполнение пропущенных сэмплов тишиной : Да
Удаление блоков с тишиной в начале и конце : Нет
При вычислениях CRC использовались нулевые сэмплы : Да
Интерфейс : Встроенный Win32-интерфейс для Win NT/2000
Выходной формат : Пользовательский кодировщик
Выбранный битрейт : 1024 kBit/s
Качество : Высокий
Добавление ID3-тега : Нет
Утилита сжатия : C:\Program Files (x86)\Exact Audio Copy\FLAC\FLAC.EXE
Дополнительные параметры : -T "COMMENT=Ripped by SergeyJD"-8 -V -T "ARTIST=%artist%" -T "TITLE=%title%" -T "ALBUM=%albumtitle%" -T "DATE=%year%" -T "TRACKNUMBER=%tracknr%" -T "GENRE=%genre%" -T "COMMENT=%comment%" -T "BAND=%albuminterpret%" -T "ALBUMARTIST=%albuminterpret%" -T "COMPOSER=%composer%" %haslyrics%--tag-from-file=LYRICS="%lyricsfile%"%haslyrics% -T "DISCNUMBER=%cdnumber%" -T "TOTALDISCS=%totalcds%" -T "TOTALTRACKS=%numtracks%" %hascover%--picture="%coverfile%"%hascover% %source% -o %dest%
TOC извлечённого CD
Трек | Старт | Длительность | Начальный сектор | Конечный сектор
---------------------------------------------------------------------
1 | 0:00.00 | 7:38.54 | 0 | 34403
2 | 7:38.54 | 6:50.73 | 34404 | 65226
3 | 14:29.52 | 8:31.17 | 65227 | 103568
4 | 23:00.69 | 6:24.34 | 103569 | 132402
5 | 29:25.28 | 7:03.45 | 132403 | 164172
6 | 36:28.73 | 5:09.69 | 164173 | 187416
7 | 41:38.67 | 5:27.30 | 187417 | 211971
8 | 47:06.22 | 5:42.35 | 211972 | 237656
9 | 52:48.57 | 7:06.73 | 237657 | 269679
10 | 59:55.55 | 7:36.45 | 269680 | 303924
11 | 67:32.25 | 6:32.12 | 303925 | 333336
Характеристики диапазона извлечения и сообщения об ошибках
Выбранный диапазон
Имя файла D:\РАЗДАЧИ!!!!\VA - ZYX Italo Disco New Generation 5 (2CD ZYX 82762-2) - 2014\Disc 2\Various Artists - ZYX Italo Disco New Generation 5 (CD 2).wav
Пиковый уровень 96.6 %
Скорость извлечения 8.3 X
Качество диапазона 99.9 %
CRC теста EBF70D03
CRC копии EBF70D03
Копирование... OK
Ошибок не произошло
AccurateRip: сводка
Трек 1 : извлечено точно (доверие 1) [5E4358DD] (AR v2)
Трек 2 : извлечено точно (доверие 1) [C627E68F] (AR v2)
Трек 3 : извлечено точно (доверие 1) [450F65C4] (AR v2)
Трек 4 : извлечено точно (доверие 1) [77E08DF4] (AR v2)
Трек 5 : извлечено точно (доверие 1) [C77DE2D5] (AR v2)
Трек 6 : извлечено точно (доверие 1) [CBAE0A5D] (AR v2)
Трек 7 : извлечено точно (доверие 1) [09FA7CEA] (AR v2)
Трек 8 : извлечено точно (доверие 1) [9F830AF3] (AR v2)
Трек 9 : извлечено точно (доверие 1) [3997553E] (AR v2)
Трек 10 : извлечено точно (доверие 1) [D1A8747D] (AR v2)
Трек 11 : извлечено точно (доверие 1) [54AAFB01] (AR v2)
Все треки извлечены точно
Конец отчёта
---- CUETools DB Plugin V2.1.6
[CTDB TOCID: 6coG7hkrDePW1ykHKbot7KcuJOs-] found
Submit result: 6coG7hkrDePW1ykHKbot7KcuJOs- has been confirmed
Track | CTDB Status
1 | (3/3) Accurately ripped
2 | (3/3) Accurately ripped
3 | (3/3) Accurately ripped
4 | (3/3) Accurately ripped
5 | (3/3) Accurately ripped
6 | (3/3) Accurately ripped
7 | (3/3) Accurately ripped
8 | (3/3) Accurately ripped
9 | (3/3) Accurately ripped
10 | (3/3) Accurately ripped
11 | (3/3) Accurately ripped
==== Контрольная сумма отчёта 648C5B5EF32492CFAA449B90300E237BAEA386CBF4964EA599C72FE7B1F4DA39 ====
Содержание индексной карты (.CUE)
 REM GENRE "Italo-Disco, Hi NRG, Euro-Disco"
REM DATE 2014
REM DISCID 96115C0B
REM COMMENT "ExactAudioCopy v1.0b6"
PERFORMER "Various Artists"
TITLE "ZYX Italo Disco New Generation 5 (CD 2)"
FILE "Various Artists - ZYX Italo Disco New Generation 5 (CD 2).flac" WAVE
TRACK 01 AUDIO
TITLE "Tears Of A Broken Heart (Extended Version)"
PERFORMER "Modern Boots"
FLAGS DCP
INDEX 01 00:00:00
TRACK 02 AUDIO
TITLE "The Net (Vocal Version)"
PERFORMER "Helicon"
FLAGS DCP
INDEX 01 07:38:54
TRACK 03 AUDIO
TITLE "Yes You One (Long Version)"
PERFORMER "Estimado"
FLAGS DCP
INDEX 00 14:29:19
INDEX 01 14:29:52
TRACK 04 AUDIO
TITLE "Hey Operator (Rum Version)"
PERFORMER "Jaco"
FLAGS DCP
INDEX 01 23:00:69
TRACK 05 AUDIO
TITLE "No Connect (Long Version)"
PERFORMER "D.White"
FLAGS DCP
INDEX 00 29:24:28
INDEX 01 29:25:28
TRACK 06 AUDIO
TITLE "New Ways"
PERFORMER "Amaya"
FLAGS DCP
INDEX 00 36:27:74
INDEX 01 36:28:73
TRACK 07 AUDIO
TITLE "All Around (80s Mix Long Version)"
PERFORMER "Linda Jo Rizzo Feat. Ryan Paris "
FLAGS DCP
INDEX 00 41:37:67
INDEX 01 41:38:67
TRACK 08 AUDIO
TITLE "App Me (Italo Dance Mix)"
PERFORMER "Dean Corporation "
FLAGS DCP
INDEX 00 47:05:22
INDEX 01 47:06:22
TRACK 09 AUDIO
TITLE "Digitalo (Extended Version)"
PERFORMER "Digitalo"
FLAGS DCP
INDEX 00 52:47:57
INDEX 01 52:48:57
TRACK 10 AUDIO
TITLE "Cosmic Energy (Space Version)"
PERFORMER "Laserdance"
FLAGS DCP
INDEX 00 59:54:74
INDEX 01 59:55:55
TRACK 11 AUDIO
TITLE "Just Hold Me Tight (Soft Version)"
PERFORMER "Tiziana Rivale"
FLAGS DCP
INDEX 00 67:30:67
INDEX 01 67:32:25
Лог auCDtect Task Manager
 -----------------------
DON'T MODIFY THIS FILE
-----------------------
PERFORMER: auCDtect Task Manager, ver. 1.5.1RC6 build 1.5.1.7
Copyright (c) 2008-2010 y-soft. All rights reserved
http://y-soft.org
ANALYZER: auCDtect: CD records authenticity detector, version 0.8.2
Copyright (c) 2004 Oleg Berngardt. All rights reserved.
Copyright (c) 2004 Alexander Djourik. All rights reserved.
FILE: Various Artists - ZYX Italo Disco New Generation 5 (CD 2).flac
Size: 566088502 Hash: 47BF48E6D23275ACAD8A29D77FDDD75E Accuracy: -m0
Conclusion: CDDA 100%
Signature: 6FC81B586E7BC75FAD8DE0906295964EF788ADC2
Замер динамического диапазона (DR)
 foobar2000 1.2.3 / Замер динамического диапазона (DR) 1.1.1
Дата отчёта: 2015-05-23 09:17:23
--------------------------------------------------------------------------------
Анализ: Amaya / ZYX Italo Disco New Generation 5 (CD 2) (1-2)
Dean Corporation / ZYX Italo Disco New Generation 5 (CD 2) (3)
Digitalo / ZYX Italo Disco New Generation 5 (CD 2) (4)
--------------------------------------------------------------------------------
DR Пики RMS Продолжительность трека
--------------------------------------------------------------------------------
DR8 -0.30 дБ -9.19 дБ 7:04 05-No Connect (Long Version)
DR8 -0.30 дБ -9.20 дБ 5:10 06-New Ways
DR7 -0.30 дБ -8.13 дБ 5:42 08-App Me (Italo Dance Mix)
DR8 -0.30 дБ -9.59 дБ 7:07 09-Digitalo (Extended Version)
--------------------------------------------------------------------------------
Количество треков: 4
Реальные значения DR: DR8
Частота: 44100 Гц
Каналов: 2
Разрядность: 16
Битрейт: 1019 кбит/с
Кодек: FLAC
================================================================================
--------------------------------------------------------------------------------
Статистика для: 03-Yes You One (Long Version)
Количество сэмплов: 22545096
Продолжительность: 8:31
--------------------------------------------------------------------------------
Левый Правый
Пики: -0.30 дБ --- -0.30 дБ
Средний RMS: -9.82 дБ --- -9.78 дБ
DR канала: 8.00 дБ --- 7.91 дБ
--------------------------------------------------------------------------------
Реальные значения DR: DR8
Частота: 44100 Гц
Каналов: 2
Разрядность: 16
Битрейт: 1019 кбит/с
Кодек: FLAC
================================================================================
--------------------------------------------------------------------------------
Анализ: Helicon / ZYX Italo Disco New Generation 5 (CD 2) (1)
Jaco / ZYX Italo Disco New Generation 5 (CD 2) (2)
Laserdance / ZYX Italo Disco New Generation 5 (CD 2) (3)
--------------------------------------------------------------------------------
DR Пики RMS Продолжительность трека
--------------------------------------------------------------------------------
DR8 -0.30 дБ -10.14 дБ 6:51 02-The Net (Vocal Version)
DR8 -0.30 дБ -8.96 дБ 6:24 04-Hey Operator (Rum Version)
DR8 -0.30 дБ -9.64 дБ 7:37 10-Cosmic Energy (Space Version)
--------------------------------------------------------------------------------
Количество треков: 3
Реальные значения DR: DR8
Частота: 44100 Гц
Каналов: 2
Разрядность: 16
Битрейт: 1019 кбит/с
Кодек: FLAC
================================================================================
--------------------------------------------------------------------------------
Статистика для: 07-All Around (80s Mix Long Version)
Количество сэмплов: 14438340
Продолжительность: 5:27
--------------------------------------------------------------------------------
Левый Правый
Пики: -0.30 дБ --- -0.30 дБ
Средний RMS: -9.31 дБ --- -9.19 дБ
DR канала: 7.67 дБ --- 7.58 дБ
--------------------------------------------------------------------------------
Реальные значения DR: DR8
Частота: 44100 Гц
Каналов: 2
Разрядность: 16
Битрейт: 1019 кбит/с
Кодек: FLAC
================================================================================
--------------------------------------------------------------------------------
Анализ: Modern Boots / ZYX Italo Disco New Generation 5 (CD 2) (1)
Tiziana Rivale / ZYX Italo Disco New Generation 5 (CD 2) (2)
--------------------------------------------------------------------------------
DR Пики RMS Продолжительность трека
--------------------------------------------------------------------------------
DR8 -0.30 дБ -8.59 дБ 7:39 01-Tears Of A Broken Heart (Extended Version)
DR8 -0.30 дБ -9.18 дБ 6:32 11-Just Hold Me Tight (Soft Version)
--------------------------------------------------------------------------------
Количество треков: 2
Реальные значения DR: DR8
Частота: 44100 Гц
Каналов: 2
Разрядность: 16
Битрейт: 1019 кбит/с
Кодек: FLAC
================================================================================
 Exact Audio Copy V1.0 beta 6 from 9. April 2015
Отчёт EAC об извлечении, выполненном 23. мая 2015, 8:55
Various Artists / ZYX Italo Disco New Generation 5 (CD 2)
Дисковод: PIONEER BD-RW BDR-206 Adapter: 1 ID: 1
Режим чтения : Достоверность
Использование точного потока : Да
Отключение кэша аудио : Да
Использование указателей C2 : Нет
Коррекция смещения при чтении : 667
Способность читать области Lead-in и Lead-out : Нет
Заполнение пропущенных сэмплов тишиной : Да
Удаление блоков с тишиной в начале и конце : Нет
При вычислениях CRC использовались нулевые сэмплы : Да
Интерфейс : Встроенный Win32-интерфейс для Win NT/2000
Выходной формат : Пользовательский кодировщик
Выбранный битрейт : 1024 kBit/s
Качество : Высокий
Добавление ID3-тега : Нет
Утилита сжатия : C:\Program Files (x86)\Exact Audio Copy\FLAC\FLAC.EXE
Дополнительные параметры : -T "COMMENT=Ripped by SergeyJD"-8 -V -T "ARTIST=%artist%" -T "TITLE=%title%" -T "ALBUM=%albumtitle%" -T "DATE=%year%" -T "TRACKNUMBER=%tracknr%" -T "GENRE=%genre%" -T "COMMENT=%comment%" -T "BAND=%albuminterpret%" -T "ALBUMARTIST=%albuminterpret%" -T "COMPOSER=%composer%" %haslyrics%--tag-from-file=LYRICS="%lyricsfile%"%haslyrics% -T "DISCNUMBER=%cdnumber%" -T "TOTALDISCS=%totalcds%" -T "TOTALTRACKS=%numtracks%" %hascover%--picture="%coverfile%"%hascover% %source% -o %dest%
TOC извлечённого CD
Трек | Старт | Длительность | Начальный сектор | Конечный сектор
---------------------------------------------------------------------
1 | 0:00.00 | 7:38.54 | 0 | 34403
2 | 7:38.54 | 6:50.73 | 34404 | 65226
3 | 14:29.52 | 8:31.17 | 65227 | 103568
4 | 23:00.69 | 6:24.34 | 103569 | 132402
5 | 29:25.28 | 7:03.45 | 132403 | 164172
6 | 36:28.73 | 5:09.69 | 164173 | 187416
7 | 41:38.67 | 5:27.30 | 187417 | 211971
8 | 47:06.22 | 5:42.35 | 211972 | 237656
9 | 52:48.57 | 7:06.73 | 237657 | 269679
10 | 59:55.55 | 7:36.45 | 269680 | 303924
11 | 67:32.25 | 6:32.12 | 303925 | 333336
Характеристики диапазона извлечения и сообщения об ошибках
Выбранный диапазон
Имя файла D:\РАЗДАЧИ!!!!\VA - ZYX Italo Disco New Generation 5 (2CD ZYX 82762-2) - 2014\Disc 2\Various Artists - ZYX Italo Disco New Generation 5 (CD 2).wav
Пиковый уровень 96.6 %
Скорость извлечения 8.3 X
Качество диапазона 99.9 %
CRC теста EBF70D03
CRC копии EBF70D03
Копирование... OK
Ошибок не произошло
AccurateRip: сводка
Трек 1 : извлечено точно (доверие 1) [5E4358DD] (AR v2)
Трек 2 : извлечено точно (доверие 1) [C627E68F] (AR v2)
Трек 3 : извлечено точно (доверие 1) [450F65C4] (AR v2)
Трек 4 : извлечено точно (доверие 1) [77E08DF4] (AR v2)
Трек 5 : извлечено точно (доверие 1) [C77DE2D5] (AR v2)
Трек 6 : извлечено точно (доверие 1) [CBAE0A5D] (AR v2)
Трек 7 : извлечено точно (доверие 1) [09FA7CEA] (AR v2)
Трек 8 : извлечено точно (доверие 1) [9F830AF3] (AR v2)
Трек 9 : извлечено точно (доверие 1) [3997553E] (AR v2)
Трек 10 : извлечено точно (доверие 1) [D1A8747D] (AR v2)
Трек 11 : извлечено точно (доверие 1) [54AAFB01] (AR v2)
Все треки извлечены точно
Конец отчёта
---- CUETools DB Plugin V2.1.6
[CTDB TOCID: 6coG7hkrDePW1ykHKbot7KcuJOs-] found
Submit result: 6coG7hkrDePW1ykHKbot7KcuJOs- has been confirmed
Track | CTDB Status
1 | (3/3) Accurately ripped
2 | (3/3) Accurately ripped
3 | (3/3) Accurately ripped
4 | (3/3) Accurately ripped
5 | (3/3) Accurately ripped
6 | (3/3) Accurately ripped
7 | (3/3) Accurately ripped
8 | (3/3) Accurately ripped
9 | (3/3) Accurately ripped
10 | (3/3) Accurately ripped
11 | (3/3) Accurately ripped
==== Контрольная сумма отчёта 648C5B5EF32492CFAA449B90300E237BAEA386CBF4964EA599C72FE7B1F4DA39 ====
 REM GENRE "Italo-Disco, Hi NRG, Euro-Disco"
REM DATE 2014
REM DISCID 96115C0B
REM COMMENT "ExactAudioCopy v1.0b6"
PERFORMER "Various Artists"
TITLE "ZYX Italo Disco New Generation 5 (CD 2)"
FILE "Various Artists - ZYX Italo Disco New Generation 5 (CD 2).flac" WAVE
TRACK 01 AUDIO
TITLE "Tears Of A Broken Heart (Extended Version)"
PERFORMER "Modern Boots"
FLAGS DCP
INDEX 01 00:00:00
TRACK 02 AUDIO
TITLE "The Net (Vocal Version)"
PERFORMER "Helicon"
FLAGS DCP
INDEX 01 07:38:54
TRACK 03 AUDIO
TITLE "Yes You One (Long Version)"
PERFORMER "Estimado"
FLAGS DCP
INDEX 00 14:29:19
INDEX 01 14:29:52
TRACK 04 AUDIO
TITLE "Hey Operator (Rum Version)"
PERFORMER "Jaco"
FLAGS DCP
INDEX 01 23:00:69
TRACK 05 AUDIO
TITLE "No Connect (Long Version)"
PERFORMER "D.White"
FLAGS DCP
INDEX 00 29:24:28
INDEX 01 29:25:28
TRACK 06 AUDIO
TITLE "New Ways"
PERFORMER "Amaya"
FLAGS DCP
INDEX 00 36:27:74
INDEX 01 36:28:73
TRACK 07 AUDIO
TITLE "All Around (80s Mix Long Version)"
PERFORMER "Linda Jo Rizzo Feat. Ryan Paris "
FLAGS DCP
INDEX 00 41:37:67
INDEX 01 41:38:67
TRACK 08 AUDIO
TITLE "App Me (Italo Dance Mix)"
PERFORMER "Dean Corporation "
FLAGS DCP
INDEX 00 47:05:22
INDEX 01 47:06:22
TRACK 09 AUDIO
TITLE "Digitalo (Extended Version)"
PERFORMER "Digitalo"
FLAGS DCP
INDEX 00 52:47:57
INDEX 01 52:48:57
TRACK 10 AUDIO
TITLE "Cosmic Energy (Space Version)"
PERFORMER "Laserdance"
FLAGS DCP
INDEX 00 59:54:74
INDEX 01 59:55:55
TRACK 11 AUDIO
TITLE "Just Hold Me Tight (Soft Version)"
PERFORMER "Tiziana Rivale"
FLAGS DCP
INDEX 00 67:30:67
INDEX 01 67:32:25
 -----------------------
DON'T MODIFY THIS FILE
-----------------------
PERFORMER: auCDtect Task Manager, ver. 1.5.1RC6 build 1.5.1.7
Copyright (c) 2008-2010 y-soft. All rights reserved
http://y-soft.org
ANALYZER: auCDtect: CD records authenticity detector, version 0.8.2
Copyright (c) 2004 Oleg Berngardt. All rights reserved.
Copyright (c) 2004 Alexander Djourik. All rights reserved.
FILE: Various Artists - ZYX Italo Disco New Generation 5 (CD 2).flac
Size: 566088502 Hash: 47BF48E6D23275ACAD8A29D77FDDD75E Accuracy: -m0
Conclusion: CDDA 100%
Signature: 6FC81B586E7BC75FAD8DE0906295964EF788ADC2
 foobar2000 1.2.3 / Замер динамического диапазона (DR) 1.1.1
Дата отчёта: 2015-05-23 09:17:23
--------------------------------------------------------------------------------
Анализ: Amaya / ZYX Italo Disco New Generation 5 (CD 2) (1-2)
Dean Corporation / ZYX Italo Disco New Generation 5 (CD 2) (3)
Digitalo / ZYX Italo Disco New Generation 5 (CD 2) (4)
--------------------------------------------------------------------------------
DR Пики RMS Продолжительность трека
--------------------------------------------------------------------------------
DR8 -0.30 дБ -9.19 дБ 7:04 05-No Connect (Long Version)
DR8 -0.30 дБ -9.20 дБ 5:10 06-New Ways
DR7 -0.30 дБ -8.13 дБ 5:42 08-App Me (Italo Dance Mix)
DR8 -0.30 дБ -9.59 дБ 7:07 09-Digitalo (Extended Version)
--------------------------------------------------------------------------------
Количество треков: 4
Реальные значения DR: DR8
Частота: 44100 Гц
Каналов: 2
Разрядность: 16
Битрейт: 1019 кбит/с
Кодек: FLAC
================================================================================
--------------------------------------------------------------------------------
Статистика для: 03-Yes You One (Long Version)
Количество сэмплов: 22545096
Продолжительность: 8:31
--------------------------------------------------------------------------------
Левый Правый
Пики: -0.30 дБ --- -0.30 дБ
Средний RMS: -9.82 дБ --- -9.78 дБ
DR канала: 8.00 дБ --- 7.91 дБ
--------------------------------------------------------------------------------
Реальные значения DR: DR8
Частота: 44100 Гц
Каналов: 2
Разрядность: 16
Битрейт: 1019 кбит/с
Кодек: FLAC
================================================================================
--------------------------------------------------------------------------------
Анализ: Helicon / ZYX Italo Disco New Generation 5 (CD 2) (1)
Jaco / ZYX Italo Disco New Generation 5 (CD 2) (2)
Laserdance / ZYX Italo Disco New Generation 5 (CD 2) (3)
--------------------------------------------------------------------------------
DR Пики RMS Продолжительность трека
--------------------------------------------------------------------------------
DR8 -0.30 дБ -10.14 дБ 6:51 02-The Net (Vocal Version)
DR8 -0.30 дБ -8.96 дБ 6:24 04-Hey Operator (Rum Version)
DR8 -0.30 дБ -9.64 дБ 7:37 10-Cosmic Energy (Space Version)
--------------------------------------------------------------------------------
Количество треков: 3
Реальные значения DR: DR8
Частота: 44100 Гц
Каналов: 2
Разрядность: 16
Битрейт: 1019 кбит/с
Кодек: FLAC
================================================================================
--------------------------------------------------------------------------------
Статистика для: 07-All Around (80s Mix Long Version)
Количество сэмплов: 14438340
Продолжительность: 5:27
--------------------------------------------------------------------------------
Левый Правый
Пики: -0.30 дБ --- -0.30 дБ
Средний RMS: -9.31 дБ --- -9.19 дБ
DR канала: 7.67 дБ --- 7.58 дБ
--------------------------------------------------------------------------------
Реальные значения DR: DR8
Частота: 44100 Гц
Каналов: 2
Разрядность: 16
Битрейт: 1019 кбит/с
Кодек: FLAC
================================================================================
--------------------------------------------------------------------------------
Анализ: Modern Boots / ZYX Italo Disco New Generation 5 (CD 2) (1)
Tiziana Rivale / ZYX Italo Disco New Generation 5 (CD 2) (2)
--------------------------------------------------------------------------------
DR Пики RMS Продолжительность трека
--------------------------------------------------------------------------------
DR8 -0.30 дБ -8.59 дБ 7:39 01-Tears Of A Broken Heart (Extended Version)
DR8 -0.30 дБ -9.18 дБ 6:32 11-Just Hold Me Tight (Soft Version)
--------------------------------------------------------------------------------
Количество треков: 2
Реальные значения DR: DR8
Частота: 44100 Гц
Каналов: 2
Разрядность: 16
Битрейт: 1019 кбит/с
Кодек: FLAC
================================================================================

[1.18 GB] Скачать / Download