(Italo-Disco, Hi-NRG) VA - Disco Exclusive Collection Vol. 2 - The Best Of Italo Disco ( Sergio Music ) - 1997, APE (image+.cue), lossless - Скачать

Жанр: Italo Disco, Hi - Energy
Год выпуска диска: 1997
Производитель диска: Germany, Poland
Аудио кодек: APE
Тип рипа: image+.cue
Битрейт аудио: lossless
Продолжительность: 01 : 11 : 28
Трэклист:
01. Debut De Soiree - Nuit De Foilee - 4 : 20
02. Roger Meno - That My Heart Wanna Say - 6 : 14
03. Barbarella - Sucker For Your Love - 6 : 07
04. Michael Bedford - Tonight - 3 : 34
05. Funny Twins - You And Me - 4 : 24
06. U.K. - Road Runner - 6 : 56
07. Patty Ryan - Stay With Me Tonight - 3 : 24
08. Les Mc ' Keown - She's A Lady - 4 : 29
09. Magdaleine - You Can Do - 3 : 29
10. Fancy - Cool Snake - 3 : 25
11. John Christian - Ebony Eyes - 5 : 43
12. Alan Barry - Come On - 4 : 59
13. Grant Miller - California Train - 4 : 59
14. Charlie G. - L'lama L'amour - 5 : 45
15. O.K. - O'Kay - 3 : 38
Доп. информация: Штамповка -1985 - 1988 SERGIO MUSIC . !!! Показания Tay Analyzer - MPEG. Ошибок по диску нет, звук нормальный. Сканы в комплекте.

torrent, soundtrack, pop, высокое качество, альбом, pop-music, музыка, торрент, поп, бесплатно, композиции, поп-музыка, lossless, альбом, трек, скачать, дискография, mp3, песни, cd, download

Exact Audio Copy V0.99 prebeta 4 from 23. January 2008
Отчёт EAC об извлечении, выполненном 21. октября 2009, 11:58
Various Artists / Disco Exclusive Collection vol.2
Дисковод: TSSTcorpCDDVDW TS-L632H Adapter: 1 ID: 0
Режим чтения : Достоверность
Использование точного потока : Да
Отключение кэша аудио : Да
Использование указателей C2 : Нет
Коррекция смещения при чтении : 6
Способность читать области Lead-in и Lead-out : Нет
Заполнение пропущенных сэмплов тишиной : Да
Удаление блоков с тишиной в начале и конце : Нет
При вычислениях CRC использовались нулевые сэмплы : Да
Интерфейс : Встроенный Win32-интерфейс для Win NT/2000
Выходной формат : Внутренние WAV-операции
Формат сэмплов : 44.100 Гц; 16 бит; стерео
TOC извлечённого CD
Трек | Старт | Длительность | Начальный сектор | Конечный сектор
---------------------------------------------------------------------
1 | 0:00.37 | 4:20.00 | 37 | 19536
2 | 4:20.37 | 6:13.45 | 19537 | 47556
3 | 10:34.07 | 6:07.38 | 47557 | 75119
4 | 16:41.45 | 3:33.30 | 75120 | 91124
5 | 20:15.00 | 4:24.37 | 91125 | 110961
6 | 24:39.37 | 6:56.00 | 110962 | 142161
7 | 31:35.37 | 3:24.28 | 142162 | 157489
8 | 34:59.65 | 4:28.47 | 157490 | 177636
9 | 39:28.37 | 3:28.55 | 177637 | 193291
10 | 42:57.17 | 3:24.58 | 193292 | 208649
11 | 46:22.00 | 5:43.32 | 208650 | 234406
12 | 52:05.32 | 4:58.50 | 234407 | 256806
13 | 57:04.07 | 4:59.30 | 256807 | 279261
14 | 62:03.37 | 5:45.25 | 279262 | 305161
15 | 67:48.62 | 3:37.68 | 305162 | 321504
Характеристики диапазона извлечения и сообщения об ошибках
Выбранный диапазон
Имя файла D:\Various Artists - Disco Exclusive Collection vol.2.wav
Пиковый уровень 89.0 %
Качество диапазона 100.0 %
CRC копии 51EBC7AE
Копирование... OK
Ошибок не произошло

[458.8 MB] Скачать / Download