(Italo-Disco, Hi-NRG) VA - Disco Exclusive Collection Vol. 3 - The Best Of Italo Disco ( Sergio Music ) - 1998, APE (image+.cue), lossless - Скачать

Жанр: Italo Disco, Hi - Energy
Год выпуска диска: 1998
Производитель диска: Germany, Poland
Аудио кодек: APE
Тип рипа: image+.cue
Битрейт аудио: lossless
Продолжительность: 01 : 13 : 02
Трэклист:
01. Rewind - Rozalie - 6: 08
02. Latin Lover - Doctor Love - 5 : 52
03. My Mine - Can Delight - 5 : 59
04. Marce - I Want You - 5 : 34
05. Joy Peters - One Night In Love - 6 : 32
06. Tension - My Dream - 5 : 47
07. Monte Kristo - Money For Your Love - 4 : 43
08. Hivoh - To Be Together - 5 : 06
09. Saphir - Storm Of Love - 3 : 58
10. Roxane - Give A Little Love - 5 : 32
11. K.B. Caps - Julia - 7 : 15
12. Jessica - Like A Burning Star - 5 : 00
Bonus Track :
13. Lian Ross - Saturday Night - 5 : 34
Доп. информация: Штамповка - 1985 - 1988 SERGIO MUSIC. Показания Tay - Потреково - MPEG - выборочно, на выходе CDDA. Ошибок нет, сканы в комплекте.

музыка, cd, торрент, бесплатно, поп, поп-музыка, высокое качество, альбом, soundtrack, lossless, песни, трек, композиции, pop-music, mp3, альбом, pop, torrent, скачать, дискография, download

Exact Audio Copy V0.99 prebeta 4 from 23. January 2008
Отчёт EAC об извлечении, выполненном 21. октября 2009, 12:23
Various / Disco Exclusive Collection vol.3
Дисковод: TSSTcorpCDDVDW TS-L632H Adapter: 1 ID: 0
Режим чтения : Достоверность
Использование точного потока : Да
Отключение кэша аудио : Да
Использование указателей C2 : Нет
Коррекция смещения при чтении : 6
Способность читать области Lead-in и Lead-out : Нет
Заполнение пропущенных сэмплов тишиной : Да
Удаление блоков с тишиной в начале и конце : Нет
При вычислениях CRC использовались нулевые сэмплы : Да
Интерфейс : Встроенный Win32-интерфейс для Win NT/2000
Выходной формат : Внутренние WAV-операции
Формат сэмплов : 44.100 Гц; 16 бит; стерео
TOC извлечённого CD
Трек | Старт | Длительность | Начальный сектор | Конечный сектор
---------------------------------------------------------------------
1 | 0:00.00 | 6:08.02 | 0 | 27601
2 | 6:08.02 | 5:52.03 | 27602 | 54004
3 | 12:00.05 | 5:58.73 | 54005 | 80927
4 | 17:59.03 | 5:34.35 | 80928 | 106012
5 | 23:33.38 | 6:32.03 | 106013 | 135415
6 | 30:05.41 | 5:46.40 | 135416 | 161405
7 | 35:52.06 | 4:43.22 | 161406 | 182652
8 | 40:35.28 | 5:06.09 | 182653 | 205611
9 | 45:41.37 | 3:57.63 | 205612 | 223449
10 | 49:39.25 | 5:31.61 | 223450 | 248335
11 | 55:11.11 | 7:15.51 | 248336 | 281011
12 | 62:26.62 | 4:59.51 | 281012 | 303487
13 | 67:26.38 | 5:33.58 | 303488 | 328520
Характеристики диапазона извлечения и сообщения об ошибках
Выбранный диапазон
Имя файла D:\Various - Disco Exclusive Collection vol.3.wav
Пиковый уровень 100.0 %
Качество диапазона 100.0 %
CRC копии AECF7578
Копирование... OK
Ошибок не произошло

[491.9 MB] Скачать / Download