(Italo-Disco) Jonathan Gable / Angie ‎- Central Park / Clouds (CDM) - 1999, FLAC (image+.cue), lossless - Скачать

Жанр: Italo-Disco
Страна-производитель диска: Germany
Год издания: 1999
Год выпуска оригинала:1985, 1984
Издатель (лейбл): ZYX Music (Golden-Dance-Classics)
Номер по каталогу: GDC 2108-8
Страна: Italy
Аудиокодек: FLAC (*.flac)
Тип рипа: image+.cue
Битрейт аудио: lossless
Продолжительность: 22:39
Источник (релизер): MiniMax1
Наличие сканов в содержимом раздачи: да
Треклист:
1. Jonathan Gable – Central Park (Vocal Version) 5:48
2. Jonathan Gable – Central Park (Dub Mix) 5:20
3. Angie – Clouds (Vocal Version) 6:32
4. Angie – Clouds (Instrumental) 5:25

музыка, download, альбом, lossless, cd, торрент, трек, песни, поп, pop-music, mp3, бесплатно, pop, композиции, torrent, soundtrack, дискография, альбом, высокое качество, скачать, поп-музыка

 Exact Audio Copy V0.99 prebeta 5 from 4. May 2009
EAC extraction logfile from 10. July 2012, 21:49
VA / Golden Dance Classics (GDC 2108-8)
Used drive : PIONEER DVD-RW DVR-109 Adapter: 0 ID: 1
Read mode : Secure
Utilize accurate stream : Yes
Defeat audio cache : Yes
Make use of C2 pointers : No
Read offset correction : 48
Overread into Lead-In and Lead-Out : No
Fill up missing offset samples with silence : Yes
Delete leading and trailing silent blocks : No
Null samples used in CRC calculations : Yes
Used interface : Installed external ASPI interface
Used output format : User Defined Encoder
Selected bitrate : 128 kBit/s
Quality : High
Add ID3 tag : No
Command line compressor : C:\Program Files\Exact Audio Copy\Flac\flac.exe
Additional command line options : -8 -V -T "ARTIST=%a" -T "TITLE=%t" -T "ALBUM=%g" -T "DATE=%y" -T "TRACKNUMBER=%n" -T "GENRE=%m" -T "COMMENT=EAC FLAC -8" %s
TOC of the extracted CD
Track | Start | Length | Start sector | End sector
---------------------------------------------------------
1 | 0:00.00 | 5:45.49 | 0 | 25923
2 | 5:45.49 | 5:17.52 | 25924 | 49750
3 | 11:03.26 | 6:21.21 | 49751 | 78346
4 | 17:24.47 | 5:14.34 | 78347 | 101930
Range status and errors
Selected range
Filename H:\Arkhiv Lossless\V\Various Artists\Various Artists - Golden-Dance-Classics Series\(GDC 2108-8) Jonathan Gable - Central Park...Angie - Clouds (CDM) (GDC)\VA - Golden Dance Classics (GDC 2108-8).wav
Peak level 99.4 %
Range quality 100.0 %
Test CRC 4244F285
Copy CRC 4244F285
Copy OK
No errors occurred
AccurateRip summary
Track 1 not present in database
Track 2 not present in database
Track 3 not present in database
Track 4 not present in database
None of the tracks are present in the AccurateRip database
End of status report

[170.8 MB] Скачать / Download