(Italo-Disco) Mr. Zivago - Tell By Your Eyes - 2002, FLAC (image+.cue), lossless - Скачать

Жанр: Italo Disco
Страна-производитель диска: Germany
Год издания: 2002
Издатель (лейбл): Eurobeat Traxx
Номер по каталогу: ETCD-11007
Страна: Italy
Аудиокодек: FLAC (*.flac)
Тип рипа: image+.cue
Битрейт аудио: lossless
Продолжительность: 73:20.53
Источник (релизер): CD из личной коллекции
Наличие сканов в содержимом раздачи: даMP3 (tracks, 320 kbps)

песни, трек, поп, torrent, композиции, скачать, download, высокое качество, альбом, cd, pop-music, поп-музыка, дискография, soundtrack, mp3, lossless, бесплатно, альбом, музыка, pop, торрент

01. Tell By Your Eyes [0:06:26.27]
02. Say Yes [0:04:25.53]
03. Alive [0:04:19.12]
04. Show The Love [0:04:56.40]
05. Welcome To The Edge [0:04:19.00]
06. Just For You To Be There [0:05:01.73]
07. Sadness Is Like Snow [0:05:22.65]
08. I Will [0:04:37.12]
09. You're The Only [0:05:05.28]
10. Gloria [0:04:37.55]
11. Promises Bridge [0:04:22.30]
12. Yesterday [0:05:55.27]
13. Little Russian (Vocal Version) [0:04:15.22]
14. Love In Moscow (Vocal Version) [0:05:20.53]
15. Tell By Your Eyes (Instrumental) [0:04:15.07]
 Exact Audio Copy V0.99 prebeta 5 from 4. May 2009
Отчёт EAC об извлечении, выполненном 5. августа 2012, 22:41
Mr. Zivago / Tell By Your Eyes
Дисковод: Optiarc DVD RW AD-7201A Adapter: 0 ID: 0
Режим чтения : Достоверность
Использование точного потока : Да
Отключение кэша аудио : Да
Использование указателей C2 : Нет
Коррекция смещения при чтении : 48
Способность читать области Lead-in и Lead-out : Нет
Заполнение пропущенных сэмплов тишиной : Да
Удаление блоков с тишиной в начале и конце : Нет
При вычислениях CRC использовались нулевые сэмплы : Да
Интерфейс : Установленный внешний ASPI-интерфейс
Выходной формат : Внутренние WAV-операции
Формат сэмплов : 44.100 Гц; 16 бит; стерео
TOC извлечённого CD
Трек | Старт | Длительность | Начальный сектор | Конечный сектор
---------------------------------------------------------------------
1 | 0:00.00 | 6:26.27 | 0 | 28976
2 | 6:26.27 | 4:25.53 | 28977 | 48904
3 | 10:52.05 | 4:19.12 | 48905 | 68341
4 | 15:11.17 | 4:56.40 | 68342 | 90581
5 | 20:07.57 | 4:19.00 | 90582 | 110006
6 | 24:26.57 | 5:01.73 | 110007 | 132654
7 | 29:28.55 | 5:22.65 | 132655 | 156869
8 | 34:51.45 | 4:37.12 | 156870 | 177656
9 | 39:28.57 | 5:05.28 | 177657 | 200559
10 | 44:34.10 | 4:37.55 | 200560 | 221389
11 | 49:11.65 | 4:22.30 | 221390 | 241069
12 | 53:34.20 | 5:55.27 | 241070 | 267721
13 | 59:29.47 | 4:15.22 | 267722 | 286868
14 | 63:44.69 | 5:20.53 | 286869 | 310921
15 | 69:05.47 | 4:15.07 | 310922 | 330053
Характеристики диапазона извлечения и сообщения об ошибках
Выбранный диапазон
Имя файла O:\MUZZIGG\UPLOADS\Mr. Zivago - Tell By Your Eyes\Mr. Zivago - Tell By Your Eyes.wav
Пиковый уровень 100.0 %
Качество диапазона 100.0 %
CRC теста 9733E24D
CRC копии 9733E24D
Копирование... OK
Ошибок не произошло
AccurateRip: сводка
Трек 1 точность не определена (достоверность 1) [94D26FFF], AccurateRip вернул [C4F50C82]
Трек 2 точность не определена (достоверность 1) [4BFCBC4D], AccurateRip вернул [B243C77B]
Трек 3 точность не определена (достоверность 1) [053EF8A5], AccurateRip вернул [7F4FC501]
Трек 4 точность не определена (достоверность 1) [D952D457], AccurateRip вернул [D9E9C6F9]
Трек 5 точность не определена (достоверность 1) [82248685], AccurateRip вернул [0F0DF785]
Трек 6 точность не определена (достоверность 1) [A70B68A4], AccurateRip вернул [FE72A1B0]
Трек 7 точность не определена (достоверность 1) [2E851A52], AccurateRip вернул [CBC1937A]
Трек 8 точность не определена (достоверность 1) [35887562], AccurateRip вернул [0DFDA6EC]
Трек 9 точность не определена (достоверность 1) [F994AF7B], AccurateRip вернул [45EFC141]
Трек 10 точность не определена (достоверность 1) [50BDD444], AccurateRip вернул [88B6DFBC]
Трек 11 точность не определена (достоверность 1) [1F31DC75], AccurateRip вернул [A83D6D65]
Трек 12 точность не определена (достоверность 1) [A28F4081], AccurateRip вернул [F20C2543]
Трек 13 точность не определена (достоверность 1) [D58BCFE3], AccurateRip вернул [68BA4D23]
Трек 14 точность не определена (достоверность 1) [D4CA3197], AccurateRip вернул [6F41EFBB]
Трек 15 точность не определена (достоверность 1) [F02938BD], AccurateRip вернул [1884C131]
Ни один трек не прошёл проверки на точность
В вашей базе может быть иной вариант штамповки диска
Конец отчёта
 REM GENRE "Italo Disco"
REM DATE 2002
REM DISCID E011300F
REM COMMENT "ExactAudioCopy v0.99pb5"
PERFORMER "Mr. Zivago"
TITLE "Tell By Your Eyes"
FILE "Mr. Zivago - Tell By Your Eyes.wav" WAVE
TRACK 01 AUDIO
TITLE "Tell By Your Eyes"
PERFORMER "Mr. Zivago"
FLAGS DCP
INDEX 01 00:00:00
TRACK 02 AUDIO
TITLE "Say Yes"
PERFORMER "Mr. Zivago"
FLAGS DCP
INDEX 00 06:24:27
INDEX 01 06:26:27
TRACK 03 AUDIO
TITLE "Alive"
PERFORMER "Mr. Zivago"
FLAGS DCP
INDEX 00 10:50:05
INDEX 01 10:52:05
TRACK 04 AUDIO
TITLE "Show The Love"
PERFORMER "Mr. Zivago"
FLAGS DCP
INDEX 00 15:09:17
INDEX 01 15:11:17
TRACK 05 AUDIO
TITLE "Welcome To The Edge"
PERFORMER "Mr. Zivago"
FLAGS DCP
INDEX 00 20:05:57
INDEX 01 20:07:57
TRACK 06 AUDIO
TITLE "Just For You To Be There"
PERFORMER "Mr. Zivago"
FLAGS DCP
INDEX 00 24:24:57
INDEX 01 24:26:57
TRACK 07 AUDIO
TITLE "Sadness Is Like Snow"
PERFORMER "Mr. Zivago"
FLAGS DCP
INDEX 00 29:26:55
INDEX 01 29:28:55
TRACK 08 AUDIO
TITLE "I Will"
PERFORMER "Mr. Zivago"
FLAGS DCP
INDEX 00 34:49:45
INDEX 01 34:51:45
TRACK 09 AUDIO
TITLE "You're The Only"
PERFORMER "Mr. Zivago"
FLAGS DCP
INDEX 00 39:26:57
INDEX 01 39:28:57
TRACK 10 AUDIO
TITLE "Gloria"
PERFORMER "Mr. Zivago"
FLAGS DCP
INDEX 00 44:32:10
INDEX 01 44:34:10
TRACK 11 AUDIO
TITLE "Promises Bridge"
PERFORMER "Mr. Zivago"
FLAGS DCP
INDEX 00 49:09:65
INDEX 01 49:11:65
TRACK 12 AUDIO
TITLE "Yesterday"
PERFORMER "Mr. Zivago"
FLAGS DCP
INDEX 00 53:32:20
INDEX 01 53:34:20
TRACK 13 AUDIO
TITLE "Little Russian (Vocal Version)"
PERFORMER "Mr. Zivago"
FLAGS DCP
INDEX 00 59:27:47
INDEX 01 59:29:47
TRACK 14 AUDIO
TITLE "Love In Moscow (Vocal Version)"
PERFORMER "Mr. Zivago"
FLAGS DCP
INDEX 00 63:42:69
INDEX 01 63:44:69
TRACK 15 AUDIO
TITLE "Tell By Your Eyes (Instrumental)"
PERFORMER "Mr. Zivago"
FLAGS DCP
INDEX 00 69:03:47
INDEX 01 69:05:47

[589.6 MB] Скачать / Download