(Italo-Disco) Passengers ©1981 "Casino" & ©1983 "Sound Adventure", APE (image + .cue), lossless - Скачать

Страна: Болванка сделана либо в России, либо на Украине подпольно.
Жанр: Считаю, что Italo Disco. EAC опознал его как "misq".
Год выпуска: даже и не знаю. Куплен в 2004 году.
Формат: APE (image + .cue) коврики прилагаются, фото диска тоже
Битрейт аудио: lossless
Продолжительность: 79:10
Треклист:
1. Casino
2. Mister Mouse
3. Touch And Go
4. Annalisa
5. Chacun Son Gout
6. Diana
7. Maki'n The Rounds
8. The Last Romantic
9. Rhapsody
10. Immediate Pleasure
11. Night After Night
12. Go Michelle
13. Mumbo Jumbo
14. Kings Of Fulls
15. Dans Mon Coeur
16.Burning Cool
17. Moving Star
18. Olimpic Fefer
19. Om Vacation

Дискография:
Ни о группе, ни о дискографии ее я толком ничего не знаю. Когда-то в далеком 1984-м году я переписал Sound Adventure у знакомого на бобину. Сам знакомый понятия не имел, что это за группа. В начале 90-х я начал поиски сего релиза. Обошел все студии звукозаписи с кассетой, но никто так и не вспомнил названия группы, хотя все это слышали.
И вот где-то в 2003-м году, благодаря Интернету, я набрел на чью-то фонотеку в мр3 формате. Там была масса раритетов, подавляющее большинство которых сейчас лежит на этом трекере. Там я по треклисту нашел песню Rhapsody. Поскольку мп3 меня не устраивал, я продолжил искать, зная что ищу.
Через год, купив сей диск, я был жутко удивлен тому, что до боли знакомый мне альбом с песней Casino принадлежит "Пассажирам".
Вот кой-чего нарыл в Интернете:об них
Кто писал диск и чем, не имею ни малейшего представления, но:
- звук очень хороший;
- Интернетом опознается (возможно копия снималась с какого-то издания).
Техническая информация:

дискография, композиции, поп-музыка, soundtrack, музыка, песни, скачать, pop-music, cd, torrent, download, pop, трек, mp3, торрент, альбом, lossless, поп, высокое качество, альбом, бесплатно

Passrngers
# xmcd CD database file
#
# Track frame offsets:
# 150
# 16288
# 34117
# 56634
# 72745
# 86398
# 102460
# 123146
# 143703
# 164277
# 182950
# 204404
# 222692
# 246705
# 265868
# 288023
# 306736
# 323104
# 340649
#
# Disc length: 4752 seconds
#
# Revision: 1
# Processed by: cddbd v1.5.2PL0 Copyright (c) Steve Scherf et al.
# Submitted via: jetAudio 5
#
DISCID=27128e13
DTITLE=Passrngers / (p) 1981 - Casino + (p) 1983 Sound Adventure + 3 Bo
DTITLE=nus
DYEAR=
DGENRE=
TTITLE0=Casino
TTITLE1=Mister Mouse
TTITLE2=Touch And Go
TTITLE3=Annalisa
TTITLE4=Chacun Sun Gout
TTITLE5=Diana
TTITLE6=Making The Rounds
TTITLE7=The Last Romantic
TTITLE8=Rhapsody
TTITLE9=Immediate Pleasure
TTITLE10=Night After Night
TTITLE11=Go Michelle
TTITLE12=Mumbo Jumbo
TTITLE13=King Of Fools
TTITLE14=Dans Mon Couer
TTITLE15=Burning Cool
TTITLE16=Movie Star
TTITLE17=Olimpic Refer
TTITLE18=Om Vacation
EXTD=2 in 1
EXTT0=The First Song
EXTT1=The Second Song
EXTT2=The Third Song
EXTT3=The Forth Song
EXTT4=The Fifth Song
EXTT5=The Sixth Song
EXTT6=The Seventh Song
EXTT7=The Eighth Songth
EXTT8=The Firs Song
EXTT9=The Second Song
EXTT10=The Third Song
EXTT11=The Forth Song
EXTT12=The Fifth Song
EXTT13=The Sixth Song
EXTT14=The Seventh Song
EXTT15=The Eighth Song
EXTT16=Bonus
EXTT17=Bonus
EXTT18=Bonus
PLAYORDER=
Отчёт EAC об извлечении, выполненном 14. ноября 2007, 23:20 для диска:
Passrngers / (p) 1981 - Casino + (p) 1983 Sound Adventure + 3 Bonus
Дисковод: _NEC DVD_RW ND-3540A Adapter: 0 ID: 0
Режим чтения: Достоверный (C2: да, Точный поток: да, Отключение кэша: нет)
Коррекция смещения при чтении: 48
Способность читать области Lead-in и Lead-out : Да
Выходной формат: Monkey's Audio Lossless Encoder v3.99 DLL
High Lossless Compression
Другие параметры:
Заполнение пропущенных сэмплов тишиной : Да
Удаление блоков с тишиной в начале и конце : Нет
Установленный внешний ASPI-интерфейс
Характеристики диапазона извлечения и сообщения об ошибках
Выбранный диапазон
Имя файла C:\Passengers\Passrngers - (p) 1981 - Casino + (p) 1983 Sound Adventure + 3 Bonus.ape
Пиковый уровень 100.0 %
Качество диапазона 100.0 %
CRC E303A432
Копирование... OK
Ошибок не произошло
Конец отчёта
REM DISCID 27128E13
REM COMMENT "ExactAudioCopy v0.95b4"
CATALOG 0000000000000
PERFORMER "Passrngers"
TITLE "(p) 1981 - Casino + (p) 1983 Sound Adventure + 3 Bonus"
FILE "Passrngers - (p) 1981 - Casino + (p) 1983 Sound Adventure + 3 Bonus.ape" WAVE
TRACK 01 AUDIO
TITLE "Casino"
PERFORMER "Passrngers"
ISRC 000000000000
INDEX 01 00:00:00
TRACK 02 AUDIO
TITLE "Mister Mouse"
PERFORMER "Passrngers"
ISRC 000000000000
INDEX 01 03:35:13
TRACK 03 AUDIO
TITLE "Touch And Go"
PERFORMER "Passrngers"
ISRC 000000000000
INDEX 01 07:32:67
TRACK 04 AUDIO
TITLE "Annalisa"
PERFORMER "Passrngers"
ISRC 000000000000
INDEX 00 12:33:08
INDEX 01 12:33:09
TRACK 05 AUDIO
TITLE "Chacun Sun Gout"
PERFORMER "Passrngers"
ISRC 000000000000
INDEX 01 16:07:70
TRACK 06 AUDIO
TITLE "Diana"
PERFORMER "Passrngers"
ISRC 000000000000
INDEX 01 19:09:73
TRACK 07 AUDIO
TITLE "Making The Rounds"
PERFORMER "Passrngers"
ISRC 000000000000
INDEX 01 22:44:10
TRACK 08 AUDIO
TITLE "The Last Romantic"
PERFORMER "Passrngers"
ISRC 000000000000
INDEX 01 27:19:71
TRACK 09 AUDIO
TITLE "Rhapsody"
PERFORMER "Passrngers"
ISRC 000000000000
INDEX 01 31:54:03
TRACK 10 AUDIO
TITLE "Immediate Pleasure"
PERFORMER "Passrngers"
ISRC 000000000000
INDEX 01 36:28:27
TRACK 11 AUDIO
TITLE "Night After Night"
PERFORMER "Passrngers"
ISRC 000000000000
INDEX 01 40:37:25
TRACK 12 AUDIO
TITLE "Go Michelle"
PERFORMER "Passrngers"
ISRC 000000000000
INDEX 01 45:23:29
TRACK 13 AUDIO
TITLE "Mumbo Jumbo"
PERFORMER "Passrngers"
ISRC 000000000000
INDEX 01 49:27:17
TRACK 14 AUDIO
TITLE "King Of Fools"
PERFORMER "Passrngers"
ISRC 000000000000
INDEX 01 54:47:30
TRACK 15 AUDIO
TITLE "Dans Mon Couer"
PERFORMER "Passrngers"
ISRC 000000000000
INDEX 01 59:02:68
TRACK 16 AUDIO
TITLE "Burning Cool"
PERFORMER "Passrngers"
ISRC 000000000000
INDEX 01 63:58:23
TRACK 17 AUDIO
TITLE "Movie Star"
PERFORMER "Passrngers"
ISRC 000000000000
INDEX 01 68:07:61
TRACK 18 AUDIO
TITLE "Olimpic Refer"
PERFORMER "Passrngers"
ISRC 000000000000
INDEX 01 71:46:04
TRACK 19 AUDIO
TITLE "Om Vacation"
PERFORMER "Passrngers"
ISRC 000000000000
INDEX 01 75:39:74

[486 MB] Скачать / Download