(Italo-Disco) Plastic Mode - Plastic Mode - 2011, FLAC (image+.cue), lossless - Скачать

Жанр: Italo-Disco
Страна-производитель диска: Germany
Год издания диска: 2011
Издатель (лейбл): ZYX Music
Номер по каталогу: ZYX 20973-2
Страна исполнителя: Italy
Аудиокодек: FLAC (*.flac)
Тип рипа: image+.cue
Битрейт аудио: lossless
Продолжительность: 42:30
Источник (релизер): Собственный диск
Наличие сканов в содержимом раздачи: да
Треклист:
01. N.Y. Life [0:06:38.47]
02. Summer Time [0:03:55.26]
03. Digitally [0:05:01.55]
04. Mi Amor [0:04:26.42]
05. A Jazzy Woman [0:04:14.58]
06. Baja Imperial [0:04:57.21]
07. Mi Amor (12'' Version) [0:05:53.35]
08. Baja Imperial (12'' Version) [0:07:22.56]

lossless, поп-музыка, дискография, mp3, высокое качество, pop-music, торрент, альбом, альбом, музыка, поп, бесплатно, композиции, torrent, cd, песни, скачать, soundtrack, pop, download, трек

 Exact Audio Copy V0.99 prebeta 5 from 4. May 2009
Отчёт EAC об извлечении, выполненном 21. августа 2011, 16:35
Plastic Mode / Plastic Mode
Дисковод: HL-DT-STDVD-RAM GH22NP20 Adapter: 0 ID: 0
Режим чтения : Достоверность
Использование точного потока : Да
Отключение кэша аудио : Да
Использование указателей C2 : Нет
Коррекция смещения при чтении : 102
Способность читать области Lead-in и Lead-out : Нет
Заполнение пропущенных сэмплов тишиной : Да
Удаление блоков с тишиной в начале и конце : Нет
При вычислениях CRC использовались нулевые сэмплы : Да
Интерфейс : Встроенный Win32-интерфейс для Win NT/2000
Выходной формат : Внутренние WAV-операции
Формат сэмплов : 44.100 Гц; 16 бит; стерео
TOC извлечённого CD
Трек | Старт | Длительность | Начальный сектор | Конечный сектор
---------------------------------------------------------------------
1 | 0:00.00 | 6:38.47 | 0 | 29896
2 | 6:38.47 | 3:55.26 | 29897 | 47547
3 | 10:33.73 | 5:01.55 | 47548 | 70177
4 | 15:35.53 | 4:26.42 | 70178 | 90169
5 | 20:02.20 | 4:14.58 | 90170 | 109277
6 | 24:17.03 | 4:57.21 | 109278 | 131573
7 | 29:14.24 | 5:53.35 | 131574 | 158083
8 | 35:07.59 | 7:22.56 | 158084 | 191289
Характеристики диапазона извлечения и сообщения об ошибках
Выбранный диапазон
Имя файла D:\Music\Plastic Mode - Plastic Mode (2011)\Plastic Mode - Plastic Mode.wav
Пиковый уровень 98.7 %
Качество диапазона 100.0 %
CRC теста B5D3CE42
CRC копии B5D3CE42
Копирование... OK
Ошибок не произошло
AccurateRip: сводка
Трек 1 нет в базе данных
Трек 2 нет в базе данных
Трек 3 нет в базе данных
Трек 4 нет в базе данных
Трек 5 нет в базе данных
Трек 6 нет в базе данных
Трек 7 нет в базе данных
Трек 8 нет в базе данных
Ни одного трека нет в базе AccurateRip
Конец отчёта
 REM GENRE Italo-Disco
REM DATE 2011
REM DISCID 6009F608
REM COMMENT "ExactAudioCopy v0.99pb5"
PERFORMER "Plastic Mode"
TITLE "Plastic Mode"
FILE "Plastic Mode - Plastic Mode.flac" WAVE
TRACK 01 AUDIO
TITLE "N.Y. Life"
PERFORMER "Plastic Mode"
FLAGS DCP
INDEX 01 00:00:00
TRACK 02 AUDIO
TITLE "Summer Time"
PERFORMER "Plastic Mode"
FLAGS DCP
INDEX 01 06:38:47
TRACK 03 AUDIO
TITLE "Digitally"
PERFORMER "Plastic Mode"
FLAGS DCP
INDEX 00 10:32:48
INDEX 01 10:33:73
TRACK 04 AUDIO
TITLE "Mi Amor"
PERFORMER "Plastic Mode"
FLAGS DCP
INDEX 01 15:35:53
TRACK 05 AUDIO
TITLE "A Jazzy Woman"
PERFORMER "Plastic Mode"
FLAGS DCP
INDEX 00 20:01:19
INDEX 01 20:02:20
TRACK 06 AUDIO
TITLE "Baja Imperial"
PERFORMER "Plastic Mode"
FLAGS DCP
INDEX 01 24:17:03
TRACK 07 AUDIO
TITLE "Mi Amor (12'' Version)"
PERFORMER "Plastic Mode"
FLAGS DCP
INDEX 01 29:14:24
TRACK 08 AUDIO
TITLE "Baja Imperial (12'' Version)"
PERFORMER "Plastic Mode"
FLAGS DCP
INDEX 00 35:06:58
INDEX 01 35:07:59

[360.7 MB] Скачать / Download