(Italo-Disco) Righeira - Singles - 1995, APE (image+.cue), lossless - Скачать

Жанр: Italo-Disco
Год выпуска диска: 1995
Производитель диска: Canada
Аудио кодек: APE
Тип рипа: image+.cue
Битрейт аудио: lossless
Трэклист:
01. Vamos A La Playa (12" Mix)
02. No Tengo Dinero (12" Mix)
03. Vamos A La Playa (Radio Edit)
04. No Tengo Dinero (Radio Edit)
Доп. информация:http://www.youtube.com/watch?v=bbruZHyCy9A

композиции, бесплатно, soundtrack, торрент, песни, pop-music, альбом, lossless, высокое качество, torrent, музыка, cd, альбом, mp3, скачать, pop, трек, поп-музыка, дискография, поп, download

Exact Audio Copy V0.99 prebeta 4 from 23. January 2008
EAC extraction logfile from 21. June 2008, 20:39
Righeira / Singles
Used drive : _NEC DVD_RW ND-3550A Adapter: 5 ID: 0
Read mode : Secure
Utilize accurate stream : Yes
Defeat audio cache : Yes
Make use of C2 pointers : No
Read offset correction : 48
Overread into Lead-In and Lead-Out : No
Fill up missing offset samples with silence : Yes
Delete leading and trailing silent blocks : No
Null samples used in CRC calculations : Yes
Used interface : Native Win32 interface for Win NT & 2000
Used output format : Monkey's Audio Lossless Encoder v3.99 DLL
Sample format : High Lossless Compression
TOC of the extracted CD
Track | Start | Length | Start sector | End sector
---------------------------------------------------------
1 | 0:00.00 | 5:09.32 | 0 | 23206
2 | 5:09.32 | 5:33.05 | 23207 | 48186
3 | 10:42.37 | 3:39.63 | 48187 | 64674
4 | 14:22.25 | 3:20.72 | 64675 | 79746
Range status and errors
Selected range
Filename D:\Downloads\Righeira - Singles\Righeira - Singles.ape
Peak level 97.2 %
Range quality 99.9 %
Copy CRC 90752E40
Copy OK
No errors occurred
AccurateRip summary
Track 1 not present in database
Track 2 not present in database
Track 3 not present in database
Track 4 not present in database
None of the tracks are present in the AccurateRip database
End of status report

[115.8 MB] Скачать / Download