(Italo-Disco) Scotch - Discomania - 2001, FLAC (image+.cue), lossless - Скачать

Жанр: Italo-Disco
Страна-производитель диска: Россия
Год издания диска: 2001
Издатель (лейбл): Grand Recors
Номер по каталогу: GRCD-126
Аудиокодек: FLAC (*.flac)
Тип рипа: image+.cue
Битрейт аудио: lossless
Продолжительность: 53:46
Источник (релизер): Собственный рип
Наличие сканов в содержимом раздачи: да, 300dpi
Треклист:
01.Disco Band
02.Take Me Up
03.Mirage
04.Delirio Mind
05.Money Runner
06.Man Im The Man
07.Drink A Scotch
08.Pictures
09.Plus Plus
10.Caribian Lady
11.Primitive Man

cd, альбом, lossless, mp3, поп, трек, pop-music, торрент, download, torrent, pop, бесплатно, песни, музыка, альбом, поп-музыка, soundtrack, высокое качество, дискография, композиции, скачать

 Exact Audio Copy V1.0 beta 2 from 29. April 2011
Отчёт EAC об извлечении, выполненном 26. ноября 2011, 21:45
Scotch / Discomania
Дисковод: Optiarc DVD RW AD-7203S Adapter: 4 ID: 0
Режим чтения : Достоверность
Использование точного потока : Да
Отключение кэша аудио : Да
Использование указателей C2 : Нет
Коррекция смещения при чтении : 48
Способность читать области Lead-in и Lead-out : Нет
Заполнение пропущенных сэмплов тишиной : Да
Удаление блоков с тишиной в начале и конце : Нет
При вычислениях CRC использовались нулевые сэмплы : Да
Интерфейс : Встроенный Win32-интерфейс для Win NT/2000
Выходной формат : Внутренние WAV-операции
Формат сэмплов : 44.100 Гц; 16 бит; стерео
TOC извлечённого CD
Трек | Старт | Длительность | Начальный сектор | Конечный сектор
---------------------------------------------------------------------
1 | 0:00.00 | 5:03.56 | 0 | 22780
2 | 5:03.56 | 3:32.14 | 22781 | 38694
3 | 8:35.70 | 3:54.14 | 38695 | 56258
4 | 12:30.09 | 5:10.39 | 56259 | 79547
5 | 17:40.48 | 6:18.43 | 79548 | 107940
6 | 23:59.16 | 4:06.13 | 107941 | 126403
7 | 28:05.29 | 6:14.37 | 126404 | 154490
8 | 34:19.66 | 5:22.29 | 154491 | 178669
9 | 39:42.20 | 4:59.24 | 178670 | 201118
10 | 44:41.44 | 4:45.20 | 201119 | 222513
11 | 49:26.64 | 4:19.28 | 222514 | 241966
Характеристики диапазона извлечения и сообщения об ошибках
Выбранный диапазон
Имя файла E:\Disktor\Eurodance\Discomania\Scotch\Scotch - Discomania.wav
Пиковый уровень 100.0 %
Скорость извлечения 3.9 X
Качество диапазона 100.0 %
CRC теста 317894A1
CRC копии 317894A1
Копирование... OK
Ошибок не произошло
AccurateRip: сводка
Трек 1 отсутствует в базе данных
Трек 2 отсутствует в базе данных
Трек 3 отсутствует в базе данных
Трек 4 отсутствует в базе данных
Трек 5 отсутствует в базе данных
Трек 6 отсутствует в базе данных
Трек 7 отсутствует в базе данных
Трек 8 отсутствует в базе данных
Трек 9 отсутствует в базе данных
Трек 10 отсутствует в базе данных
Трек 11 отсутствует в базе данных
Ни одного трека нет в базе AccurateRip
Конец отчёта
 REM GENRE Disco
REM DATE 2011
REM DISCID 940C9A0B
REM COMMENT "ExactAudioCopy v1.0b2"
PERFORMER "Scotch"
TITLE "Discomania"
FILE "Scotch - Discomania.wav" WAVE
TRACK 01 AUDIO
TITLE "Disco Band"
PERFORMER "Scotch"
INDEX 01 00:00:00
TRACK 02 AUDIO
TITLE "Take Me Up"
PERFORMER "Scotch"
INDEX 00 05:03:54
INDEX 01 05:03:56
TRACK 03 AUDIO
TITLE "Mirage"
PERFORMER "Scotch"
INDEX 00 08:35:68
INDEX 01 08:35:70
TRACK 04 AUDIO
TITLE "Delirio Mind"
PERFORMER "Scotch"
INDEX 00 12:30:07
INDEX 01 12:30:09
TRACK 05 AUDIO
TITLE "Money Runner"
PERFORMER "Scotch"
INDEX 00 17:40:46
INDEX 01 17:40:48
TRACK 06 AUDIO
TITLE "Man In The Man"
PERFORMER "Scotch"
INDEX 00 23:59:14
INDEX 01 23:59:16
TRACK 07 AUDIO
TITLE "Drink A Scotch"
PERFORMER "Scotch"
INDEX 00 28:05:27
INDEX 01 28:05:29
TRACK 08 AUDIO
TITLE "Pictures"
PERFORMER "Scotch"
INDEX 00 34:19:64
INDEX 01 34:19:66
TRACK 09 AUDIO
TITLE "Plus Plus"
PERFORMER "Scotch"
INDEX 00 39:42:19
INDEX 01 39:42:20
TRACK 10 AUDIO
TITLE "Caribian Lady"
PERFORMER "Scotch"
INDEX 00 44:41:42
INDEX 01 44:41:44
TRACK 11 AUDIO
TITLE "Primitive Man"
PERFORMER "Scotch"
INDEX 00 49:26:62
INDEX 01 49:26:64
 AUDIOCHECKER v2.0 beta (build 457) - by Dester - [email protected]
~~~~~~~~~~~~~~~~~~~~~~~~~~~~~~~~~~
Started at: суббота, 26. 11. 2011. - 22:03.29
1 file found
1 -===- E:\Disktor\Eurodance\Discomania\Scotch\Scotch - Discomania.flac
Extracted successfully
Conclusion: this track is CDDA with probability 100%
Tempfile successfully deleted.
Finished at: суббота, 26. 11. 2011. - 22:06.35 (operation time: 0:03.05)
     

[331.1 MB] Скачать / Download