(Italo-Disco / Synth-pop) 23rd Underpass - Real Life (Extended Versions & Remixes) - 2014 2CD (image+.cue) + 2LP Version (tracks), FLAC, lossless - Скачать

Жанр: Italo-Disco / Synth-pop
Носитель: CD / WEB
Страна-производитель диска (релиза): Germany
Год издания: 2014
Издатель (лейбл): Nadanna
Номер по каталогу: NADA 1
Страна исполнителя (группы): Greece
Аудиокодек: FLAC (*.flac)
Тип рипа: image+.cue ; tracks
Битрейт аудио: lossless
Продолжительность: CD1 01:18:12 CD2 01:16:34 2LP 01:33:08
Источник (релизер): My CD / Bandcamp
Наличие сканов в содержимом раздачи: да
Real Life 2LP

pop, альбом, cd, поп, torrent, торрент, pop-music, бесплатно, скачать, download, дискография, mp3, музыка, высокое качество, альбом, композиции, песни, поп-музыка, трек, soundtrack, lossless

CD 1
01.Planet 21 (Extended Version) 07:21
02.Tears In My Mind (Extended Version) 08:44
03.Because Of Me (Extended Version) 09:12
04.Chances (Original Version) 06:03
05.My Life (Extended Version) 05:40
06.Invisible (Extended Version) 06:09
07.Everytime (Extended Version) 08:06
08.Remember (Extended Version) 07:09
09.The Night Has Come (Extended Version) 05:45
10.You'll Never Know (Extended Version) 06:47
11.Sometimes (Extended Version) 07:12

CD 2
01.Real Life (Start Living, Living Again) 03:51
02.Planet 21 (Sweeps Remix) 06:13
03.Running (Thousand Miles Away) 07:40
04.Tears In My Mind (Axodry Remix) 06:44
05.Because Of Me (SwedIT Remix) 05:28
06.Chances (Techniques Berlin Remix) 05:43
07.My Life (SwedIT Remix) 04:28
08.Everytime (Codazzi Remix) 07:28
09.The Boy Within (feat. Ricky Campa) 05:20
10.Remember (Flemming Dalum Remix) 07:49
11.The Night Has Come (SwedIT Remix) 06:38
12.You'll Never Know (Tobias Bernstrup Remix) 04:57
13.Sometimes (Tobias Bernstrup Remix) 04:09
01.Real Life (Start Living, Living Again) 04:41
02.Planet 21 04:35
03.Running (Thousand Miles Away) 06:24
04.Tears In My Mind (Dream Version) 08:46
05.Because Of Me 06:18
06.Chances (Full Ambient Mix) 08:45
07.My Life 04:02
08.Invisible 04:14
09.Everytime 05:40
10.The Boy Within 05:20
11.Remember 05:42
12.The Night Has Come 04:33
13.Because Of Me (Another Version) 08:02
14.Invisible (Another Version) 05:58
15.You'll Never Know (LP Version) 04:42
16.Sometimes (Another Version) 05:32
 Exact Audio Copy V1.0 beta 3 from 29. August 2011
EAC extraction logfile from 1. March 2015, 21:07
23rd Underpass / Real Life CD1 (Extended Versions)
Used drive : SONY DVD RW DRU-820A Adapter: 1 ID: 1
Read mode : Secure
Utilize accurate stream : Yes
Defeat audio cache : Yes
Make use of C2 pointers : No
Read offset correction : 102
Overread into Lead-In and Lead-Out : Yes
Fill up missing offset samples with silence : Yes
Delete leading and trailing silent blocks : No
Null samples used in CRC calculations : Yes
Used interface : Native Win32 interface for Win NT & 2000
Used output format : User Defined Encoder
Selected bitrate : 32 kBit/s
Quality : High
Add ID3 tag : No
Command line compressor : C:\Program Files\Exact Audio Copy\Flac\flac.exe
TOC of the extracted CD
Track | Start | Length | Start sector | End sector
---------------------------------------------------------
1 | 0:00.00 | 7:21.46 | 0 | 33120
2 | 7:21.46 | 8:44.21 | 33121 | 72441
3 | 16:05.67 | 9:12.29 | 72442 | 113870
4 | 25:18.21 | 6:03.69 | 113871 | 141164
5 | 31:22.15 | 5:40.14 | 141165 | 166678
6 | 37:02.29 | 6:09.41 | 166679 | 194394
7 | 43:11.70 | 8:06.51 | 194395 | 230895
8 | 51:18.46 | 7:09.07 | 230896 | 263077
9 | 58:27.53 | 5:45.18 | 263078 | 288970
10 | 64:12.71 | 6:47.37 | 288971 | 319532
11 | 71:00.33 | 7:12.02 | 319533 | 351934
Range status and errors
Selected range
Filename D:\Torrents\23rd Underpass - Real Life (2014)\CD 1 (Extended Versions)\23rd Underpass - Real Life CD1 (Extended Versions).wav
Peak level 97.8 %
Extraction speed 6.9 X
Range quality 99.9 %
Test CRC 2C428082
Copy CRC 2C428082
Copy OK
No errors occurred
AccurateRip summary
Track 1 not present in database
Track 2 not present in database
Track 3 not present in database
Track 4 not present in database
Track 5 not present in database
Track 6 not present in database
Track 7 not present in database
Track 8 not present in database
Track 9 not present in database
Track 10 not present in database
Track 11 not present in database
None of the tracks are present in the AccurateRip database
End of status report
---- CUETools DB Plugin V2.1.3
[CTDB TOCID: 4YmG6sWhZkWZGKJyTC0ziYPebb8-] found, Submit result: 4YmG6sWhZkWZGKJyTC0ziYPebb8- has been confirmed
[a6aeea79] (1/2) Differs in 20567 samples @74:11:28-74:11:36,75:11:65-75:12:00
[bf647f83] (1/2) Accurately ripped
You can use CUETools to repair this rip.
==== Log checksum EB362BAAA1BCA2499E93F6B6B5E865AB34F692EE78849C2BD4D6BFB2E8110F4F ====
 Exact Audio Copy V1.0 beta 3 from 29. August 2011
EAC extraction logfile from 1. March 2015, 21:33
23rd Underpass / Real Life CD2 (Remixes)
Used drive : SONY DVD RW DRU-820A Adapter: 1 ID: 1
Read mode : Secure
Utilize accurate stream : Yes
Defeat audio cache : Yes
Make use of C2 pointers : No
Read offset correction : 102
Overread into Lead-In and Lead-Out : Yes
Fill up missing offset samples with silence : Yes
Delete leading and trailing silent blocks : No
Null samples used in CRC calculations : Yes
Used interface : Native Win32 interface for Win NT & 2000
Used output format : User Defined Encoder
Selected bitrate : 32 kBit/s
Quality : High
Add ID3 tag : No
Command line compressor : C:\Program Files\Exact Audio Copy\Flac\flac.exe
TOC of the extracted CD
Track | Start | Length | Start sector | End sector
---------------------------------------------------------
1 | 0:00.00 | 3:51.41 | 0 | 17365
2 | 3:51.41 | 6:13.34 | 17366 | 45374
3 | 10:05.00 | 7:40.02 | 45375 | 79876
4 | 17:45.02 | 6:44.33 | 79877 | 110209
5 | 24:29.35 | 5:28.36 | 110210 | 134845
6 | 29:57.71 | 5:43.39 | 134846 | 160609
7 | 35:41.35 | 4:28.49 | 160610 | 180758
8 | 40:10.09 | 7:28.70 | 180759 | 214428
9 | 47:39.04 | 5:20.12 | 214429 | 238440
10 | 52:59.16 | 7:49.36 | 238441 | 273651
11 | 60:48.52 | 6:38.55 | 273652 | 303556
12 | 67:27.32 | 4:57.40 | 303557 | 325871
13 | 72:24.72 | 4:09.40 | 325872 | 344586
Range status and errors
Selected range
Filename D:\Torrents\23rd Underpass - Real Life (2014)\CD 2 (Remixes)\23rd Underpass - Real Life CD2 (Remixes).wav
Suspicious position 1:16:34
Peak level 98.3 %
Extraction speed 7.3 X
Range quality 99.9 %
Test CRC A6A067A3
Copy CRC A6A067A3
Copy finished
There were errors
AccurateRip summary
Track 1 not present in database
Track 2 not present in database
Track 3 not present in database
Track 4 not present in database
Track 5 not present in database
Track 6 not present in database
Track 7 not present in database
Track 8 not present in database
Track 9 not present in database
Track 10 not present in database
Track 11 not present in database
Track 12 not present in database
Track 13 not present in database
None of the tracks are present in the AccurateRip database
End of status report
---- CUETools DB Plugin V2.1.3
[CTDB TOCID: FiUICmDgaBel5WZdYoK5bXaSwvk-] found, Submit result: FiUICmDgaBel5WZdYoK5bXaSwvk- has been uploaded
[74d42556] (1/1) Differs in 3945 samples @69:51:56-69:51:58,70:05:34-70:05:35,70:07:13,70:12:02-70:12:03,70:13:56,76:34:15-76:34:19
You can use CUETools to repair this rip.
==== Log checksum 4792BCCD4B922A4E53B8B905F0D94D74DE83A9578421F59697919FAF0F97383B ====
 -----------------------
DON'T MODIFY THIS FILE
-----------------------
PERFORMER: auCDtect Task Manager, ver. 1.6.0 RC1 build 1.6.0.1
Copyright (c) 2008-2010 y-soft. All rights reserved
http://y-soft.org
ANALYZER: auCDtect: CD records authenticity detector, version 0.8.2
Copyright (c) 2004 Oleg Berngardt. All rights reserved.
Copyright (c) 2004 Alexander Djourik. All rights reserved.
FILE: 16.23rd Underpass - Sometimes (Another Version).flac
Size: 42339166 Hash: 401292249516ECED9E4BDAA29ED71B31 Accuracy: -m0
Conclusion: CDDA 100%
Signature: 406E304DC544CF3970DC4FFEF99BD942C599819E
FILE: 15.23rd Underpass - You'll Never Know (LP Version).flac
Size: 36051954 Hash: A1C542B888FEBBE53DA8ED1C2966206B Accuracy: -m0
Conclusion: CDDA 100%
Signature: 0454356AC23214F06CC9EFA2F9416D6E194CF04F
FILE: 14.23rd Underpass - Invisible (Another Version).flac
Size: 47416842 Hash: 8A60730000C9C7861713553ABF382427 Accuracy: -m0
Conclusion: CDDA 100%
Signature: 7F0D6829537A0C0281DAE70AA2869706F2CDB14C
FILE: 13.23rd Underpass - Because Of Me (Another Version).flac
Size: 63872800 Hash: F01AD2C2A50EE9461F19A93E0FC706A0 Accuracy: -m0
Conclusion: CDDA 100%
Signature: FEFCD4A9EB8E2ED001CC4A6FF9B0B433BBECEE44
FILE: 12.23rd Underpass - The Night Has Come.flac
Size: 35171984 Hash: 9CDA62449C99F8B94FD4433FEBD9561B Accuracy: -m0
Conclusion: CDDA 100%
Signature: B703E464FE2E70D2AADECEE2C2427C20760E15F0
FILE: 11.23rd Underpass - Remember.flac
Size: 39674614 Hash: 962470A76412C137F805DA5AB2CF373B Accuracy: -m0
Conclusion: CDDA 99%
Signature: 4FAB7E106F175CB93BCEDFF240A6D12A187E158D
FILE: 10.23rd Underpass - The Boy Within.flac
Size: 37336842 Hash: 12C9E2EBC9999BCA04A24E91B51CC709 Accuracy: -m0
Conclusion: CDDA 100%
Signature: 412A5CADF35CAABAD14CDCBF8A358312AF70BD4C
FILE: 09.23rd Underpass - Everytime.flac
Size: 40453779 Hash: C51B795AE40A7F4A023A2549DE043CCC Accuracy: -m0
Conclusion: CDDA 100%
Signature: 745D2CF8F005FEBD5D1DA129363B794BA147056F
FILE: 08.23rd Underpass - Invisible.flac
Size: 32515828 Hash: C588F4204D6959A2BF7669D33E041092 Accuracy: -m0
Conclusion: CDDA 100%
Signature: B07FC9B3013AB4B65D9F032F65F394F3A7E77746
FILE: 07.23rd Underpass - My Life.flac
Size: 31416672 Hash: 26F81E850D13FA82D23A828BA93CE9BE Accuracy: -m0
Conclusion: CDDA 100%
Signature: D8A209DF788D50A73976537E09B61E7A954D2125
FILE: 06.23rd Underpass - Chances (Full Ambient Mix).flac
Size: 66929983 Hash: ABF785EFD908E7F7102798CC689310A0 Accuracy: -m0
Conclusion: CDDA 100%
Signature: AF3F8D249493AFEC8641A9582911CC2A92E5E965
FILE: 05.23rd Underpass - Because Of Me.flac
Size: 47875599 Hash: 2108EC4C0EADFAEFCB75F27AADBD8676 Accuracy: -m0
Conclusion: CDDA 100%
Signature: 55CB56C7A656B22569389F3AFCE29D413E53827B
FILE: 04.23rd Underpass -Tears In My Mind (Dream Version).flac
Size: 65315933 Hash: 7681B14395055C745B54C546CA8905FC Accuracy: -m0
Conclusion: CDDA 100%
Signature: FC6DE5F8475DDABABFF7FE44F4934100D6F344E4
FILE: 03.23rd Underpass - Running (Thousand Miles Away).flac
Size: 43406022 Hash: 086773862D52F75BE9E9BF853761ACCD Accuracy: -m0
Conclusion: CDDA 100%
Signature: 73BCD30CFD89997A5F1CCE2DA30255B14E46CF2A
FILE: 02.23rd Underpass - Planet 21.flac
Size: 34357508 Hash: 06E54CF7641FA6983D83032DECA74BB8 Accuracy: -m0
Conclusion: CDDA 100%
Signature: 210A1244B21862894B3FFD635B5EE5F25FE1FAD6
FILE: 01.23rd Underpass - Real Life (Start Living, Living Again).flac
Size: 36430045 Hash: F1536347D3CF525EF69FC567794A3599 Accuracy: -m0
Conclusion: CDDA 100%
Signature: 21167435F0C504FDEA2204583E00BBF6AA714205

[1.84 GB] Скачать / Download