(Italo-Disco, Synth-pop, Disco) VA - Made In Italy Volume 2 - 1992, FLAC (image+.cue) lossless - Скачать

Жанр: Italo-Disco, Synth-pop, Disco
Страна-производитель диска: Germany
Год издания диска: 1992
Издатель (лейбл): Eurostar
Номер по каталогу: 39830162
Аудио кодек: FLAC (*.flac)
Тип рипа: image+.cue
Битрейт аудио: lossless
Продолжительность: 1CD-43:36 2CD-41:29
Источник (релизер): discozol
Наличие сканов в содержимом раздачи: да
Треклист:
1-01Gazebo- I Like Chopin '91 (Maxi Version) 8:53
1-02Scotch- Take Me Up 3:35
1-03Klein & M.B.O.- Dirty Talk 3:45
1-04P. Lion- Dream 3:48
1-05Kano- Queen Of Witches (Maxi Version) 6:19
1-06Moby Dick- Wot 3:42
1-07Jock Hattle- Crazy Family (Maxi Version) 7:30
1-08Creatures, The(2) - Believe In Yourself (Maxi Version) 5:45
1-09Chip Chip- So Close (Maxi Version) 6:55
2-01Time- Shaker Shake (Maxi Version) 5:55
2-02Jago- I'm Going To Go (Maxi Version) 8:32
2-03Max-Him- No Escape (Maxi Version) 6:19
2-04Cruisin' Gang- America (Medley With Machinery) (Maxi Version) 7:20
2-05Kano- I'm Ready (Maxi Version) 7:17
2-06Patty Johnson- I'm In Love (Maxi Version) 5:59
2-07Rofo- Rofo's Theme (Maxi Version) 8:34

soundtrack, cd, торрент, pop-music, альбом, поп-музыка, lossless, бесплатно, дискография, песни, pop, высокое качество, скачать, mp3, torrent, альбом, трек, музыка, поп, download, композиции

 CD 1
Exact Audio Copy V0.99 prebeta 5 from 4. May 2009
Отчёт EAC об извлечении, выполненном 6. ноября 2010, 10:58
Various / Made In Italy 2 - CD1
Дисковод: Optiarc DVD RW AD-7240S Adapter: 1 ID: 1
Режим чтения : Достоверность
Использование точного потока : Да
Отключение кэша аудио : Да
Использование указателей C2 : Нет
Коррекция смещения при чтении : 48
Способность читать области Lead-in и Lead-out : Нет
Заполнение пропущенных сэмплов тишиной : Да
Удаление блоков с тишиной в начале и конце : Нет
При вычислениях CRC использовались нулевые сэмплы : Да
Интерфейс : Установленный внешний ASPI-интерфейс
Выходной формат : Внутренние WAV-операции
Формат сэмплов : 44.100 Гц; 16 бит; стерео
TOC извлечённого CD
Трек | Старт | Длительность | Начальный сектор | Конечный сектор
---------------------------------------------------------------------
1 | 0:00.00 | 8:57.25 | 0 | 40299
2 | 8:57.25 | 3:40.37 | 40300 | 56836
3 | 12:37.62 | 3:50.43 | 56837 | 74129
4 | 16:28.30 | 3:37.25 | 74130 | 90429
5 | 20:05.55 | 6:22.72 | 90430 | 119151
6 | 26:28.52 | 3:43.50 | 119152 | 135926
7 | 30:12.27 | 7:35.05 | 135927 | 170056
8 | 37:47.32 | 5:48.65 | 170057 | 196221
9 | 43:36.22 | 6:59.65 | 196222 | 227711
Характеристики диапазона извлечения и сообщения об ошибках
Выбранный диапазон
Имя файла G:\Rip CD\Various - Made In Italy 2 - CD1.wav
Пиковый уровень 100.0 %
Качество диапазона 100.0 %
CRC теста DA6C45CB
CRC копии DA6C45CB
Копирование... OK
Ошибок не произошло
AccurateRip: сводка
Трек 1 точное извлечение (доверие 4) [D9FA18BC]
Трек 2 точное извлечение (доверие 3) [1F9E4352]
Трек 3 точное извлечение (доверие 3) [14A25CCC]
Трек 4 точное извлечение (доверие 3) [7BD6F64A]
Трек 5 точное извлечение (доверие 3) [3293B406]
Трек 6 точное извлечение (доверие 4) [35530EF8]
Трек 7 точное извлечение (доверие 3) [4FEC1A08]
Трек 8 точное извлечение (доверие 2) [DA7A320A]
Трек 9 точное извлечение (доверие 3) [2F6C1D30]
Все треки извлечены точно
Конец отчёта
 Exact Audio Copy V0.99 prebeta 5 from 4. May 2009
Отчёт EAC об извлечении, выполненном 6. ноября 2010, 11:32
Various / Made In Italy 2 - CD2
Дисковод: Optiarc DVD RW AD-7240S Adapter: 1 ID: 1
Режим чтения : Достоверность
Использование точного потока : Да
Отключение кэша аудио : Да
Использование указателей C2 : Нет
Коррекция смещения при чтении : 48
Способность читать области Lead-in и Lead-out : Нет
Заполнение пропущенных сэмплов тишиной : Да
Удаление блоков с тишиной в начале и конце : Нет
При вычислениях CRC использовались нулевые сэмплы : Да
Интерфейс : Установленный внешний ASPI-интерфейс
Выходной формат : Внутренние WAV-операции
Формат сэмплов : 44.100 Гц; 16 бит; стерео
TOC извлечённого CD
Трек | Старт | Длительность | Начальный сектор | Конечный сектор
---------------------------------------------------------------------
1 | 0:00.00 | 5:52.50 | 0 | 26449
2 | 5:52.50 | 8:36.35 | 26450 | 65184
3 | 14:29.10 | 6:13.17 | 65185 | 93176
4 | 20:42.27 | 7:31.48 | 93177 | 127049
5 | 28:14.00 | 7:12.62 | 127050 | 159511
6 | 35:26.62 | 6:02.25 | 159512 | 186686
7 | 41:29.12 | 8:30.63 | 186687 | 224999
Характеристики диапазона извлечения и сообщения об ошибках
Выбранный диапазон
Имя файла G:\Rip CD\Various - Made In Italy 2 - CD2.wav
Пиковый уровень 100.0 %
Качество диапазона 100.0 %
CRC теста 7C9479AB
CRC копии 7C9479AB
Копирование... OK
Ошибок не произошло
AccurateRip: сводка
Трек 1 точное извлечение (доверие 3) [3C4FCCB0]
Трек 2 точное извлечение (доверие 3) [32EC61EF]
Трек 3 точное извлечение (доверие 3) [CC9513CA]
Трек 4 точное извлечение (доверие 3) [99F20520]
Трек 5 точное извлечение (доверие 3) [2F25E6B2]
Трек 6 точное извлечение (доверие 3) [E0B61EB2]
Трек 7 точное извлечение (доверие 3) [FE1D9C23]
Все треки извлечены точно
Конец отчёта

[687.1 MB] Скачать / Download