(Italo-Disco, Synth-Pop, Hi NRG) VA - Russian Mix Italo Disco - 2013, FLAC (image+.cue), lossless - Скачать

Жанр: Italo-Disco, Synth-Pop, Hi NRG
Носитель: CD, Gold Plated, Partially Mixed, Remastered, Reissue, Limited Edition
Страна-производитель диска (релиза): Russia
Год издания: 2013
Издатель (лейбл): SP Records
Номер по каталогу:SP 0001
Аудиокодек: FLAC (*.flac)
Тип рипа: image+.cue
Битрейт аудио: lossless
Продолжительность: 01:12:10
Источник:
Наличие сканов:в содержимом раздачи
Треклист:
01. Marc Fruttero - Disco Silvia (Extended Version) (06:16)
02. Riccardo Campa - Another Day (Vocal Version) (07:16)
03. Roby & Claudia - I Love You (But Do You Love Me?) (08:11)
04. George Aaron - Heaven (L-Ectro Vox Mix) (05:36)
05. Riccardo Campa - Looking For A Way Out (Extended Version) (06:24)
06. Karl Otto & Joey Mauro - Electric Love (05:54)
07. Felli - Shadows Of The Night (Wizard Mix) (05:35)
08. Riccardo Campa - Desperado (Extended Version) (06:32)
Bonus Track (non mixed version):
09. Marc Fruttero - Disco Silvia (Extended Version) (06:37)
10. George Aaron - Heaven (L-Ectro Vox Mix) (06:07)
11. Riccardo Campa - Looking For A Way Out (Extended Version) (07:37)

поп, высокое качество, cd, бесплатно, музыка, torrent, песни, lossless, альбом, mp3, дискография, pop, download, трек, soundtrack, торрент, скачать, поп-музыка, альбом, композиции, pop-music

 Exact Audio Copy V1.0 beta 6 from 9. April 2015
EAC extraction logfile from 27. April 2015, 21:27
Various Artists / Russian Mix Italo Disco
Used drive : SlimtypeeTAU108 2 Adapter: 1 ID: 1
Read mode : Secure
Utilize accurate stream : Yes
Defeat audio cache : Yes
Make use of C2 pointers : No
Read offset correction : 6
Overread into Lead-In and Lead-Out : No
Fill up missing offset samples with silence : Yes
Delete leading and trailing silent blocks : No
Null samples used in CRC calculations : Yes
Used interface : Native Win32 interface for Win NT & 2000
Used output format : User Defined Encoder
Selected bitrate : 1024 kBit/s
Quality : High
Add ID3 tag : No
Command line compressor : C:\Program Files\EAC 1.0 beta 4\Flac\flac.exe
Additional command line options : -8 -V -T "TITLE=%title%" -T "ARTIST=%artist%" -T "ALBUMARTIST=%albumartist%" -T "ALBUM=%albumtitle%" -T "DATE=%year%" -T "TRACKNUMBER=%tracknr%" -T "TRACKTOTAL=%numtracks%" -T "GENRE=%genre%" -T "COMMENT=%comment%" -T "PERFORMER=%albuminterpret%" %source% -o %dest%
TOC of the extracted CD
Track | Start | Length | Start sector | End sector
---------------------------------------------------------
1 | 0:00.00 | 6:16.37 | 0 | 28236
2 | 6:16.37 | 7:16.43 | 28237 | 60979
3 | 13:33.05 | 8:11.13 | 60980 | 97817
4 | 21:44.18 | 5:36.24 | 97818 | 123041
5 | 27:20.42 | 6:24.24 | 123042 | 151865
6 | 33:44.66 | 5:54.44 | 151866 | 178459
7 | 39:39.35 | 5:35.53 | 178460 | 203637
8 | 45:15.13 | 6:32.14 | 203638 | 233051
9 | 51:47.27 | 6:37.63 | 233052 | 262889
10 | 58:25.15 | 6:07.49 | 262890 | 290463
11 | 64:32.64 | 7:37.45 | 290464 | 324783
Range status and errors
Selected range
Filename C:\Temp\VA - Russian Mix Italo Disco (2013).wav
Peak level 100.0 %
Extraction speed 3.9 X
Range quality 100.0 %
Test CRC B5BF368B
Copy CRC B5BF368B
Copy OK
No errors occurred
AccurateRip summary
Track 1 not present in database
Track 2 not present in database
Track 3 not present in database
Track 4 not present in database
Track 5 not present in database
Track 6 not present in database
Track 7 not present in database
Track 8 not present in database
Track 9 not present in database
Track 10 not present in database
Track 11 not present in database
None of the tracks are present in the AccurateRip database
End of status report
==== Log checksum D5B272DE3FC8B39353ED188FB12E79493421E7CE85290C3C0D41466C38B9256E ====
Artwork, Design (Cover) - Ivan Skomorokhov, Olga Bagaeva
Compiled, Producer - Evgeny Berkovich, Sergey Podosenov
Concept, Executive Producer - Evgeny Berkovich, Sergey Podosenov
Mastered - Alexander Pirozhkov
Переиздание релиза 2011-го года от «SP Records» с ноовым мастерингом и бонус-треками.
SP 0001 ® 2011, 2013 SP Records Ltd. Made in Russia, Ekaterinburg.
Distributed by SP Records and NOVA MD GmbH.
Released under license from copyright owners.
Manufactured and Distributed SP Records.
MANAGMENT: www.sp-rec.com, [email protected]

[624.9 MB] Скачать / Download