(Italo Disco) VA - Club 80 Italia - 2008 (3CD), APE (image+.cue), lossless - Скачать

Жанр: Italo Disco
Год выпуска диска: 2008
Производитель диска: France (Wagram Music S.A.)
Аудио кодек: APE
Тип рипа: image+.cue
Битрейт аудио: lossless
Продолжительность: 2:42:38
Ковры в комплекте-400dpi (jpg)
Rip с оригинальных дисков
моей коллекции.
Трэклист:

дискография, cd, бесплатно, lossless, высокое качество, скачать, soundtrack, песни, torrent, поп, музыка, композиции, mp3, поп-музыка, трек, альбом, pop-music, pop, торрент, download, альбом

1. SABRINA - Boys (2.48)
2. RYAN PARIS - Dolce Vita (3.24)
3. VALERIE DORE - The Night (3.29)
4. SCOTCH - Take Me Up (3.27)
5. SPAGNA - Call Me (4.05)
6. SANDY MARTON - Exotic & Erotic (4.06)
7. KOTO - Visitors (3.29)
8. PIANO FANTASIA - Song For Denise (3.15)
9. GIBSON BROTHERS - Que Sera Mi Vida (5.14)
10. BETTY MIRANDA - Take Me To The Top (3.29)
11. TOPO & ROBY - Under The Ice (2.36)
12. TOTO CUTUGNO - L'Italiano (3.01)
13. PINO D'ANGIO - Ma Quale Idea (3.08)
14. KEN LASZLO - Don't Cry (5.34)
15. P-LION - Happy Children (3.00)
1. ANDREA - I'm A Lover (3.06)
2. GAZEBO - I Like Shopin (4.07)
3. STARGO - Live Is Life (3.31)
4. RICCHI & POVERI - Sara Perche Ti Amo (3.00)
5. DEN HARROW - Future Brain (4.07)
6. LUCIA - La Isla Bonita (3.49)
7. MECCANO - Activate My Heart (3.30)
8. CLUB HOUSE - Do it Again / Billie Jean (Medley) (2.57)
9. FINZI CONTINI - Cha Cha Cha (3.03)
10. FUN FUN - Color My Love (4.02)
11. KASSO - Walkman (3.08)
12. MARTINELLI - Cinderella (3.01)
13. KOXO - Step By Step (2.52)
14. OFF - Electrica Salsa (5.46)
15. RIGHEIRA - No Tengo Dinero (3.17)
1. MOON RAY - Comanchero (3.16)
2. BALTIMORA - Tarzan Boy (3.48)
3. SILVER POZZOLI - Around My Dream (3.05)
4. RIGHEIRA - Vamos A La Playa (3.03)
5. KEN LASZLO - Hey Hey Guy (3.21)
6. KOTO - Jabdah (3.36)
7. ALAN ROSS - Valentino Mon Amour (4.12)
8. GRANT MILLER - Colder Than Ice (3.54)
9. BRIAN ICE - Talking To The Night (4.19)
10. SANDY MARTON - People From Ibiza (3.43)
11. TONY ESPOSITO - Kalimba De Luna (3.05)
12. FUN FUN - Happy Station (3.13)
13. SCOTCH - Disco Band (3.58)
14. DO PIANO - Again (4.41)
15. P-LION - Dream (4.04)
Отчёт EAC CD1
Exact Audio Copy V0.99 prebeta 4 from 23. January 2008
Отчёт EAC об извлечении, выполненном 16. ноября 2009, 17:05
Various / Club 80 Italia (Cd1)
Дисковод: Optiarc DVD RW AD-7191S Adapter: 3 ID: 0
Режим чтения : Достоверность
Использование точного потока : Да
Отключение кэша аудио : Да
Использование указателей C2 : Нет
Коррекция смещения при чтении : 6
Способность читать области Lead-in и Lead-out : Нет
Заполнение пропущенных сэмплов тишиной : Да
Удаление блоков с тишиной в начале и конце : Нет
При вычислениях CRC использовались нулевые сэмплы : Да
Интерфейс : Встроенный Win32-интерфейс для Win NT/2000
Выходной формат : Monkey's Audio Lossless Encoder v3.99 DLL
Формат сэмплов : High Lossless Compression
TOC извлечённого CD
Трек | Старт | Длительность | Начальный сектор | Конечный сектор
---------------------------------------------------------------------
1 | 0:00.00 | 2:47.56 | 0 | 12580
2 | 2:47.56 | 3:24.34 | 12581 | 27914
3 | 6:12.15 | 3:29.20 | 27915 | 43609
4 | 9:41.35 | 3:26.43 | 43610 | 59102
5 | 13:08.03 | 4:04.43 | 59103 | 77445
6 | 17:12.46 | 4:06.34 | 77446 | 95929
7 | 21:19.05 | 3:28.61 | 95930 | 111590
8 | 24:47.66 | 3:14.63 | 111591 | 126203
9 | 28:02.54 | 5:13.58 | 126204 | 149736
10 | 33:16.37 | 3:28.56 | 149737 | 165392
11 | 36:45.18 | 2:36.11 | 165393 | 177103
12 | 39:21.29 | 3:01.23 | 177104 | 190701
13 | 42:22.52 | 3:08.07 | 190702 | 204808
14 | 45:30.59 | 5:33.51 | 204809 | 229834
15 | 51:04.35 | 3:00.04 | 229835 | 243338
Характеристики диапазона извлечения и сообщения об ошибках
Выбранный диапазон
Имя файла E:\CLUB 80 ITALIA\CD_1\Various - Club 80 Italia (Cd1).ape
Пиковый уровень 94.4 %
Качество диапазона 100.0 %
CRC копии 477837D4
Копирование... OK
Ошибок не произошло
Конец отчёта
Отчёт EAC CD2
Exact Audio Copy V0.99 prebeta 4 from 23. January 2008
Отчёт EAC об извлечении, выполненном 16. ноября 2009, 17:31
Various / Club 80 Italia (Cd2)
Дисковод: Optiarc DVD RW AD-7191S Adapter: 3 ID: 0
Режим чтения : Достоверность
Использование точного потока : Да
Отключение кэша аудио : Да
Использование указателей C2 : Нет
Коррекция смещения при чтении : 6
Способность читать области Lead-in и Lead-out : Нет
Заполнение пропущенных сэмплов тишиной : Да
Удаление блоков с тишиной в начале и конце : Нет
При вычислениях CRC использовались нулевые сэмплы : Да
Интерфейс : Встроенный Win32-интерфейс для Win NT/2000
Выходной формат : Monkey's Audio Lossless Encoder v3.99 DLL
Формат сэмплов : High Lossless Compression
TOC извлечённого CD
Трек | Старт | Длительность | Начальный сектор | Конечный сектор
---------------------------------------------------------------------
1 | 0:00.00 | 3:05.38 | 0 | 13912
2 | 3:05.38 | 4:06.46 | 13913 | 32408
3 | 7:12.09 | 3:30.58 | 32409 | 48216
4 | 10:42.67 | 3:00.14 | 48217 | 61730
5 | 13:43.06 | 4:07.22 | 61731 | 80277
6 | 17:50.28 | 3:48.44 | 80278 | 97421
7 | 21:38.72 | 3:29.46 | 97422 | 113142
8 | 25:08.43 | 2:56.50 | 113143 | 126392
9 | 28:05.18 | 3:03.29 | 126393 | 140146
10 | 31:08.47 | 4:02.27 | 140147 | 158323
11 | 35:10.74 | 3:07.56 | 158324 | 172404
12 | 38:18.55 | 3:01.25 | 172405 | 186004
13 | 41:20.05 | 2:51.45 | 186005 | 198874
14 | 44:11.50 | 5:46.25 | 198875 | 224849
15 | 49:58.00 | 3:16.74 | 224850 | 239623
Характеристики диапазона извлечения и сообщения об ошибках
Выбранный диапазон
Имя файла E:\CLUB 80 ITALIA\CD_2\Various - Club 80 Italia (Cd2).ape
Пиковый уровень 100.0 %
Качество диапазона 100.0 %
CRC копии 6C56F07A
Копирование... OK
Ошибок не произошло
Конец отчёта
Отчёт EAC CD3
Exact Audio Copy V0.99 prebeta 4 from 23. January 2008
Отчёт EAC об извлечении, выполненном 16. ноября 2009, 18:05
Various / Club 80 Italia (Cd3)
Дисковод: Optiarc DVD RW AD-7191S Adapter: 3 ID: 0
Режим чтения : Достоверность
Использование точного потока : Да
Отключение кэша аудио : Да
Использование указателей C2 : Нет
Коррекция смещения при чтении : 6
Способность читать области Lead-in и Lead-out : Нет
Заполнение пропущенных сэмплов тишиной : Да
Удаление блоков с тишиной в начале и конце : Нет
При вычислениях CRC использовались нулевые сэмплы : Да
Интерфейс : Встроенный Win32-интерфейс для Win NT/2000
Выходной формат : Monkey's Audio Lossless Encoder v3.99 DLL
Формат сэмплов : High Lossless Compression
TOC извлечённого CD
Трек | Старт | Длительность | Начальный сектор | Конечный сектор
---------------------------------------------------------------------
1 | 0:00.00 | 3:16.16 | 0 | 14715
2 | 3:16.16 | 3:48.29 | 14716 | 31844
3 | 7:04.45 | 3:04.57 | 31845 | 45701
4 | 10:09.27 | 3:03.12 | 45702 | 59438
5 | 13:12.39 | 3:21.15 | 59439 | 74528
6 | 16:33.54 | 3:36.32 | 74529 | 90760
7 | 20:10.11 | 4:12.31 | 90761 | 109691
8 | 24:22.42 | 3:54.01 | 109692 | 127242
9 | 28:16.43 | 4:18.60 | 127243 | 146652
10 | 32:35.28 | 3:43.18 | 146653 | 163395
11 | 36:18.46 | 3:05.01 | 163396 | 177271
12 | 39:23.47 | 3:12.45 | 177272 | 191716
13 | 42:36.17 | 3:58.21 | 191717 | 209587
14 | 46:34.38 | 4:41.30 | 209588 | 230692
15 | 51:15.68 | 4:03.39 | 230693 | 248956
Характеристики диапазона извлечения и сообщения об ошибках
Выбранный диапазон
Имя файла E:\CLUB 80 ITALIA\CD_3\Various - Club 80 Italia (Cd3).ape
Пиковый уровень 100.0 %
Качество диапазона 100.0 %
CRC копии 8F3A050E
Копирование... OK
Ошибок не произошло
Конец отчёта
Exact Audio Copy V0.99 prebeta 4 from 23. January 2008
Отчёт EAC об извлечении, выполненном 16. ноября 2009, 17:05
Various / Club 80 Italia (Cd1)
Дисковод: Optiarc DVD RW AD-7191S Adapter: 3 ID: 0
Режим чтения : Достоверность
Использование точного потока : Да
Отключение кэша аудио : Да
Использование указателей C2 : Нет
Коррекция смещения при чтении : 6
Способность читать области Lead-in и Lead-out : Нет
Заполнение пропущенных сэмплов тишиной : Да
Удаление блоков с тишиной в начале и конце : Нет
При вычислениях CRC использовались нулевые сэмплы : Да
Интерфейс : Встроенный Win32-интерфейс для Win NT/2000
Выходной формат : Monkey's Audio Lossless Encoder v3.99 DLL
Формат сэмплов : High Lossless Compression
TOC извлечённого CD
Трек | Старт | Длительность | Начальный сектор | Конечный сектор
---------------------------------------------------------------------
1 | 0:00.00 | 2:47.56 | 0 | 12580
2 | 2:47.56 | 3:24.34 | 12581 | 27914
3 | 6:12.15 | 3:29.20 | 27915 | 43609
4 | 9:41.35 | 3:26.43 | 43610 | 59102
5 | 13:08.03 | 4:04.43 | 59103 | 77445
6 | 17:12.46 | 4:06.34 | 77446 | 95929
7 | 21:19.05 | 3:28.61 | 95930 | 111590
8 | 24:47.66 | 3:14.63 | 111591 | 126203
9 | 28:02.54 | 5:13.58 | 126204 | 149736
10 | 33:16.37 | 3:28.56 | 149737 | 165392
11 | 36:45.18 | 2:36.11 | 165393 | 177103
12 | 39:21.29 | 3:01.23 | 177104 | 190701
13 | 42:22.52 | 3:08.07 | 190702 | 204808
14 | 45:30.59 | 5:33.51 | 204809 | 229834
15 | 51:04.35 | 3:00.04 | 229835 | 243338
Характеристики диапазона извлечения и сообщения об ошибках
Выбранный диапазон
Имя файла E:\CLUB 80 ITALIA\CD_1\Various - Club 80 Italia (Cd1).ape
Пиковый уровень 94.4 %
Качество диапазона 100.0 %
CRC копии 477837D4
Копирование... OK
Ошибок не произошло
Конец отчёта
Exact Audio Copy V0.99 prebeta 4 from 23. January 2008
Отчёт EAC об извлечении, выполненном 16. ноября 2009, 17:31
Various / Club 80 Italia (Cd2)
Дисковод: Optiarc DVD RW AD-7191S Adapter: 3 ID: 0
Режим чтения : Достоверность
Использование точного потока : Да
Отключение кэша аудио : Да
Использование указателей C2 : Нет
Коррекция смещения при чтении : 6
Способность читать области Lead-in и Lead-out : Нет
Заполнение пропущенных сэмплов тишиной : Да
Удаление блоков с тишиной в начале и конце : Нет
При вычислениях CRC использовались нулевые сэмплы : Да
Интерфейс : Встроенный Win32-интерфейс для Win NT/2000
Выходной формат : Monkey's Audio Lossless Encoder v3.99 DLL
Формат сэмплов : High Lossless Compression
TOC извлечённого CD
Трек | Старт | Длительность | Начальный сектор | Конечный сектор
---------------------------------------------------------------------
1 | 0:00.00 | 3:05.38 | 0 | 13912
2 | 3:05.38 | 4:06.46 | 13913 | 32408
3 | 7:12.09 | 3:30.58 | 32409 | 48216
4 | 10:42.67 | 3:00.14 | 48217 | 61730
5 | 13:43.06 | 4:07.22 | 61731 | 80277
6 | 17:50.28 | 3:48.44 | 80278 | 97421
7 | 21:38.72 | 3:29.46 | 97422 | 113142
8 | 25:08.43 | 2:56.50 | 113143 | 126392
9 | 28:05.18 | 3:03.29 | 126393 | 140146
10 | 31:08.47 | 4:02.27 | 140147 | 158323
11 | 35:10.74 | 3:07.56 | 158324 | 172404
12 | 38:18.55 | 3:01.25 | 172405 | 186004
13 | 41:20.05 | 2:51.45 | 186005 | 198874
14 | 44:11.50 | 5:46.25 | 198875 | 224849
15 | 49:58.00 | 3:16.74 | 224850 | 239623
Характеристики диапазона извлечения и сообщения об ошибках
Выбранный диапазон
Имя файла E:\CLUB 80 ITALIA\CD_2\Various - Club 80 Italia (Cd2).ape
Пиковый уровень 100.0 %
Качество диапазона 100.0 %
CRC копии 6C56F07A
Копирование... OK
Ошибок не произошло
Конец отчёта
Exact Audio Copy V0.99 prebeta 4 from 23. January 2008
Отчёт EAC об извлечении, выполненном 16. ноября 2009, 18:05
Various / Club 80 Italia (Cd3)
Дисковод: Optiarc DVD RW AD-7191S Adapter: 3 ID: 0
Режим чтения : Достоверность
Использование точного потока : Да
Отключение кэша аудио : Да
Использование указателей C2 : Нет
Коррекция смещения при чтении : 6
Способность читать области Lead-in и Lead-out : Нет
Заполнение пропущенных сэмплов тишиной : Да
Удаление блоков с тишиной в начале и конце : Нет
При вычислениях CRC использовались нулевые сэмплы : Да
Интерфейс : Встроенный Win32-интерфейс для Win NT/2000
Выходной формат : Monkey's Audio Lossless Encoder v3.99 DLL
Формат сэмплов : High Lossless Compression
TOC извлечённого CD
Трек | Старт | Длительность | Начальный сектор | Конечный сектор
---------------------------------------------------------------------
1 | 0:00.00 | 3:16.16 | 0 | 14715
2 | 3:16.16 | 3:48.29 | 14716 | 31844
3 | 7:04.45 | 3:04.57 | 31845 | 45701
4 | 10:09.27 | 3:03.12 | 45702 | 59438
5 | 13:12.39 | 3:21.15 | 59439 | 74528
6 | 16:33.54 | 3:36.32 | 74529 | 90760
7 | 20:10.11 | 4:12.31 | 90761 | 109691
8 | 24:22.42 | 3:54.01 | 109692 | 127242
9 | 28:16.43 | 4:18.60 | 127243 | 146652
10 | 32:35.28 | 3:43.18 | 146653 | 163395
11 | 36:18.46 | 3:05.01 | 163396 | 177271
12 | 39:23.47 | 3:12.45 | 177272 | 191716
13 | 42:36.17 | 3:58.21 | 191717 | 209587
14 | 46:34.38 | 4:41.30 | 209588 | 230692
15 | 51:15.68 | 4:03.39 | 230693 | 248956
Характеристики диапазона извлечения и сообщения об ошибках
Выбранный диапазон
Имя файла E:\CLUB 80 ITALIA\CD_3\Various - Club 80 Italia (Cd3).ape
Пиковый уровень 100.0 %
Качество диапазона 100.0 %
CRC копии 8F3A050E
Копирование... OK
Ошибок не произошло
Конец отчёта

[1.1 GB] Скачать / Download